#TITLE:Eye of the Storm;
#SUBTITLE:;
#ARTIST:Blindside;
#TITLETRANSLIT:;
#SUBTITLETRANSLIT:;
#ARTISTTRANSLIT:;
#CREDIT:;
#BANNER:Blindsidebanner.jpg;
#BACKGROUND:Blindside.jpg;
#LYRICSPATH:;
#CDTITLE:;
#MUSIC:01 - Eye Of The Storm.mp3;
#OFFSET:0.000;
#SAMPLESTART:100.000;
#SAMPLELENGTH:12.000;
#SELECTABLE:YES;
#BPMS:0.000=60.000;
#STOPS:;
#BGCHANGES:;
// cache tags:
#FIRSTBEAT:1.000;
#LASTBEAT:154.625;
#SONGFILENAME:Songs/dragon force/Eye of the Storm/Eye of the Storm.sm;
#HASMUSIC:1;
#HASBANNER:1;
#MUSICLENGTH:242.188;
// end cache tags

//---------------dance-single - Blank----------------
#NOTES:
     dance-single:
     Blank:
     Medium:
     9:
     0.230,0.255,0.244,0.462,0.337,215.000,59.000,112.000,0.000,4.000:

0000
0000
0000
0000
0000
0000
0000
0000
1000
0100
0000
0010
0000
0002
0000
0000
0003
0000
1000
0000
0100
0000
0010
0000
0002
0000
0000
0000
0003
0000
0000
2200
,
0000
0000
3300
0000
0000
0000
0000
0020
0000
0000
0000
0000
0000
0002
0000
0000
0000
0000
0000
0033
0000
0220
0000
0000
0000
0000
0000
0000
0000
0330
0000
1001
,
0000
0000
0000
0000
0000
0000
0000
0110
0000
0000
0000
0000
0000
0000
0000
0000
0000
0000
0000
0011
0000
0000
0001
0001
0000
0000
0220
0330
0000
0000
1001
0000
,
0000
0000
0200
0000
0000
0020
0000
0000
0330
0000
1000
0002
0000
0000
0000
0003
2000
0000
3000
0000
0220
0000
0000
0330
2002
0000
0000
0000
3003
0000
1000
0100
,
0010
0000
0000
0011
0100
1000
0000
0000
0000
0011
0000
0200
0000
0300
0000
0000
2000
0000
0000
0000
0000
0000
3000
0000
0100
0000
0000
0010
0000
0000
0000
0000
,
0000
0000
0000
0002
0000
0000
0000
0020
0000
0000
0000
0000
0000
0000
0000
0033
0000
0000
0022
0000
0000
0000
0000
0000
0033
0000
2000
0000
0000
0000
0000
0000
,
0200
0000
0000
0000
0000
3300
0000
0000
0000
0000
0000
0000
0000
0000
0000
1100
0000
0010
0001
0000
0000
1100
0000
0000
0110
0000
0011
0000
0000
2000
0000
0000
,
0000
0000
0002
0000
0000
0000
0000
3003
0000
0000
0000
0000
0000
0000
0000
2002
0000
0000
0000
0000
0000
0000
0000
0000
0000
3003
0000
0000
0000
0000
0220
0000
,
0000
0330
0000
0000
2002
0000
0000
3003
0000
0000
0220
0000
0000
0330
0000
0000
0000
0000
2000
0000
0000
0000
0000
3200
0000
0000
0000
0300
0000
0000
0000
0020
,
0000
0000
0000
0030
0000
0000
0000
0000
0000
0000
0000
0000
0000
0000
0000
2000
0000
0000
0000
0000
0000
0000
0000
0000
0000
0000
0000
0000
0000
0200
0000
0000
,
0000
0000
0000
0000
3300
0000
0000
0000
0000
0000
0000
0000
0000
0000
0000
2020
0000
0000
0000
3030
0200
0000
0000
0000
0300
0000
0000
0000
0000
0000
0000
0000
,
1000
0000
0000
0100
0000
0000
1000
0000
0000
0100
0000
0000
0200
0000
0000
0000
0000
0000
0300
0000
0000
0000
0000
0000
0000
0020
0000
0000
0000
0000
0000
0030
,
0000
0000
0000
0000
0000
0000
2000
0000
0000
0000
0000
0000
0000
0000
0200
0000
0000
0000
3300
0000
2200
0000
0000
0000
0000
3300
0000
2200
0000
0000
0000
0000
,
0000
3300
0000
0000
0000
0000
0000
1000
0200
0000
0300
0000
0020
0000
0000
0000
0000
0000
0000
0000
0000
0000
0000
0000
0002
0000
0000
0000
0000
0033
0011
0000
,
0000
0000
0000
0000
0000
0000
1000
0200
0000
0320
0030
0001
0000
0010
0000
1000
0000
0100
0000
0000
0110
0000
0000
0002
0000
0000
0000
0000
0003
0000
0000
0000
,
1000
0000
0200
0000
0310
0000
0000
0002
0000
0000
0003
0000
0000
0000
0000
0000
1000
0000
0000
0200
0000
0000
0320
0000
0000
0030
2000
0000
0000
0000
3000
0000
,
0100
0010
0000
0002
0000
0000
0000
0003
2000
0000
0000
0000
0000
3000
0000
0000
0000
0000
0000
0000
0000
0000
0000
0000
1100
0000
0010
0000
0000
0001
0000
0000
,
0000
1110
0000
0000
0000
1000
0000
0100
0000
0000
0000
0000
1000
0000
0100
0010
0000
0000
0000
2002
0000
0000
0000
0000
0000
0000
0000
0000
0000
0000
0000
0000
,
0000
0000
0000
0000
0000
0000
0000
0000
3003
0000
0220
0000
0000
0000
0000
0000
0000
0000
0000
0330
0000
0000
1001
0000
0000
0000
0000
0000
0000
0000
0000
1000
,
0000
0100
0000
0020
0030
0000
0001
0000
0000
1000
0100
0001
0000
0010
0000
0000
0000
0110
0000
0000
0000
0000
0000
0000
1100
0000
0000
0002
0000
0000
0000
0000
,
0000
0000
0000
0020
0000
0000
0000
0000
0033
0000
0000
0000
0000
0000
0000
0000
1001
0000
0000
0000
0000
0000
0100
0000
0000
0010
0000
0000
0001
0000
0000
2000
,
0000
3200
0300
0000
0020
0000
0032
0000
0000
0000
0003
0000
0000
0000
0000
0000
0000
0000
0000
2200
0000
0000
0000
0000
0000
0000
0000
0000
0000
0000
0000
0000
,
0000
0000
3300
2200
0000
0000
0000
0000
0000
0000
0000
0000
0000
0000
0000
3300
0000
0000
1001
0000
0000
0000
0000
0000
0000
0000
0000
0000
0000
0000
1000
0100
,
0000
0001
0000
0000
0010
0000
0000
0001
0000
0000
0000
1000
0000
0100
0000
0000
0001
0000
0000
0000
0010
0000
0000
0000
0000
2000
0000
0000
0000
0000
0000
0000
,
0000
0000
0000
0000
0200
0000
0000
0000
0000
0000
0000
0000
0300
3000
0000
0000
0000
1110
0000
0000
0000
0000
0000
0000
0000
0000
0000
0000
0000
0000
0000
0000
,
0111
0000
0000
0000
0000
0000
0000
0000
0000
0000
0000
0000
0000
0000
0000
1110
0000
0000
0000
0000
0000
0000
0000
0000
0000
0000
0000
0000
0000
0000
0000
2000
,
0000
0000
0000
0000
0000
0000
0000
0000
0000
0000
0002
0000
0000
0000
0000
0000
0000
0000
0000
0000
3003
0000
0000
0000
0000
0000
0110
0000
0000
0110
0000
0000
,
0000
0220
0000
0000
0000
0000
0330
0000
0000
0000
0000
0000
1000
0000
0100
0000
0000
0010
0000
0002
0003
0000
1100
0000
0000
0110
0000
0000
0000
0002
0000
0000
,
0000
0000
0000
0000
0000
0000
0000
0000
2003
0000
0000
0000
0000
3000
0000
0000
0000
0000
0000
1000
0000
0100
0000
0000
0010
0000
0002
0000
0000
0003
0000
0000
,
0000
0000
0000
0002
0000
0000
0003
0000
0000
0000
0220
0000
0000
0000
0330
0000
0000
0000
0000
0000
1100
0000
0000
0000
0000
0002
0000
0000
0000
0000
0000
0000
,
0000
0000
0000
0000
0000
0020
0000
0000
0003
0030
0011
0000
0000
0000
0000
0000
0000
0000
0000
0000
0000
1000
0100
0000
0000
0000
0001
0000
0010
0000
0100
0000
,
0000
0000
1100
0000
0000
0011
0000
0000
2002
0000
0000
0000
0000
0000
0000
0000
0000
0000
0000
3003
1100
0000
0000
0000
0020
0000
0030
0000
0000
0000
0000
0000
,
0000
1000
0000
0100
0000
0010
0000
0000
0000
0002
0000
0003
0000
0200
0000
0300
0000
0000
0020
0000
0000
0030
0000
0000
0000
2002
0000
0000
0000
0000
0000
3003
,
0000
0000
0000
0000
0000
0000
1000
0000
0000
0000
0000
0000
0000
0000
0000
0001
0000
0000
0000
0000
0000
0000
1000
0000
0000
0000
0000
0000
0000
0000
0001
0000
,
0000
0000
0000
0000
0000
0000
0000
0000
0000
0000
0000
0000
0000
1000
0000
0000
0000
0000
0000
0000
0000
0000
1001
0000
0000
0000
0000
0100
0000
0010
0000
0000
,
0001
0000
0000
0000
0002
0000
0000
0000
0003
0001
0000
0000
0000
0000
0000
0000
0000
1100
0000
0000
0020
0000
0000
0000
0002
0003
0030
0000
0000
0000
0000
0000
,
0000
0000
0000
1100
0000
0000
0000
0000
0010
0000
0000
0001
0000
0000
0000
0002
0000
0000
0000
0003
0000
0000
1100
0000
0000
0000
0020
0000
0000
0000
0000
0030
,
0000
0000
0000
0000
0110
0000
0000
0000
0000
0000
1000
0000
0000
0001
0000
0000
0000
0200
0000
0000
0000
0000
0300
0000
0000
0000
0000
0000
0000
0000
0000
0000
,
1100
0000
0000
0011
0000
0000
0000
2000
0000
0000
0000
3200
0000
0000
0000
0300
0000
0020
0000
0000
0000
0030
0000
0000
0000
0000
0000
0000
0000
0000
0000
0000
;
