#TITLE:New Death;
#SUBTITLE:(Muse Remix);
#ARTIST:Pyrrhon;
#TITLETRANSLIT:;
#SUBTITLETRANSLIT:;
#ARTISTTRANSLIT:;
#CREDIT:Aoreo;
#BANNER:new death bn.png;
#BACKGROUND:new death bg.png;
#LYRICSPATH:;
#CDTITLE:;
#MUSIC:New Death.ogg;
#OFFSET:-0.210;
#SAMPLESTART:49.094;
#SAMPLELENGTH:12.000;
#SELECTABLE:YES;
#DISPLAYBPM:280.000;
#BPMS:0.000=280.000;
#STOPS:;
#BGCHANGES:;
// cache tags:
#FIRSTBEAT:20.000;
#LASTBEAT:732.000;
#SONGFILENAME:Songs/SPEEEDCOOOORE 3/New Death (Muse Remix) - [Aoreo]/New Death.sm;
#HASMUSIC:1;
#HASBANNER:1;
#MUSICLENGTH:157.714;
// end cache tags

//---------------dance-single - J. Nero----------------
#NOTES:
     dance-single:
     J. Nero:
     Challenge:
     17:
     1.000,1.000,0.260,0.539,0.891,1337.000,41.000,85.000,0.000,0.000:
0000
0000
0000
0000
,
0000
0000
0000
0000
,
0000
0000
0000
0000
,
0000
0000
0000
0000
,
0000
0000
0000
0000
,
1000
0100
1000
0001
0100
0010
0100
0001
,
0100
0010
1000
0001
0010
0100
1000
0100
,
0010
0100
1000
0001
0100
0001
0010
0001
,
1000
0100
0010
0001
0100
0010
0100
0010
,
1000
0001
0010
0001
1000
0001
0100
0001
,
1000
0010
0100
0010
1000
0010
0100
0010
,
2000
3000
0000
0000
0000
0000
0000
0000
0002
0003
0000
0000
0000
0000
0000
0000
0200
0300
0000
0000
0000
0000
0000
0000
0002
0003
0000
0000
0000
0000
0000
0000
,
0020
0030
0000
0000
0200
0300
0000
0000
2000
3000
0000
0000
0002
0003
0000
0000
0200
0300
0000
0000
0020
0030
0000
0000
1000
0000
0001
0000
1000
0000
0001
0000
,
0100
0001
0010
0100
1000
0001
0100
0001
,
1000
0010
0100
0010
1000
0001
1000
0100
,
0010
0001
0100
0001
0010
0100
1000
0001
,
0100
0000
0010
0000
0100
0000
0001
0000
1000
0000
0100
0000
1000
0001
1000
0010
,
0100
0010
1000
0001
0010
0100
1000
0001
,
1000
0100
1000
0001
0010
0100
1000
0001
,
0100
0001
1000
0010
1000
0001
0010
0100
1000
0001
0100
0001
1000
0010
0100
0001
,
1000
0001
0100
0010
1000
0001
0010
0100
4000
0000
0000
0000
0000
0000
0000
0000
,
3001
0010
0001
1000
0100
0010
0001
1000
,
0001
0000
1000
0010
0100
0000
0001
0010
,
0100
1000
0001
1000
0010
0000
0100
0001
,
0100
0001
0010
0000
0100
0000
1000
0000
,
0001
0101
1000
1010
,
0010
0110
1000
1100
,
0001
0000
0010
0100
1000
0000
1010
0000
,
0010
0000
0101
0000
0001
1000
0100
1000
,
0010
0110
1000
1001
,
0001
0011
0010
1100
,
2000
3000
0002
0003
0020
0030
0200
0300
,
2000
3000
0002
0003
0100
0001
1000
0010
,
1000
0001
1000
0010
0200
0300
0002
0003
,
0020
0030
0200
0300
2000
3000
0002
0003
,
1000
1010
0010
0101
,
1000
0000
1100
0000
0001
0010
0100
0000
,
1000
1010
0010
0101
,
1000
1100
0001
0011
,
0010
0000
0001
0000
1000
0000
0000
0000
0001
0000
0100
0010
1000
0001
1000
0000
,
0001
0100
0001
1000
0100
0010
0001
1000
,
0001
0100
0000
0000
0001
0100
0000
0001
,
0010
0000
0100
0000
0000
0000
0000
0000
1000
0000
0100
0000
1000
0001
0100
0010
,
0100
0001
0010
0100
1000
0001
1000
0000
,
0001
0100
0010
0100
0001
0010
0100
0000
,
1000
0100
0000
0000
1000
0100
0000
1000
,
0001
0000
0100
0000
0000
0000
0000
0000
0001
0000
0100
0000
0001
1000
0001
0010
,
0100
0000
1000
0000
0000
0000
0000
0000
0001
0010
0100
1000
0001
0000
0000
0000
,
1000
0000
0010
0000
0100
0001
0100
0000
0001
0000
1000
0000
0010
0100
0001
1000
,
0001
0100
0000
0000
0001
0010
0000
0001
,
1000
0000
0100
0000
0000
0000
0000
0000
1000
0000
0010
0000
0100
0001
0100
0010
,
1000
0001
0010
0001
1000
0010
0100
0000
,
0001
0010
0100
1000
0001
0100
0010
0000
,
1000
0100
0000
0000
1000
0100
0000
1000
,
0001
0000
0100
0000
0000
0000
0000
0000
0001
0000
0010
0000
0001
1000
0001
0010
,
0100
0000
1000
0000
0001
0000
0100
0000
0001
0000
1000
0000
0010
0000
0100
0001
,
0100
0000
0001
0000
0010
0000
0100
0000
1000
0100
1000
0001
0010
0100
1000
0001
,
1000
0001
0100
0001
1000
0010
0100
0001
,
1000
0100
0010
0100
1000
0001
0100
0010
,
0100
0001
0010
0100
1000
0001
1000
0010
,
0100
0001
1000
0100
0010
0001
0100
0001
,
1000
0010
0100
0010
1000
0001
0010
0100
,
1000
0001
0100
0010
1000
0001
1000
0100
,
0020
0030
0002
0003
2000
3000
0020
0030
,
0200
0000
0300
0000
0002
0000
0003
0000
2000
0000
3000
0000
0010
1000
0001
0100
,
0001
1000
0100
1000
0001
0010
0100
1000
,
0001
0100
0001
1000
0010
0100
0010
1000
,
0001
1000
0100
0010
0001
0100
0001
1000
,
0010
0100
0010
1000
0001
0010
0100
1000
,
0010
0100
0001
1000
0100
0010
0001
1000
,
0001
0100
0001
1000
0010
1000
0001
0100
0010
0100
0001
1000
0100
0010
0001
1000
,
0100
1000
0001
0010
0001
1000
0100
0010
0001
1000
0010
0100
0001
0100
0010
1000
,
0001
0100
0001
1000
0100
1000
0001
0010
0100
1000
0001
0100
0001
1000
0100
0010
,
0001
0100
0001
0010
0100
1000
0001
1000
,
0010
0100
0010
1000
0001
1000
0100
0010
,
0001
1000
0100
1000
0010
0100
0001
0010
,
0100
1000
0001
0100
0001
1000
0100
0010
,
0001
1000
0001
0100
0010
0100
0001
1000
,
0001
0010
0100
1000
0001
1000
0010
0100
,
0001
1000
0100
1000
0001
0010
0100
1000
0001
0010
0001
1000
0100
1000
0001
0100
,
0001
1000
0010
0100
0010
1000
0001
1000
0010
0100
0010
1000
0001
0100
0001
1000
,
0001
0100
0001
1000
0100
0010
0001
0100
,
0001
1000
0010
0100
0010
1000
0100
0010
,
0001
1000
0010
0100
0001
0010
0100
1000
,
0001
0100
0001
1000
0010
0100
0010
1000
,
0001
1000
0100
0010
0001
0100
0010
0100
,
0001
0010
0100
1000
0001
0100
0010
1000
,
0001
0100
0001
1000
0010
1000
0001
0100
0001
1000
0100
1000
0001
0010
0100
1000
,
0001
0100
0001
1000
0100
1000
0001
0100
0010
1000
0001
0100
0010
1000
0010
0100
,
0001
1000
0100
1000
0010
0100
0001
1000
,
0001
0010
0100
1000
0001
1000
0010
0100
,
0001
0010
0100
1000
0001
0100
0010
0100
,
0001
0000
1000
0000
0100
0000
0010
0000
0001
0000
0100
0000
0010
1000
0010
0100
,
0001
1000
0100
0010
0100
1000
0001
0100
,
0001
1000
0010
0100
0001
1000
0001
0100
,
0001
1000
0100
1000
0001
0010
0001
1000
0010
0100
0001
1000
0001
0000
0000
0000
,
1000
0100
1000
0001
0100
0010
0100
0001
1000
0000
0001
0000
0100
0000
0010
0000
,
1000
0001
1000
0000
0001
0100
0001
0000
1000
0100
1000
0000
0010
0100
0010
0000
,
0100
0001
0100
0000
0001
0010
0001
0000
1000
0100
1000
0000
0001
1000
0100
0000
,
1000
0001
1000
0000
0001
0100
0001
0000
0100
0010
0100
0000
0010
1000
0010
0000
,
1000
0001
1000
0000
0001
0010
0001
0000
0010
0100
0010
0000
0100
1000
0100
0000
,
1000
0001
1000
0010
0100
0010
1000
0001
0010
0100
1000
0001
2000
0000
3000
0000
,
0001
1000
0100
1000
0001
0100
0010
1000
0002
0000
0003
0000
2000
0000
3000
0000
,
0001
0100
0001
1000
0010
0100
0010
1000
0001
1000
0001
0100
0040
0000
0030
0000
,
1000
0100
0010
0001
1000
0001
0010
0100
4000
0000
0000
0000
0000
0000
3000
0000
,
2002
0000
3003
0000
,
0000
0000
0000
0000
,
0002
0003
0000
0000
0020
0030
0000
0000
0200
0300
0000
0000
2000
3000
0000
0000
,
0002
0003
0000
0000
0200
0300
0000
0000
0020
0030
0000
0000
2000
3000
0000
0000
,
1001
0000
0000
0000
0001
0100
0000
0001
,
0010
0000
0000
0000
0000
0000
0100
1000
0001
0000
0000
0000
0000
0000
0000
0000
,
1100
0000
0000
0000
0000
0000
0000
0000
1001
0000
0000
0000
0000
0000
0001
0100
,
0010
0000
0000
0000
0000
0000
0000
0000
0110
0000
0000
0000
0000
0000
0100
0001
,
1000
0001
0000
0010
0100
0000
0000
0000
,
1000
0100
0000
1000
0001
0100
0000
0000
,
0202
0303
0000
0000
0000
0000
0001
1000
0001
0000
0000
0000
1000
0000
0000
0000
,
1100
0000
0000
0000
0000
0000
0000
0000
0100
1000
0001
0000
0000
0000
1000
0000
,
0010
0000
0000
0000
0100
0001
0000
0010
,
0100
0000
0000
0000
0000
0000
1000
0100
0010
0000
0000
0000
0000
0000
0000
0000
,
0001
0100
0001
1000
0000
0000
0000
0000
0010
0000
0100
0000
0000
0000
0010
0000
,
2000
3000
0000
0000
0000
0000
0100
0000
1000
0000
0000
0000
0001
0000
0100
0000
,
0010
0000
0000
0000
1000
0001
1000
0001
0100
0000
0000
0000
0001
0000
0000
0000
,
0020
0030
0000
0000
0100
0000
0000
0000
1000
0001
0100
0010
0100
0000
0000
0000
,
0001
0010
0000
0001
0100
0000
0000
0000
,
0010
1000
0000
0100
1000
0001
1000
0000
,
2002
0000
0000
0000
3003
0000
0000
0000
0001
0100
0001
1000
0000
0000
0000
0000
,
2200
0000
0000
0000
3300
0000
0000
0000
0100
1000
0001
0100
0000
0000
0000
0000
,
0202
0000
0000
0000
0303
0000
0000
0000
0001
1000
0010
1000
0000
0000
0000
0000
,
2020
0000
0000
0000
3030
0000
0000
0000
0010
1000
0010
0100
0000
0000
0000
0000
,
0220
0000
0000
0000
0330
0000
0000
0000
0010
1000
0001
1000
0000
0000
0000
0000
,
2002
0000
0000
0000
3003
0000
0000
0000
0001
0100
0001
1000
0000
0000
0000
0000
,
2002
3003
0001
0000
0010
0100
0000
0100
,
2000
0000
3000
0000
0001
0000
0000
0000
0100
0001
0100
0000
0000
0000
0010
0000
,
2000
0000
0000
0000
3000
0000
0000
0000
0001
1000
0001
0100
0000
0000
0000
0000
,
0202
0000
0000
0000
0303
0000
0000
0000
0001
0100
0010
1000
0000
0000
0000
0000
,
2020
0000
0000
0000
3030
0000
0000
0000
0010
0100
0001
1000
0000
0000
0000
0000
,
2002
0000
0000
0000
3003
0000
0000
0000
0001
1000
0100
1000
0000
0000
0000
0000
,
0002
0003
0000
0000
2000
3000
0000
0000
0020
0030
0000
0000
0200
0300
0000
0000
,
0002
0003
0000
0000
2000
3000
0000
0000
0200
0300
0000
0000
0020
0030
0000
0000
,
0002
0003
0200
0300
0002
0003
2000
3000
0200
0300
2000
3000
0002
0003
0020
0030
,
0100
1000
0001
1000
0010
0100
0001
1000
0040
0000
0130
0000
0040
0000
0130
0000
,
0001
1000
0001
0100
0010
0100
0001
1000
0010
1000
0001
0100
0001
1000
0100
0010
,
0001
1000
0100
1000
0001
0010
0001
1000
0010
0100
0010
1000
0001
0100
0001
1000
,
0010
0100
0010
1000
0001
0010
0001
1000
0100
1000
0001
0010
0100
1000
0001
1000
,
0004
0000
0000
0000
1003
0100
1000
0001
0400
0000
0000
0000
0301
1000
0001
0100
,
0010
0100
0001
1000
0100
1000
0001
0010
0001
1000
0100
0010
0100
1000
0001
0100
,
0001
1000
0010
1000
0001
0100
0001
1000
0010
0100
0001
1000
0001
0100
0010
0100
,
0004
0000
0043
0000
,
0430
0000
4300
0000
,
3001
0100
0001
1000
0010
1000
0100
0010
,
0001
0000
1000
0000
0001
0000
0100
0000
0010
0000
1000
0000
0001
0100
0001
1000
,
0010
1000
0100
0010
0001
1000
0001
0010
,
0100
0000
0010
0000
0001
0000
1000
0000
0001
0000
0100
0000
0001
1000
0001
0010
,
0100
1000
0100
0010
0001
1000
0010
0100
,
0010
0000
1000
0000
0100
0000
0010
0000
0001
0000
1000
0000
0010
1000
0001
0100
,
0010
1000
0001
0010
0100
1000
0010
0100
,
0001
1000
0100
1000
0001
0100
0010
1000
0004
0000
0000
0000
0000
0000
0000
0000
,
1003
0010
1000
0001
0100
0010
0100
0001
,
1000
0000
0100
0000
0010
0000
0001
0000
1000
0000
0001
0000
0100
0001
1000
0010
,
1000
0001
0010
0001
1000
0010
0100
0010
,
1000
0000
0100
0000
0010
0000
0001
0000
1000
0000
0001
0000
1000
0100
0010
0001
,
1000
0010
0100
0001
0010
0001
1000
0010
,
0100
0000
0010
0000
1000
0000
0001
0000
0010
0000
0100
0000
1000
0010
1000
0001
,
0010
0001
0100
0010
1000
0001
0010
0001
,
1000
0100
1000
0000
0000
0000
0100
0010
0001
0000
0000
0000
0001
0000
0000
0000
,
0010
0000
0000
0000
0100
0000
0000
0000
1000
0000
0000
0000
0001
0100
0001
1000
,
0010
0000
0000
0000
1000
0100
1000
0001
0100
0000
0000
0000
0001
0000
0000
0000
,
1000
0000
0000
0000
0010
0000
0000
0000
0100
0000
0000
0000
0001
1000
0001
0010
,
0100
0000
0000
0000
1000
0001
0010
0100
1000
0000
0000
0000
0001
0000
0000
0000
,
0100
0000
0000
0000
0001
0000
0000
0000
1000
0000
0000
0000
0001
0010
0001
1000
,
0100
0000
0000
0000
1000
0010
0100
0001
0100
0000
0000
0000
0001
0000
0000
0000
,
1000
0000
0000
0000
0001
0000
0000
0000
0100
0000
0000
0000
0001
0100
0001
1000
,
0010
0000
0000
0000
1000
0100
0010
0001
1000
0000
0000
0000
0001
0000
0000
0000
,
1000
0000
0040
0030
1000
0000
0400
0300
1000
0000
0004
0003
0100
0000
0040
0030
,
1000
0000
0004
0003
1000
0000
0400
0300
1000
0000
0040
0030
0100
0000
0000
0000
,
0001
0000
0400
0300
0001
0000
0040
0030
0001
0000
4000
3000
0010
0000
0400
0300
,
0001
0000
4000
3000
0001
0000
0040
0030
0001
0000
0400
0300
0010
0000
1000
0000
,
0100
0000
0040
0030
0001
0000
0400
0300
0001
0000
4000
3000
0010
0000
0400
0300
,
0010
0000
4000
3000
0001
0000
0040
0030
0100
0000
0040
0030
0001
0000
4000
3000
,
0001
0010
0100
0010
0001
1000
0100
0010
,
0001
0000
1000
0000
0010
0000
0100
0000
0010
0000
1000
0000
0001
0100
0010
1000
,
0002
0000
0000
0000
,
0000
0000
0000
0000
,
0003
0000
0000
0000
;

//---------------dance-single - J. Nero----------------
#NOTES:
     dance-single:
     J. Nero:
     Hard:
     15:
     1.000,1.000,0.260,0.539,0.742,1234.000,41.000,85.000,0.000,0.000:
0000
0000
0000
0000
,
0000
0000
0000
0000
,
0000
0000
0000
0000
,
0000
0000
0000
0000
,
0000
0000
0000
0000
,
1000
0100
1000
0001
0100
0010
0100
0001
,
0100
0010
1000
0001
0010
0100
1000
0100
,
0010
0100
1000
0001
0100
0001
0010
0001
,
1000
0100
0010
0001
0100
0010
0100
0010
,
1000
0001
0010
0001
1000
0001
0100
0001
,
1000
0010
0100
0010
1000
0010
0100
0010
,
2000
3000
0000
0000
0000
0000
0000
0000
0002
0003
0000
0000
0000
0000
0000
0000
0200
0300
0000
0000
0000
0000
0000
0000
0002
0003
0000
0000
0000
0000
0000
0000
,
0020
0030
0000
0000
0200
0300
0000
0000
2000
3000
0000
0000
0002
0003
0000
0000
0200
0300
0000
0000
0020
0030
0000
0000
1000
0000
0001
0000
1000
0000
0001
0000
,
0100
0001
0010
0100
1000
0001
0100
0001
,
1000
0010
0100
0010
1000
0001
1000
0100
,
0010
0001
0100
0001
0010
0100
1000
0001
,
0100
0000
0010
0000
0100
0000
0001
0000
1000
0000
0100
0000
1000
0001
1000
0010
,
0100
0010
1000
0001
0010
0100
1000
0001
,
1000
0100
1000
0001
0010
0100
1000
0001
,
0100
0001
1000
0010
1000
0001
0010
0100
1000
0001
0100
0001
1000
0000
0001
0000
,
0100
0001
0100
0010
1000
0001
0010
0100
4000
0000
0000
0000
0000
0000
0000
0000
,
3001
0010
0001
1000
0100
0010
0001
1000
,
0001
0000
1000
0010
0100
0000
0001
0010
,
0100
1000
0001
1000
0010
0000
0100
0001
,
0100
0001
0010
0000
0100
0000
1000
0000
,
0001
0101
1000
1010
,
0010
0110
1000
1100
,
0001
0000
0010
0100
1000
0000
1010
0000
,
0010
0000
0101
0000
0001
1000
0100
1000
,
0010
0110
1000
1001
,
0001
0011
0010
1100
,
2000
3000
0002
0003
0020
0030
0200
0300
,
2000
3000
0002
0003
0100
0001
1000
0010
,
1000
0001
1000
0010
0200
0300
0002
0003
,
0020
0030
0200
0300
2000
3000
0002
0003
,
1000
1010
0010
0101
,
1000
0000
1100
0000
0001
0010
0100
0000
,
1000
1010
0010
0101
,
1000
1100
0001
0011
,
0010
0000
0001
0000
1000
0000
0000
0000
0001
0000
0100
0010
1000
0001
1000
0000
,
0001
0100
0001
1000
0100
0010
0001
1000
,
0001
0100
0000
0000
0001
0100
0000
0001
,
0010
0000
0100
0000
0000
0000
0000
0000
1000
0000
0100
0000
1000
0001
0100
0010
,
0100
0001
0010
0100
1000
0001
1000
0000
,
0001
0100
0010
0100
0001
0010
0100
0000
,
1000
0100
0000
0000
1000
0100
0000
1000
,
0001
0000
0100
0000
0000
0000
0000
0000
0001
0000
0100
0000
0001
1000
0001
0010
,
0100
0000
1000
0000
0000
0000
0000
0000
0001
0010
0100
1000
0001
0000
0000
0000
,
1000
0000
0010
0000
0100
0001
0100
0000
0001
0000
1000
0000
0010
0100
0001
1000
,
0001
0100
0000
0000
0001
0010
0000
0001
,
1000
0000
0100
0000
0000
0000
0000
0000
1000
0000
0010
0000
0100
0001
0100
0010
,
1000
0001
0010
0001
1000
0010
0100
0000
,
0001
0010
0100
1000
0001
0100
0010
0000
,
1000
0100
0000
0000
1000
0100
0000
1000
,
0001
0000
0100
0000
0000
0000
0000
0000
0001
0000
0010
0000
0001
1000
0001
0010
,
0100
0000
1000
0000
0001
0000
0100
0000
0001
0000
1000
0000
0010
0000
0100
0001
,
0100
0000
0001
0000
0010
0000
0100
0000
1000
0100
1000
0001
0010
0100
1000
0001
,
1000
0001
0100
0001
1000
0010
0100
0001
,
1000
0100
0010
0100
1000
0001
0100
0010
,
0100
0001
0010
0100
1000
0001
1000
0010
,
0100
0001
1000
0100
0010
0001
0100
0001
,
1000
0010
0100
0010
1000
0001
0010
0100
,
1000
0001
0100
0010
1000
0001
1000
0100
,
0020
0030
0002
0003
2000
3000
0020
0030
,
0200
0000
0300
0000
0002
0000
0003
0000
2000
0000
3000
0000
0010
1000
0001
0100
,
0001
1000
0100
1000
0001
0010
0100
1000
,
0001
0100
0001
1000
0010
0100
0010
1000
,
0001
1000
0100
0010
0001
0100
0001
1000
,
0010
0100
0010
1000
0001
0010
0100
1000
,
0010
0100
0001
1000
0100
0010
0001
1000
,
0001
0100
0001
1000
0010
1000
0001
0100
0010
0100
0001
1000
0100
0010
0001
4000
,
0004
0000
0000
0000
,
0000
0000
0000
0000
0000
0000
0000
3003
,
1000
0010
1000
0100
0010
0001
1000
0001
,
0100
0010
0100
0001
1000
0001
0010
0100
,
1000
0001
0010
0001
0100
0010
1000
0100
,
0010
0001
1000
0010
1000
0001
0010
0100
,
1000
0001
1000
0010
0100
0010
1000
0001
,
1000
0100
0010
0001
1000
0001
0100
0010
,
1000
0100
0010
0100
1000
0001
0100
0010
,
0100
0000
0001
0000
0010
0000
0100
0000
1000
0000
0001
0100
0001
1000
0001
0000
,
1000
0010
1000
0001
0010
0100
1000
0010
,
1000
0001
0100
0010
0100
0001
0010
0100
,
1000
0001
0100
0010
1000
0100
0010
0001
,
1000
0010
1000
0001
0100
0010
0100
0001
,
1000
0001
0010
0100
1000
0010
0100
0010
,
1000
0100
0010
0001
1000
0010
0100
0001
,
1000
0000
0100
0000
1000
0000
0001
0000
0100
0001
0100
0010
1000
0010
0100
0001
,
1000
0100
1000
0001
0010
0001
1000
0100
0010
0001
1000
0001
0100
0001
1000
0010
,
1000
0001
0010
0001
0100
0010
1000
0001
,
1000
0100
0010
0001
1000
0001
0100
0010
,
1000
0100
0010
0001
1000
0010
0100
0010
,
1000
0000
0001
0000
0010
0000
0100
0000
1000
0000
0010
0000
0100
0001
0100
0010
,
1000
0001
0010
0100
0010
0001
1000
0010
,
1000
0001
0100
0010
1000
0001
1000
0100
,
1000
0100
1000
0001
0010
0001
1000
0010
0100
0001
1000
0010
1000
0000
0000
0000
,
0001
0010
0001
1000
0010
0100
0010
1000
0001
0000
1000
0000
0040
0000
0030
0000
,
4000
3000
0100
0000
4000
3000
0001
0000
0040
0030
0100
0000
1000
0001
1000
0000
,
0004
0003
0100
0000
0040
0030
0100
0000
0004
0003
0010
0000
0400
0300
1000
0000
,
0004
0003
0100
0000
0040
0030
0100
0000
0004
0003
1000
0000
0010
1000
0010
0000
,
0400
0300
0001
0000
0040
0030
0100
0000
4000
3000
0001
0000
0400
0300
0010
0000
,
1000
0001
1000
0010
0100
0010
1000
0001
0010
0100
1000
0001
2000
0000
3000
0000
,
0001
1000
0100
1000
0001
0100
0010
1000
0002
0000
0003
0000
2000
0000
3000
0000
,
0001
0100
0001
1000
0010
0100
0010
1000
0001
1000
0001
0100
0040
0000
0030
0000
,
1000
0100
0010
0001
1000
0001
0010
0100
4000
0000
0000
0000
0000
0000
3000
0000
,
2002
0000
3003
0000
,
0000
0000
0000
0000
,
0002
0003
0000
0000
0020
0030
0000
0000
0200
0300
0000
0000
2000
3000
0000
0000
,
0002
0003
0000
0000
0200
0300
0000
0000
0020
0030
0000
0000
2000
3000
0000
0000
,
1001
0000
0000
0000
0001
0100
0000
0001
,
0010
0000
0000
0000
0000
0000
0100
1000
0001
0000
0000
0000
0000
0000
0000
0000
,
1100
0000
0000
0000
0000
0000
0000
0000
1001
0000
0000
0000
0000
0000
0001
0100
,
0010
0000
0000
0000
0000
0000
0000
0000
0110
0000
0000
0000
0000
0000
0100
0001
,
1000
0001
0000
0010
0100
0000
0000
0000
,
1000
0100
0000
1000
0001
0100
0000
0000
,
0202
0303
0000
0000
0000
0000
0001
1000
0001
0000
0000
0000
1000
0000
0000
0000
,
1100
0000
0000
0000
0000
0000
0000
0000
0100
1000
0001
0000
0000
0000
1000
0000
,
0010
0000
0000
0000
0100
0001
0000
0010
,
0100
0000
0000
0000
0000
0000
1000
0100
0010
0000
0000
0000
0000
0000
0000
0000
,
0001
0100
0001
1000
0000
0000
0000
0000
0010
0000
0100
0000
0000
0000
0010
0000
,
2000
3000
0000
0000
0000
0000
0100
0000
1000
0000
0000
0000
0001
0000
0100
0000
,
0010
0000
0000
0000
1000
0001
1000
0001
0100
0000
0000
0000
0001
0000
0000
0000
,
0020
0030
0000
0000
0100
0000
0000
0000
1000
0001
0100
0010
0100
0000
0000
0000
,
0001
0010
0000
0001
0100
0000
0000
0000
,
0010
1000
0000
0100
1000
0001
1000
0000
,
2002
0000
0000
0000
3003
0000
0000
0000
0001
0100
0001
1000
0000
0000
0000
0000
,
2200
0000
0000
0000
3300
0000
0000
0000
0100
1000
0001
0100
0000
0000
0000
0000
,
0202
0000
0000
0000
0303
0000
0000
0000
0001
1000
0010
1000
0000
0000
0000
0000
,
2020
0000
0000
0000
3030
0000
0000
0000
0010
1000
0010
0100
0000
0000
0000
0000
,
0220
0000
0000
0000
0330
0000
0000
0000
0010
1000
0001
1000
0000
0000
0000
0000
,
2002
0000
0000
0000
3003
0000
0000
0000
0001
0100
0001
1000
0000
0000
0000
0000
,
2002
3003
0001
0000
0010
0100
0000
0100
,
2000
0000
3000
0000
0001
0000
0000
0000
0100
0001
0100
0000
0000
0000
0010
0000
,
2000
0000
0000
0000
3000
0000
0000
0000
0001
1000
0001
0100
0000
0000
0000
0000
,
0202
0000
0000
0000
0303
0000
0000
0000
0001
0100
0010
1000
0000
0000
0000
0000
,
2020
0000
0000
0000
3030
0000
0000
0000
0010
0100
0001
1000
0000
0000
0000
0000
,
2002
0000
0000
0000
3003
0000
0000
0000
0001
1000
0100
1000
0000
0000
0000
0000
,
0002
0003
0000
0000
2000
3000
0000
0000
0020
0030
0000
0000
0200
0300
0000
0000
,
0002
0003
0000
0000
2000
3000
0000
0000
0200
0300
0000
0000
0020
0030
0000
0000
,
0002
0003
0200
0300
0002
0003
2000
3000
0200
0300
2000
3000
0002
0003
0020
0030
,
0100
1000
0001
1000
0010
0100
0001
1000
0040
0000
0130
0000
0040
0000
0130
0000
,
0001
1000
0001
0100
0010
0100
0001
1000
0010
1000
0001
0100
0001
1000
0100
0010
,
0001
1000
0100
1000
0001
0010
0001
1000
0010
0100
0010
1000
0001
0100
0001
1000
,
0004
0003
4000
3000
,
0004
0000
0000
0000
0003
0000
0000
0000
0400
0000
0000
0000
0301
1000
0001
0100
,
0010
0100
0001
1000
0100
1000
0001
0010
0001
1000
0100
0010
0100
1000
0001
0100
,
0001
1000
0010
1000
0001
0100
0001
1000
0010
0100
0001
1000
0001
0100
0010
0100
,
0004
0000
0043
0000
,
0430
0000
4300
0000
,
3001
0100
0001
1000
0010
1000
0100
0010
,
0001
0000
1000
0000
0001
0000
0100
0000
0010
0000
1000
0000
0001
0100
0001
1000
,
0010
1000
0100
0010
0001
1000
0001
0010
,
0100
0000
0010
0000
0001
0000
1000
0000
0001
0000
0100
0000
0001
1000
0001
0010
,
0100
1000
0100
0010
0001
1000
0010
0100
,
0010
0000
1000
0000
0100
0000
0010
0000
0001
0000
1000
0000
0010
1000
0001
0100
,
0010
1000
0001
0010
0100
1000
0010
0100
,
0001
1000
0100
1000
0001
0100
0010
1000
0004
0000
0000
0000
0000
0000
0000
0000
,
1003
0010
1000
0001
0100
0010
0100
0001
,
1000
0000
0100
0000
0010
0000
0001
0000
1000
0000
0001
0000
0100
0001
1000
0010
,
1000
0001
0010
0001
1000
0010
0100
0010
,
1000
0000
0100
0000
0010
0000
0001
0000
1000
0000
0001
0000
1000
0100
0010
0001
,
1000
0010
0100
0001
0010
0001
1000
0010
,
0100
0000
0010
0000
1000
0000
0001
0000
0010
0000
0100
0000
1000
0010
1000
0001
,
0010
0001
0100
0010
1000
0001
0010
0001
,
1000
0100
1000
0000
0000
0000
0100
0010
0001
0000
0000
0000
0001
0000
0000
0000
,
0010
0000
0000
0000
0100
0000
0000
0000
1000
0000
0000
0000
0001
0100
0001
0100
,
0010
0000
0000
0000
1000
0100
1000
0100
0010
0000
0000
0000
0001
0000
0000
0000
,
1000
0000
0000
0000
0010
0000
0000
0000
0100
0000
0000
0000
0001
1000
0001
1000
,
0100
0000
0000
0000
1000
0100
1000
0100
0010
0000
0000
0000
0001
0000
0000
0000
,
0100
0000
0000
0000
0001
0000
0000
0000
1000
0000
0000
0000
0001
0010
0001
1000
,
0100
0000
0000
0000
1000
0010
0100
0001
0100
0000
0000
0000
0001
0000
0000
0000
,
1000
0000
0000
0000
0001
0000
0000
0000
0100
0000
0000
0000
0001
0100
0001
0100
,
0010
0000
0000
0000
1000
0100
1000
0100
0010
0000
0000
0000
0001
0000
0000
0000
,
1000
0000
0040
0030
1000
0000
0400
0300
1000
0000
0004
0003
0100
0000
0040
0030
,
1000
0000
0004
0003
1000
0000
0400
0300
1000
0000
0040
0030
0100
0000
0000
0000
,
0001
0000
0400
0300
0001
0000
0040
0030
0001
0000
4000
3000
0010
0000
0400
0300
,
0001
0000
4000
3000
0001
0000
0040
0030
0001
0000
0400
0300
0010
0000
1000
0000
,
0100
0000
0040
0030
0001
0000
0400
0300
0001
0000
4000
3000
0010
0000
0400
0300
,
0010
0000
4000
3000
0001
0000
0040
0030
0100
0000
0040
0030
0001
0000
4000
3000
,
0001
0010
0100
0010
0001
1000
0100
0010
,
0001
0000
1000
0000
0010
0000
0100
0000
0010
0000
1000
0000
0001
1000
0001
0100
,
0002
0000
0000
0000
,
0000
0000
0000
0000
,
0003
0000
0000
0000
;
