#TITLE:BIG BILL;
#SUBTITLE:;
#ARTIST:Blargafiggle;
#TITLETRANSLIT:;
#SUBTITLETRANSLIT:;
#ARTISTTRANSLIT:;
#CREDIT:Owem;
#BANNER:../banner.png;
#BACKGROUND:../bg.png;
#LYRICSPATH:;
#CDTITLE:../cdtitleowem.png;
#MUSIC:BIG BILL.ogg;
#OFFSET:-0.318;
#SAMPLESTART:31.636;
#SAMPLELENGTH:29.999;
#SELECTABLE:YES;
#DISPLAYBPM:224.540;
#BPMS:0.000=158.000,36.000=219.831,38.000=224.542;
#STOPS:;
#BGCHANGES:;
// cache tags:
#FIRSTBEAT:0.000;
#LASTBEAT:271.000;
#SONGFILENAME:Songs/Owem's Simfiles 08 - 1.2/BIG BILL - [Owem] v1.0.0/BIG BILL.sm;
#HASMUSIC:1;
#HASBANNER:1;
#MUSICLENGTH:76.904;
// end cache tags

//---------------dance-single - 16 (Owem)----------------
#NOTES:
     dance-single:
     16 (Owem):
     Challenge:
     16:
     1.000,1.000,0.195,0.715,1.000,714.000,15.000,55.000,15.000,1.000:
1000
0100
1000
0001
0100
0010
1000
0001
,
0100
0001
0010
0100
1000
0001
0010
0001
,
1000
0100
1000
0010
0100
0001
1000
0100
,
0010
0001
1000
0000
0001
0000
0100
0010
0100
0001
1000
0000
0100
0000
0010
0000
,
0001
0000
1000
0010
1000
0010
0100
0000
0001
0000
1000
0100
1000
0000
0010
0000
,
0100
0000
0001
0000
1000
0100
0000
0000
0020
0000
0032
0000
1003
0010
0000
0000
,
0100
0000
0000
0000
0001
0000
0000
0000
1000
0000
0000
0000
0100
0000
0000
0000
0000
0000
0010
0000
0000
0001
0000
0000
1000
0000
0000
0000
0010
0000
0000
0000
0100
0000
0000
0000
0001
0000
0000
0000
0000
0000
0000
0000
0000
2000
0000
0000
,
0000
0000
3000
0000
0100
0000
0010
0001
1000
0001
0100
0000
0010
0000
1000
0000
,
0001
0000
0000
0000
0000
0000
0000
0000
0000
0000
0000
0000
0200
0000
0000
0000
0000
0000
0000
0000
0000
0000
0000
0000
0000
0000
0000
0000
0000
0000
0000
0000
0000
0000
0000
0000
0000
0000
0000
0000
0000
0000
0000
0000
0000
0000
0000
0000
0300
0000
0000
0000
0000
0000
0000
0000
0000
0000
0000
0000
0000
0000
0000
0000
0000
0000
0000
0000
0000
0000
0000
0000
0000
0000
0000
0000
0000
0000
0000
0000
0000
0000
0000
0000
0000
0000
0000
0000
0000
0000
0000
0000
0000
0000
0000
0000
0000
0000
0000
0000
0000
0000
0000
0000
0000
0000
0000
0000
0000
0000
0000
0000
0000
0000
0000
0000
0000
0000
0000
0000
0000
0000
0000
0000
0000
0000
0000
0000
0000
0000
0000
0000
0000
0000
0000
0000
0000
0000
0000
0000
0000
0000
0000
0000
0000
0000
0000
0000
0000
0000
0000
0000
0000
0000
0000
0000
0000
0000
0000
0000
0000
0000
0000
2020
0000
0000
0000
0000
0000
0000
0000
0000
0000
0000
0000
0000
0000
0000
0000
0000
0000
0000
0000
0000
0000
0000
0000
0000
0000
0000
0000
0000
,
0000
0000
0000
0000
0000
0000
0000
0000
0000
0000
0000
0000
0000
0000
0000
0000
0000
0000
0000
3030
0000
0000
0000
0000
0000
0000
0000
0000
0000
0000
0000
0000
0000
0000
0000
0000
0000
0000
0000
0000
0000
0000
0000
0000
0000
0000
0000
0000
0000
0000
0000
0000
0000
0000
0000
0000
0000
0000
0000
0000
0000
0000
0000
0000
0000
0000
0000
0000
0000
0000
0000
0000
0000
0000
0000
0000
0000
0000
0000
0000
0000
0000
0000
0000
0000
0000
0000
0000
0000
0000
0000
0000
0000
0000
0000
0000
2000
0000
0000
0000
0000
0000
0000
0000
0000
0000
0000
0000
0000
0000
0000
0000
0000
0000
0000
0000
0000
0000
0000
0000
0000
0000
0000
0000
0000
0000
0000
0000
0000
0000
0000
0000
0000
0000
0000
0000
0000
0000
0000
0000
0000
0000
0000
0000
3100
0000
0000
0000
0000
0000
0000
0000
0000
0000
0000
0000
0000
0000
0000
0000
0000
0000
0000
0000
0000
0000
0000
0000
0000
0000
0000
0000
0000
0000
0000
0000
0000
0000
0000
0000
0000
0000
0000
0000
0000
0000
0000
0000
0000
0000
0000
0000
,
0010
0001
0011
0020
0000
0130
1000
0000
,
0001
1000
1020
0130
,
0001
1000
1100
0200
0000
0310
0001
0000
,
0001
1000
1200
0310
,
0001
1000
1010
0020
0000
0130
0001
0000
,
1000
0100
0210
0310
,
0001
1000
1010
0020
0000
0230
0302
2003
,
3002
0023
0230
2300
3010
0000
0100
0000
,
0001
0010
0110
0100
0000
1000
0100
0000
,
0010
0001
2001
3010
,
0100
0001
0101
0200
0000
0320
2030
3020
,
0230
0302
2003
3200
0310
0000
0001
0000
,
1000
0010
1010
2000
0000
3001
0010
0000
,
0200
2300
3002
2003
3100
0010
0001
0000
,
1000
0010
0200
0302
0000
1003
0100
1000
,
0010
0000
0100
0000
0001
0000
1000
0001
1000
0100
0010
0001
1000
0100
1000
0001
,
0010
0001
0100
0010
1000
0001
0100
0001
1000
0010
0100
0001
1000
0100
1000
0001
,
0010
0001
1000
0100
0010
0001
1000
0100
1000
0001
0100
0010
0100
0001
1000
0010
,
1000
0001
1000
0100
0010
0100
1000
0001
0010
0001
1000
0001
0100
0010
1000
0001
,
0100
0010
0100
0001
1000
0100
0010
0001
1000
0100
1000
0001
0010
0001
0100
0010
,
1000
0001
0100
0010
0100
0001
1000
0100
0010
0001
1000
0001
0100
0010
1000
0001
,
0100
0001
0010
0100
1000
0001
0010
0001
1000
0001
0100
0010
0100
0001
1000
0100
,
1000
0010
1000
0001
0100
0010
1000
0001
0010
0100
1000
0000
0010
0000
1000
0000
,
0001
0000
0000
0000
0000
0000
0000
0000
0000
0010
0000
0000
0100
0000
0000
0000
0000
0000
1000
0000
0000
0000
0000
0000
0001
0000
0000
0000
0100
0000
0000
0000
0001
0000
0000
0000
1000
0000
0000
0000
0100
0000
0000
0000
0010
0000
0000
0000
,
0001
1000
0010
0200
0000
0301
1000
0001
,
2000
0000
0000
3100
0000
0000
0010
0000
0000
0001
0000
0000
1000
0000
0100
0000
1000
0000
0001
0000
0100
0000
0010
0000
,
1000
0000
0001
0000
0100
0000
0020
0000
0000
0000
1030
0000
0001
0000
0100
0010
,
1000
0000
0001
0000
0100
0000
0001
0000
1000
0100
1000
0001
0100
0010
1000
0001
,
0100
0001
0010
0100
1000
0001
0010
0001
1000
0010
0100
0001
1000
0100
1000
0001
,
0010
0001
0100
0010
1000
0001
0100
0010
2000
0000
0001
0000
0000
0000
0001
0000
,
0000
0000
3001
0100
0010
0000
1000
0000
0000
0000
0001
0000
0100
0000
0001
0000
,
1000
0000
0000
0100
0000
0000
0010
0000
0001
0000
1000
0010
0100
0001
1000
0100
,
1000
0001
0100
0001
0010
0100
1000
0001
0010
0001
0100
0010
1000
0001
0100
0001
,
1000
0010
1000
0001
0100
0010
0100
0001
1000
0100
0010
0100
1000
0001
0010
0001
,
0100
0010
1000
0001
0100
0010
0100
0001
1000
0010
1000
0001
1000
0010
0100
0001
,
0100
0010
1000
0001
0010
0001
1000
0001
0100
0010
0100
0001
1000
0100
0010
0001
,
1000
0100
1000
0001
0010
0001
0100
0010
1000
0001
0100
0010
1000
0100
1000
0001
,
0100
0010
0100
0001
1000
0100
1000
0001
0100
0001
0010
0001
1000
0100
1000
0010
,
0100
0001
1000
0100
0010
0000
0002
0000
0000
0000
1003
0000
0010
0000
2000
0000
,
0000
0000
3001
0000
0200
0000
0000
0000
0310
1000
0001
1000
0100
0010
0100
1000
,
0001
0010
0001
0100
0010
1000
0001
0100
0001
1000
0010
1000
0001
0100
0010
1000
,
0001
0100
0001
0010
0100
1000
0001
0010
0001
1000
0100
0010
0100
1000
0001
0010
,
0001
0100
0010
1000
0001
0100
0010
0100
0001
1000
0010
1000
0001
0100
0001
0010
,
0100
1000
0001
0010
0001
1000
0100
1000
0001
0100
0010
1000
0001
0100
0010
0100
,
0001
1000
0100
1000
0001
0100
0010
1000
0001
0010
0001
1000
0100
1000
0001
0100
,
0001
1000
0010
1000
0001
1000
0010
0100
0001
0100
0010
1000
0100
1000
0001
0010
,
0100
1000
0100
0010
0001
1000
0001
0100
0010
0000
1000
0000
0001
0000
1000
0000
,
0200
0000
0320
0000
0032
0000
0000
0000
1003
0010
0100
0001
1000
0100
1000
0001
,
0100
0001
0010
0100
1000
0001
0010
0001
0100
0010
1000
0001
0100
0010
0100
0001
,
1000
0010
1000
0100
1000
0001
0010
0001
0100
0010
1000
0001
0100
0001
0010
0100
,
1000
0100
0010
0100
1000
0001
0010
0001
1000
0001
0100
0010
0100
0001
1000
0010
,
1000
0001
1000
0001
0100
0010
0100
0001
1000
0100
0010
0001
1000
0100
1000
0001
,
0010
0001
0100
0010
1000
0001
0100
0010
0100
0001
1000
0100
0010
0001
1000
0001
,
0100
0000
0000
0000
0020
0000
0000
0000
0030
0000
0000
1000
0000
0100
0000
0010
,
0000
0001
1000
0000
0000
0000
0020
0230
,
0300
0000
0000
0001
0000
0000
1000
0000
0100
0000
0010
0000
MMM2
0000
0000
0000
0000
0000
0103
0000
0000
0000
0000
0000
,
0010
1000
1MM1
1MM1
MMMM
0000
0001
0000
,
0100
0000
0000
0000
0010
0000
0000
0000
2222
0000
0000
3333
MMMM
0000
0000
0000
;
