#TITLE:Rage Template;
#SUBTITLE:;
#ARTIST:dev/null;
#TITLETRANSLIT:;
#SUBTITLETRANSLIT:;
#ARTISTTRANSLIT:;
#CREDIT:;
#BANNER:Rage Template-bn.png;
#BACKGROUND:Rage Template-bg.png;
#LYRICSPATH:;
#CDTITLE:;
#MUSIC:Rage Template.ogg;
#OFFSET:0.000;
#SAMPLESTART:64.750;
#SAMPLELENGTH:12.000;
#SELECTABLE:YES;
#DISPLAYBPM:200.000;
#BPMS:0.000=200.115;
#STOPS:;
#BGCHANGES:;
// cache tags:
#FIRSTBEAT:16.000;
#LASTBEAT:385.000;
#SONGFILENAME:Songs/SSSC Pack 2/Rage Template - [Debit14]/Rage Template.sm;
#HASMUSIC:1;
#HASBANNER:1;
#MUSICLENGTH:118.254;
// end cache tags

//---------------dance-single - debit13----------------
#NOTES:
     dance-single:
     debit13:
     Challenge:
     14:
     1.000,1.000,0.372,0.389,1.000,851.000,44.000,46.000,50.000,0.000:
0000
0000
0000
0000
,
0000
0000
0000
0000
,
0000
0000
0000
0000
,
0000
0000
0000
0000
,
0001
0100
0010
1000
0100
0010
0001
1000
,
0001
0010
0100
1000
0010
0100
0001
1000
,
0100
1000
0001
1000
0100
1000
0001
0100
,
0010
0100
0001
0100
0010
1000
0100
0010
,
0001
0000
0000
0000
0000
0000
0000
0000
0000
0000
0000
0000
1000
0000
0000
0000
0000
0000
0000
0000
0000
0000
0000
0000
0100
0000
0000
0000
0000
0000
0000
0000
0000
0000
0000
0000
0010
0000
0000
0000
0000
0000
0000
0000
0000
0000
0000
0000
0001
0000
0000
0000
0000
0000
0000
0000
0000
0000
0000
0000
0000
0000
0000
0000
0000
0000
0000
0000
0000
0000
0000
0000
1000
0000
0000
0000
0000
0000
0000
0000
0000
0000
0000
0000
0001
0000
0000
0000
0000
0000
0000
0000
0000
0000
0000
0000
0100
0000
0000
0000
0000
0000
0000
0000
0000
0000
0000
0000
0000
0000
0000
0000
0000
0000
0000
0000
0000
0000
0000
0000
0010
0000
0000
0000
0000
0000
0000
0000
0000
0000
0000
0000
0000
0000
0000
0000
0000
0000
0000
0000
0000
0000
0000
0000
0210
0000
0000
0000
0000
0000
0000
0000
0000
0000
0000
0000
0000
0000
0000
0000
000M
0000
0000
0000
0000
0000
0000
0000
0000
0000
0000
0000
0000
0000
0010
0000
0300
0000
0000
0000
0000
0000
0000
0000
0000
0000
0000
0000
0000
0000
0000
0000
,
0100
0000
0001
1000
0100
0000
0010
0001
2000
0000
3002
0000
0203
0000
0320
0000
,
2020
0000
0M00
0030
00M0
0000
0001
0000
0001
0000
0001
0000
0100
0000
3000
0000
,
1001
0001
1000
0100
0010
0100
1000
0001
,
1000
0010
0100
0001
1000
0001
0100
0000
0110
0000
0010
1000
0001
0000
0010
0000
,
0100
0000
0000
0000
0000
2000
00M0
0000
0001
0000
3000
0000
1000
0000
0000
0000
1000
0000
0000
0000
0001
0000
0000
0000
0001
0000
0000
0000
0100
0000
0000
0000
,
0001
1000
0010
1000
0100
1000
0001
1000
,
0010
0000
0100
0001
0100
0000
0010
0000
1000
0000
0001
1000
0001
0000
0010
0000
,
0100
0000
1000
0000
0001
0000
0010
0000
0100
0000
0000
0000
0010
0000
0001
0000
1000
0000
0000
0000
0010
0000
0100
0000
M002
0000
0000
0000
00M0
0003
1000
0000
,
0001
0000
0000
0100
0000
0000
0001
0000
0000
1000
0000
0000
0001
0000
0000
0010
0000
0000
0100
0000
0000
1000
0000
0000
0100
0000
0000
0010
0000
0000
0001
0000
0000
1000
0000
0000
0001
0000
1000
0000
0001
0000
1000
0000
0001
0000
1000
0000
,
0001
0000
0100
0010
1000
0000
0100
0000
0010
0001
0100
0000
0010
1000
0001
1000
,
0010
0100
0001
0000
0100
0010
1000
0000
1001
0000
0001
0000
0010
0000
0100
0000
,
1000
0100
1000
0100
4000
0004
3000
0000
0103
0000
0010
2000
0002
0000
3000
0000
,
1003
0100
0010
0001
1000
0000
0010
0000
0100
0001
0010
0000
0100
0000
1000
0100
,
1000
0000
0000
0000
0100
0000
1000
0000
0100
0000
0000
0000
1000
0000
0001
0000
1000
0000
0000
0000
0001
0000
0100
0000
0001
0000
0000
0000
0000
2000
0000
0000
,
0001
3000
0010
0000
0001
0000
1000
0000
0001
0000
0000
0000
1000
0000
0100
0000
0010
0000
0000
0000
0001
0000
0000
0000
0100
0000
0000
0000
0010
0000
0000
0000
,
1000
0000
0100
0000
0010
0000
0100
0000
1000
0000
0000
0000
0001
0000
0100
0000
0010
0000
0000
0000
1000
0000
0000
0000
1010
0000
0000
0000
0000
1000
0000
0000
,
0001
0000
0100
0001
1000
0000
0100
1000
0002
0000
2003
0000
3020
0000
0230
0000
,
0202
0000
0300
0000
00M0
0000
1M00
0000
1000
0000
1000
0M00
0013
0000
0001
0000
,
0011
0000
0001
0000
1000
0000
0001
0000
0100
0000
0010
1000
0100
0010
0001
1000
,
0001
0000
0100
0000
0010
0000
0100
0000
0001
0000
0000
0000
0010
0000
0000
0000
0100
1000
0000
0000
0001
0000
0100
0000
0020
0000
0000
0000
1000
0000
0030
0000
,
1010
0000
0000
0000
0000
0200
0000
0000
0001
0000
0300
0000
1000
0000
0000
0000
1000
0000
0000
0000
0100
0000
0000
0000
0010
0000
0000
0000
0001
0000
0000
0000
,
1000
0100
1000
0001
1000
0010
1000
0100
,
1000
0000
0001
1000
0001
0000
1000
0010
1000
0000
0001
0010
0001
0000
0100
0000
,
0101
0000
0100
0010
1000
0000
0001
0010
0100
0000
1000
0010
0200
0000
M00M
0000
,
0310
0000
0000
0100
0000
0000
0001
0000
0000
0010
0000
0000
0100
0000
0000
1000
0000
0000
0001
0000
0000
1000
0000
0000
0001
0000
0000
0100
0000
0000
0010
0000
0000
0100
0000
0000
0001
0000
1000
0000
0001
0000
1000
0000
0001
0000
1000
0000
,
0001
0010
0100
0000
0010
0100
1000
0000
0010
1000
0100
0000
0010
0001
1000
0001
,
0010
0100
1000
0000
0001
0100
0010
0000
0110
0000
0100
0000
0001
0000
1000
0000
,
0100
0010
0001
1000
0040
0400
0000
0030
0301
0000
1000
0200
0020
0330
0110
0000
,
0110
0000
0100
1000
0001
0000
0100
0000
0010
1000
0100
0000
0010
0000
0001
0100
,
0010
0000
0000
0000
1000
0000
0010
0000
0100
0000
0000
0000
0001
0000
0010
0000
0100
0000
0000
0000
1000
0000
0100
0000
0010
0000
0000
0000
0000
0002
0000
0000
,
1000
0003
0010
0000
0100
0000
0010
0000
1000
0000
0000
0000
0001
0000
0010
0000
0100
0000
0000
0000
1000
0000
0000
0000
0001
0000
0000
0000
0100
0000
0000
0000
,
0040
0000
0000
0000
0000
0000
0000
0000
0000
0000
0000
0000
0000
0000
0000
0000
0000
0000
0000
0000
0000
0000
0000
0000
0000
0000
0000
0000
0000
0000
0000
0000
000M
0000
0000
0000
0000
0000
0000
0000
0000
0000
0000
0000
0000
0000
0000
0000
0M00
0000
0000
0000
0000
0000
0000
0000
0000
0000
0000
0000
0000
0000
0000
0000
0000
0000
0000
0000
0000
0000
0000
0000
0000
0000
0000
0000
0000
0000
0000
0000
M000
0000
0000
0000
0000
0000
0000
0000
0000
0000
0000
0000
0000
0000
0000
0000
0000
0000
0000
0000
0000
0000
0000
0000
0000
0000
0000
0000
0000
0000
0000
0000
0000
0000
000M
0000
0000
0000
0000
0000
0000
0000
0000
0000
0000
0000
0000
0000
0000
0000
0000
0000
0000
0000
0000
0000
0000
0000
0000
0000
0000
0000
0000
0000
0M00
0000
0000
0000
0000
0000
0000
0000
0000
0000
0000
0000
0000
0000
0000
0000
0000
0000
0000
0000
0000
0000
0000
0000
0000
0000
0000
0000
0000
0000
M000
0000
0000
0000
0000
0000
0000
0000
0000
0000
0000
0000
0000
0000
0000
0000
0000
0000
,
0000
0000
0000
0000
0000
0000
000M
0000
0000
0000
0000
0000
0000
0000
0000
0000
0000
0000
0000
0000
0000
0000
0000
0000
0000
0000
0000
0000
0000
0000
0000
0000
0000
0000
0000
0000
0000
0000
0000
0000
0M00
0000
0000
0000
0000
0000
0000
0000
0000
0000
0000
0000
0000
0000
0000
0000
0000
0000
0000
0000
0000
0000
0000
0000
0000
0000
M000
0000
0000
0000
0000
0000
0000
0000
0000
0000
0000
0000
0000
0000
0000
0000
0000
0000
0000
0000
0000
0000
0000
0000
0000
0000
0000
0000
0000
0000
000M
0000
0000
0000
0000
0000
0000
0000
0000
0000
0000
0000
0000
0000
0000
0000
0000
0000
0000
0000
0000
0000
0000
0000
0000
0000
0000
0000
0000
0000
0M00
0000
0000
0000
0000
0000
0000
0000
0000
0000
0000
0000
0000
0000
0000
0000
0000
0000
0030
0000
0000
0000
0000
0000
0000
0000
0000
0000
0000
0000
0000
0000
0000
0000
0000
0000
M000
0000
0000
0000
0000
0000
0000
0000
0000
0000
0000
0000
0000
0000
0000
0000
0000
0000
0000
0000
0000
0000
0000
0000
0000
0000
0000
0000
0000
0000
,
0101
0000
1001
0000
,
0000
0000
00M0
0000
,
1001
0000
1100
0000
,
0000
0000
000M
0000
,
1100
0000
1010
0000
,
0000
0000
0M00
0000
,
1010
0010
0101
0001
,
0011
0010
1100
1000
,
1001
0001
0110
0100
,
1010
0010
1001
1000
,
0001
0100
0010
1000
0010
0100
0001
1000
0100
0010
0001
1000
0001
0010
0100
1000
,
0001
1000
0010
1000
0001
0100
0010
1000
0100
0010
0100
1000
0001
0010
0100
1000
,
0000
0002
0000
0000
0000
0000
0000
0000
0000
0000
0000
0000
0000
0000
0000
0003
M000
0000
0000
0000
0000
0000
0000
0000
0M00
0000
0000
0000
0000
0000
0000
0000
00M0
0000
0000
0000
0000
0000
0000
0000
000M
0000
0000
0000
0000
0000
0000
0000
0000
0000
0000
0000
0000
0000
0000
0000
0000
0000
0000
0000
0000
0000
0000
0000
,
MMMM
0000
0000
0000
,
1001
0000
0001
0010
0100
1000
0001
0100
0010
0000
1000
0100
0020
0000
0M01
M000
,
0031
0000
0000
0100
0000
0000
0010
0000
0000
0100
0000
0000
0001
0000
0000
1000
0000
0000
0100
0000
0000
0010
0000
0000
0001
0000
0000
1000
0000
0000
0001
0000
0000
0010
0000
0000
0100
0000
1000
0000
0100
0000
10MM
0000
0100
0000
1000
0000
,
0100
0000
1000
0001
0100
0001
1000
0100
0010
0001
1000
0000
0001
0100
0010
0100
,
0001
1000
0100
0000
1000
0001
0100
0000
0010
1000
0001
0010
0001
1000
0010
0000
,
0100
0001
0100
0010
1000
0001
0010
0100
1000
0000
0001
1000
0200
0000
100M
03M0
,
0100
0000
0000
1000
0000
0000
0001
0000
0000
0100
0000
0000
0010
0000
0000
0100
0000
0000
0001
0000
0000
0010
0000
0000
0100
0000
0000
1000
0000
0000
0001
0000
0000
1000
0000
0000
0001
0000
0100
0000
0001
0000
0100
0000
0001
0000
0100
0000
,
0001
1000
0000
0000
0001
1000
0000
0000
0010
1000
0000
0000
0010
1000
0000
0000
0001
0100
0000
0000
0001
0100
0000
0000
0001
0000
0010
0000
0100
0000
1000
0000
,
0001
0100
0010
0100
0002
0023
0230
2300
,
3001
0100
0010
4000
0004
3000
0003
0000
1000
0010
0100
0001
2000
0000
3010
0000
,
0110
0000
0010
1000
0001
0000
0101
0000
0100
0001
0010
0000
0100
1000
0100
1000
,
0001
0100
0010
0100
0001
0000
1000
0000
0100
0000
0010
0001
1000
0000
0001
0010
,
0100
1000
0100
0010
0100
0000
1000
0010
0100
0000
0001
0000
1000
0000
0100
0000
,
2100
000M
00M0
000M
3100
0000
0100
0000
1000
0100
0010
0001
1000
0000
0001
0010
,
0100
1000
0001
0100
0010
1000
0001
1000
0010
0100
0001
0000
0100
0010
1000
0010
,
0100
0001
1000
0000
0100
1000
0001
0000
1000
0010
0100
0001
1000
0010
0100
0010
,
1000
0000
0001
0100
0001
0010
0001
1000
0010
1000
0100
1000
0001
0100
0010
1000
,
0001
0010
0100
1000
0010
0000
1000
0100
0010
0001
0100
0000
0001
0000
0100
0000
,
0220
0000
0000
0300
1M00
0000
1030
0000
0010
1000
0001
0100
0010
0000
0000
0000
,
1000
0010
0100
0001
0010
0000
0001
0100
0010
1000
0100
0000
0010
0000
0100
0000
,
0220
0000
0000
0030
10M0
000M
1300
0000
0100
1000
0001
0100
0010
0100
0001
1000
,
0100
0000
0010
0000
0001
0000
1000
0000
0010
1000
0100
0000
1000
0001
0100
0001
,
1000
0000
0100
0000
0010
0000
0001
0000
1000
0000
0001
0100
0010
0100
0001
0000
,
0010
0000
0400
0000
1300
0000
0001
1000
0010
0100
0001
1000
0020
0000
0M0M
0000
,
1030
0100
1000
0001
1000
0100
0010
0001
1000
0001
0100
0010
0100
0001
1000
0100
,
0010
0001
0010
0001
0100
0000
0010
1000
0010
1000
0100
0000
0010
0000
0001
0000
,
0202
0000
0000
0300
1M00
0000
1003
0000
0001
0010
0100
1000
0001
0000
0001
0000
,
0100
0001
0100
0001
0010
0000
0100
1000
0100
1000
0010
0000
0100
0010
0100
0001
,
1000
0100
0010
0000
0100
1000
0001
0100
0010
0100
0001
0000
0100
0010
1000
0001
,
1000
0000
0100
0000
0010
0000
0001
0000
1000
0000
0001
0000
0100
0000
0000
0000
0010
0000
0000
0000
0100
0000
0000
0000
0102
0000
0000
0000
0000
1000
0003
0000
,
0001
0000
0010
0001
0100
0000
0001
0010
0200
0000
2300
0000
3002
0000
0203
0000
,
0310
0000
1000
0010
1000
0000
0001
0010
0001
0000
0010
0000
0200
0000
0000
1300
,
0100
0010
0001
0010
0001
1000
0010
1000
0001
0100
0001
1000
0100
1000
0001
0100
,
0001
0010
0100
1000
,
0001
0100
0010
0100
,
0011
0100
0011
0100
,
0010
1000
0100
0010
,
1100
0010
0100
1000
,
0001
0100
0010
1000
,
0011
1000
0011
1000
,
0101
1000
0101
1000
,
2002
30M3
0000
0000
;
