#TITLE:Abrasive Harmonies;
#SUBTITLE:;
#ARTIST:Zenith;
#TITLETRANSLIT:;
#SUBTITLETRANSLIT:;
#ARTISTTRANSLIT:;
#CREDIT:;
#BANNER:harmonies-banner.PNG;
#BACKGROUND:harmonies-bg.PNG;
#LYRICSPATH:;
#CDTITLE:cdtitle.PNG;
#MUSIC:Abrasive Harmonies Complete 128kbps VL.mp3.mp3;
#OFFSET:-0.120;
#SAMPLESTART:100.500;
#SAMPLELENGTH:12.500;
#SELECTABLE:YES;
#BPMS:0.000=118.840;
#STOPS:;
#BGCHANGES:;
// cache tags:
#FIRSTBEAT:0.000;
#LASTBEAT:246.000;
#SONGFILENAME:Songs/stepmix .10/Abrasive Harmonies/Abrasive Harmonies Complete 128kbps VL.mp3.sm;
#HASMUSIC:1;
#HASBANNER:1;
#MUSICLENGTH:127.862;
// end cache tags

//---------------dance-single - M. Herson----------------
#NOTES:
     dance-single:
     M. Herson:
     Medium:
     6:
     0.524,0.601,0.727,0.837,0.027,258.000,93.000,107.000,0.000,11.000:
0001
0010
0100
0010
0001
1000
0100
0000
,
0220
0330
0000
0000
,
2100
3100
0110
0020
0030
0000
0000
0000
,
2202
3303
0000
0000
,
0222
0000
0000
0333
0000
0000
0000
0000
,
0110
0000
0000
0000
2002
3000
0003
0000
0000
0000
0000
0000
0000
0000
0000
0000
0000
0000
0000
0000
0000
0000
0000
0000
0000
0000
0000
0000
0000
0000
0000
0000
,
1001
0110
0000
0000
1111
0000
0000
0000
,
0020
0200
0000
0000
2332
3003
0000
0000
,
1200
1300
0011
0001
1001
0000
0000
1000
,
0200
0320
0032
0003
0002
0203
0300
0100
,
0110
0101
0000
0000
0111
0000
0000
0000
,
0001
0100
0000
0000
0101
0000
0000
0000
,
1000
0001
1001
0000
2000
3200
0300
0000
,
0010
0002
0003
0000
0010
0002
0003
0000
,
1000
0100
0000
0000
1101
0000
0000
0000
,
0010
0100
0010
0000
0220
0330
0000
0000
,
1111
0000
0000
0000
2000
3200
0320
0030
,
0011
0000
0000
0000
0000
0000
0000
0000
0000
0000
0000
0000
0000
0000
0000
0000
0202
0300
0003
0000
0000
0000
0000
0000
0000
0000
0000
0000
0000
0000
0000
0000
,
0010
1000
0000
0000
0020
0130
0001
0000
,
2100
3100
0110
0010
0011
0000
0000
0000
,
1001
0001
1000
0000
2000
3200
0320
0031
,
0101
0010
0000
0000
1110
0000
0000
0000
,
1100
0110
0010
0001
0200
0000
0300
0000
,
1020
1000
1030
0000
0002
2000
3003
0000
,
1001
0001
0101
0000
0010
0000
0000
0000
,
0110
0100
0010
0000
0101
0100
1100
0000
,
1001
1000
0001
0000
2002
0000
3003
0000
,
0110
0100
0101
0001
1000
0000
0000
0000
,
1100
0100
0020
0000
0032
0000
0000
0000
,
1003
0100
0010
0000
1100
0000
0000
0000
,
0002
0010
0013
0000
0220
0000
0330
0000
,
1100
0100
0010
0000
2002
3000
0003
0000
,
1000
1100
0100
0000
0110
0000
0000
0002
,
1003
2000
3001
0000
0200
0310
0000
0000
,
0120
0000
1000
0000
2030
3000
0000
0000
0011
0000
0200
0000
0300
0000
0000
0000
,
0210
0020
0330
0000
0001
0010
0100
0000
,
1100
1000
0001
0000
0200
0301
0000
0000
,
0102
0000
0010
0000
1000
0000
0003
0000
2000
0000
0200
3000
0002
0300
0000
0000
,
0200
0003
2000
0300
0001
3000
0000
0000
0002
0000
0203
0000
0300
0000
0000
0000
,
0220
0000
0330
0000
2001
3002
0000
0003
,
0010
0100
0000
0000
0110
0000
0000
0000
,
2100
0000
0000
0000
0200
3000
0300
0000
0000
0000
0000
0000
0000
0000
0000
0000
0020
0000
0000
0000
0000
0000
0000
0000
0230
0000
0000
0000
0000
0000
0000
0000
,
1300
1100
0000
0000
0011
0000
0000
0000
,
0011
0000
0001
0000
0000
0000
0000
0000
0002
0000
0020
0003
0200
0030
0000
0000
,
0020
0300
0001
0030
0010
0000
0100
0000
0011
0000
0000
0000
0000
0000
0000
0000
,
0011
0110
1100
2002
0000
0000
3003
0000
,
1010
0100
0000
0000
1100
0000
0000
0000
,
0012
0100
0003
0000
0000
0000
0000
0000
,
0101
0010
0000
0000
0110
0000
0000
0000
,
2100
3100
0000
0000
0021
0031
0000
0000
,
2001
3001
0000
0000
2020
0000
3030
0000
,
0101
0010
0000
0000
1101
0000
0000
0000
,
0101
1000
0001
0000
0100
0010
0100
0001
,
1001
0101
2020
3030
2200
0000
3300
0000
,
1200
0000
0000
0000
0020
0030
0300
0000
0000
0000
0000
0000
0000
0000
0000
0000
0011
0000
0000
0000
0002
0000
0000
0000
0003
0000
0000
0000
0000
0000
0000
0000
,
0001
0100
0001
0000
0222
0333
0000
0000
,
1000
1100
1000
0000
0001
0101
0100
0000
,
0010
1000
0010
1000
0010
1000
0100
0020
0030
0002
0003
0020
0030
0200
0300
0000
,
1100
1000
0100
0010
0001
0022
0033
0000
,
1001
0001
1000
0000
1010
0010
1001
0000
,
2002
0000
0000
0000
0000
0000
0000
0000
0000
0000
0000
0000
0000
0000
0000
0000
0000
0000
0000
0000
0020
3000
0003
0000
0000
0000
0000
0000
0000
0000
0000
0000
,
0000
0000
0030
0000
;

//---------------dance-single - M. Herson----------------
#NOTES:
     dance-single:
     M. Herson:
     Hard:
     9:
     0.687,0.818,0.587,0.587,0.481,461.000,75.000,75.000,0.000,8.000:
1000
0010
0100
0010
0001
1000
0100
0000
,
0202
0000
0303
0000
0000
0010
1000
0100
,
1000
0000
0001
0000
1000
0000
0010
0000
0000
0000
0001
0010
1000
0000
1010
0000
,
0101
0000
0000
0011
0000
0000
1100
0000
,
1002
0100
0010
0010
0100
1000
1003
0000
,
0110
0000
0010
1000
0100
0000
0010
0001
0100
0000
0010
1000
0001
1000
0001
0000
,
1001
0110
0000
0010
0110
0000
1000
0100
,
1000
0100
1000
0000
0001
0100
0001
0000
1001
0000
1000
0001
0000
0001
0100
0010
,
0010
0000
1000
0000
1000
0100
0010
0000
0010
0001
0100
0010
1000
0010
1000
0000
,
1100
0000
0011
0000
0011
0000
0000
0000
0011
0000
1100
0000
0000
0000
1000
0100
,
1000
1000
0000
0000
1001
0001
1000
0010
,
0101
0000
1010
0000
1000
0100
0000
0100
0010
0000
0010
0001
0000
0001
0100
0000
,
0100
0000
0100
0000
0110
0000
0000
0000
1000
0000
0100
0000
0010
0001
0000
0001
,
0100
0000
0100
0001
0000
0000
0000
0100
0010
0100
1000
0000
0000
0000
0000
0100
,
1000
0100
0001
0000
0000
0000
0000
0100
0001
0010
0100
0000
0000
0000
0000
0100
,
1000
0100
0010
0100
0001
0000
0000
0100
0001
0100
1000
0000
0000
0000
0000
0000
,
1100
0000
0011
0000
0101
0000
0000
0000
1100
0000
0110
0000
0011
0000
0001
0100
,
0001
0000
1000
0000
0000
0000
0000
0000
0000
0000
0000
0000
0000
0000
0000
0000
2002
0003
3000
0000
0000
0000
0000
0000
0001
0000
0000
0000
0100
0000
0000
0000
,
0010
1100
0000
0000
1000
0100
0010
0000
,
0001
0000
0010
0000
0100
0000
1000
0000
1000
0000
0100
0000
0010
0000
0001
0000
0001
0000
0000
0000
0000
0000
0000
0000
0000
0000
0000
0000
0000
0000
0000
0001
,
0100
0000
0101
0000
1010
0000
1000
0100
1000
0000
1100
0000
0110
0000
0011
0000
,
0001
0100
0020
0000
0000
0000
0000
0000
1131
0000
0000
0000
0000
0000
0000
0000
,
0010
0100
0010
0001
2000
0000
0000
0000
,
3200
0000
0000
0000
0001
0000
0000
0000
0301
0000
0000
0000
0000
0000
0000
0000
0001
0100
0000
0000
0010
1000
0000
0000
0000
0000
0000
0000
0000
0000
0000
0000
,
1100
0100
0110
0010
0011
0000
0000
0000
,
0101
0100
0110
0010
1010
1000
0000
0100
,
0110
0010
0011
0000
1001
0000
0000
0000
,
1100
0110
1100
0110
0011
0000
0000
0000
,
1000
0000
0100
0000
0010
0000
0000
0001
0100
0000
0010
0000
0100
0000
0000
0000
,
0001
0000
1000
0100
0000
1000
0100
0000
1100
0000
0000
0000
0000
0000
0000
1000
,
0200
0000
0010
0000
0310
0000
0000
0000
0011
0000
0000
0001
0000
0000
0100
0000
,
0010
0000
0100
0000
0010
0000
1000
0100
0010
0000
0100
0010
0001
0000
0010
0001
,
0100
0000
0101
0000
0011
0000
0000
0000
0110
0000
0000
0000
0000
0000
1000
0001
,
0001
0000
0001
1000
1000
0000
0000
0000
0100
0010
0100
0000
0100
0000
0010
0001
,
2000
0000
0000
0000
0000
0000
0000
0000
0020
3000
0000
0000
0000
0000
0000
0000
0002
0030
0000
0000
0200
0003
0000
0000
0000
0000
0000
0000
0000
0000
0000
0000
,
2000
0300
0000
0000
0020
3000
0000
0000
0000
0000
0000
0000
0000
0000
0000
0000
1000
0030
0000
0000
0001
0000
0100
0000
0000
0000
0010
0000
1000
0000
0000
0000
,
1000
0010
0000
0100
0001
0000
0000
0000
0001
0002
0000
1000
2000
0003
0100
0200
,
3000
0010
0010
0000
0000
0000
0000
0000
1300
0000
0100
0000
1000
0000
0100
0010
,
0001
0000
0020
0000
0130
0000
0000
0000
0100
1000
0000
1000
0100
0000
0000
0000
,
0022
0000
0000
0000
0033
0000
0000
0000
1000
0100
1000
0000
0001
0100
0001
0000
,
1000
0010
1000
0000
0010
0001
0000
0001
1000
0000
1000
0100
0000
0100
0001
0000
,
0001
0010
0000
0010
0100
0010
0000
0100
1000
0000
1000
0001
0000
0001
0100
0000
,
0100
0010
0000
0010
1000
0000
1000
0100
1000
0100
0000
0100
0010
0000
0010
0001
,
0010
0001
0010
0000
0100
0010
0100
0000
1000
0100
1000
0001
0100
0001
0010
0001
,
0020
0000
0000
0000
0200
0030
2000
0300
0002
3000
0003
0000
0001
0000
0000
0000
1001
0000
0000
0000
0000
0000
0000
0000
0000
0000
0000
0000
0000
0000
0000
0000
,
0022
0033
0220
0330
2200
3300
2002
0000
3003
0000
1000
0100
1000
0001
1000
0000
,
2002
0000
3223
0000
,
0332
0000
0000
0000
2000
0003
0000
0000
0200
3000
0000
0000
0020
0300
0000
0000
0002
0030
0000
0000
0020
0003
0000
0000
0200
0030
0000
0000
2000
0300
0000
0000
,
0010
3000
0000
0000
0100
0000
0001
0000
0000
0000
0001
0000
0010
0000
0000
0000
1000
0000
0000
0000
1000
0000
0010
0000
0000
0000
0010
0000
0001
0000
0000
0000
,
0010
0000
0011
0000
0000
0000
0010
0000
0110
0000
1000
0000
0000
0000
1000
0100
,
0002
0103
0000
0000
2222
0000
3000
0300
,
2000
0000
0000
0000
0233
3000
0000
0000
0020
0300
0000
0000
0002
0030
0000
0000
1000
0003
0000
0000
0000
0000
0000
0000
0000
0000
0000
0000
0000
0000
0000
0000
,
2000
0000
0000
0000
0100
3000
0010
0000
0200
0000
0000
0000
1300
0000
0001
0000
0000
0000
0001
0000
2000
0000
0000
0000
0200
3000
0000
0000
0020
0300
0000
0000
,
0002
0030
0000
0000
0100
0003
0000
0000
0202
0000
0303
0000
0000
0000
0000
0000
2020
0000
0000
0000
0000
0000
0000
0000
3030
0000
0000
0000
0000
0000
0000
0000
,
1100
0000
0011
0000
0101
0000
1010
0000
0002
0000
0200
0003
0300
0000
0000
0000
,
1000
0100
1000
0100
1000
0000
0001
0100
0000
0010
1000
0100
0010
0000
0010
0100
,
1000
1000
1000
0001
1000
0000
0000
0000
0001
0001
0001
1000
0001
0000
1001
0000
,
1000
0100
0010
0001
0100
0010
1000
0002
0000
0200
0003
2000
0300
0020
3000
0000
,
0001
0030
0000
0000
0100
0000
0010
0000
1000
0000
1002
0000
0000
0000
1003
0000
,
1000
0100
0010
0000
0110
0000
0010
0000
0001
0100
0010
1000
1010
0000
0000
0000
,
2202
0000
0000
0000
0000
0020
0000
0000
,
0000
0000
3333
0000
;

//---------------dance-single - M. Herson----------------
#NOTES:
     dance-single:
     M. Herson:
     Easy:
     3:
     0.299,0.409,0.242,0.297,0.000,199.000,31.000,38.000,0.000,0.000:
0010
0001
0010
0001
0010
0001
0010
0000
,
0001
0000
0000
0000
,
1000
0100
1000
0100
0000
0000
0000
0000
,
1000
0000
0000
0000
,
0101
0000
0000
0000
,
0010
0001
0000
0000
0000
0000
0000
0000
,
0001
1000
0000
0000
1000
0000
0000
0000
,
0010
1000
0000
0000
1000
0000
0000
0000
,
1000
1000
0001
0001
0001
0000
0000
1000
,
1000
0001
0001
0000
0110
0000
0000
0100
,
0100
0100
0000
0000
0110
0000
0000
0000
,
1000
1000
0000
0000
1000
0000
0000
0000
,
0200
0302
0023
2030
,
3100
0000
0110
0000
,
1100
0000
0011
0000
,
1000
0100
1000
0000
0010
0000
0000
0000
,
1000
0000
1100
0000
,
0010
0001
0100
0000
,
0010
1000
0000
0000
0100
0010
0001
0000
,
1100
0000
0011
0000
,
1000
0010
0100
0000
,
1001
0000
0010
0000
,
1000
0100
1000
0010
1000
0000
0000
0000
,
0001
0010
0000
0000
0001
0100
0000
0000
,
0010
1000
1100
0000
,
0001
0100
1010
0000
,
0200
0000
0320
0000
,
0032
0000
0000
0000
0203
0000
0000
0300
,
0010
0000
1000
0000
,
0100
0000
1100
0000
,
0010
1000
0000
0000
0101
0000
0000
0000
,
0100
1000
0010
0000
0100
0000
0000
0000
,
0001
0000
1001
0000
,
1001
1001
1001
0110
,
0110
0000
0100
1000
,
0100
0000
0000
0000
0010
0001
0100
0000
,
2020
3030
0202
0303
,
2020
3030
0110
0010
,
0001
0000
0100
0000
0010
1000
0000
0000
,
0110
0000
1001
0000
,
0001
0100
0001
0100
,
0010
1000
0100
0010
,
0001
0010
0000
0000
0100
0000
0000
0000
,
1000
0010
0000
0000
0100
0001
1000
0000
,
0020
2030
3200
0320
,
0032
0203
0302
0023
,
0230
2300
3020
0000
,
0230
0302
0203
0000
,
0320
2030
3200
0302
,
0203
2300
3020
0230
,
0301
1000
0000
0000
0110
0000
0000
0000
,
0001
1000
0000
0000
0110
0000
0000
0000
,
0010
0001
0100
0010
,
1000
0100
1000
0000
0001
0000
0000
0000
,
0101
0000
0000
0000
0001
0100
0000
0000
,
0100
0010
0100
0000
,
0100
1000
0010
0100
,
0001
1000
0100
0100
0010
0001
0001
0010
,
0100
0001
1000
0010
,
0100
0000
1001
0000
,
0220
0000
0000
0000
,
0000
0000
0330
0000
;

//---------------dance-single - M. Herson----------------
#NOTES:
     dance-single:
     M. Herson:
     Beginner:
     1:
     0.115,0.216,0.047,0.141,0.000,79.000,6.000,18.000,0.000,0.000:
0002
0000
0000
0000
,
1003
0000
0000
0000
,
1000
0000
0000
0000
,
0100
0000
0010
0000
,
0001
0000
0000
0000
,
0010
0000
0000
0000
,
0100
0000
1000
0000
,
0001
0000
0000
0000
,
0100
0000
0010
0000
,
1000
0000
0000
0000
,
0001
0000
0000
0000
,
0100
0000
0000
0000
,
0010
0000
0000
0000
,
0100
0000
0000
0000
,
0010
0000
0000
0000
,
0010
0000
0010
0000
,
1000
0000
0000
0000
,
1000
0000
0000
0000
,
0100
0000
0000
0000
,
0010
0000
0010
0000
,
0001
0000
0000
0000
,
1000
0000
0001
0000
,
0001
0000
0000
0000
,
0001
0000
0100
0000
,
0002
0000
2003
3000
,
0002
0000
2003
3000
,
0020
0000
0000
0000
,
0030
0000
0000
0000
,
1001
0000
0000
0000
,
0110
0000
0000
0000
,
0010
0000
1000
0000
,
0100
0000
0100
0000
,
0100
0000
0000
0000
,
0020
0030
2000
3000
,
0200
0300
0002
0003
,
0020
0030
1000
0000
,
0100
0000
0000
0000
,
0100
0000
0000
0000
,
0001
0000
0000
0000
,
0000
0000
0000
0000
,
0100
0000
0000
0000
,
0100
0000
0000
0000
,
0010
0000
1000
0000
,
0001
0000
0000
0000
,
0002
0000
0023
0000
,
0230
0000
2300
0000
,
3000
0000
1001
0000
,
0000
0000
1001
0000
,
0000
0000
0100
0000
,
0010
0000
0000
0000
,
0001
0000
1000
0000
,
0001
0000
0001
0000
,
0001
0000
1000
0000
,
1000
0000
0000
0000
,
0010
0000
0000
0000
,
0100
0000
0000
0000
,
0001
0000
0000
0000
,
2000
0000
0000
0000
,
3001
0000
0000
0000
,
0110
0000
0000
0000
,
2002
0000
0000
0000
,
0000
0000
3003
0000
;

//---------------dance-single - M. Herson & Abrasive----------------
#NOTES:
     dance-single:
     M. Herson & Abrasive:
     Challenge:
     11:
     0.487,0.527,0.141,0.016,1.000,416.000,18.000,2.000,0.000,0.000:
0010
0000
0000
0000
0000
1000
0000
0000
0000
0100
0000
0000
0000
0010
0000
0000
0000
0001
0000
0000
0000
0100
0000
0000
0000
0010
0000
0000
0000
0000
0000
0000
,
0000
1000
0100
0000
0000
0000
0000
0000
0000
0000
0000
0000
0000
0000
0000
0000
0000
0000
0000
0010
0000
0000
0001
0000
0000
0000
0000
0000
0000
0000
0000
0000
0000
0000
0000
0100
0000
0010
0000
0000
0000
0000
0000
0000
0000
0000
0000
0000
0000
0000
0000
0000
0000
0100
0000
1000
0000
0000
0000
0000
0000
0000
0000
0000
,
0000
0000
0001
0000
0000
0000
0000
0000
0000
0100
0000
0000
0000
0000
0000
0000
0010
0000
0000
0000
0000
0000
0000
0000
1100
0000
0000
0000
0000
0000
0000
0000
0000
0000
0000
0000
0000
0000
0000
0000
0001
0000
0000
0000
0000
0000
0000
0000
0100
0000
0000
0000
0000
0000
0010
0000
0000
0000
0000
0000
0000
0000
0000
0000
,
0001
0000
0000
0000
0000
0000
0000
0000
0000
0000
0000
0000
0000
0000
1000
0000
0000
0000
0000
0000
0000
0000
0000
0000
0000
0000
0000
0000
0000
0010
0000
1000
0000
0000
0000
0000
0000
0000
0000
0000
0000
0000
0000
0000
0000
0100
0000
0000
0000
0000
0000
0000
0000
0000
0010
0000
0000
0000
0000
0000
0000
0001
0000
0000
,
0000
0000
0000
0000
0000
0000
0000
0000
0000
0000
0000
0000
0000
0000
0100
0000
0000
0000
0000
0010
0000
0000
0000
0000
0000
0000
0000
0000
1000
0000
0000
0000
0000
0000
0000
0000
0000
0000
0000
0000
0000
0000
0000
0000
0000
0000
0000
0000
0000
0000
0000
0100
0000
0000
0000
0000
0000
0000
0000
0000
0000
0000
0010
0000
,
0000
0000
0000
0000
0000
0001
0000
0000
0000
0000
0100
0000
0000
0000
0000
0000
0000
0000
0000
0000
0000
0000
0000
0000
0000
0000
0000
0000
1100
0000
0000
0000
0000
0000
0000
0000
0000
0000
0000
0000
0000
0000
0000
0000
0000
0000
0000
0000
0000
0000
0000
0000
0010
0000
0000
0000
0000
0000
0000
0000
0000
0000
0000
0000
,
0000
0000
0001
0000
0000
0000
0000
0000
0000
0000
0100
0000
0000
0000
0000
0000
0000
0000
0000
0000
0000
0000
0010
0000
0000
0000
0000
0000
0000
0000
1000
0000
0000
0000
0000
0000
0000
0000
0000
0000
0100
0000
0000
0000
0000
0010
0000
0000
0000
0001
0000
0000
0000
0000
0000
0000
0000
0000
0000
0000
0000
0000
0100
0000
,
0000
0010
0000
0000
0000
0000
0000
0000
0000
0000
0000
0000
0000
0000
0000
0000
0000
0000
0000
1100
0000
0000
0000
0000
0000
0000
0000
0000
0000
0000
0000
0000
0000
0000
0000
0000
0000
0000
0001
0000
0000
0000
0000
0000
0010
0000
0000
0000
0000
0000
0000
0000
0000
0000
0000
0000
0000
0000
0000
0100
0000
0000
0000
1000
,
0000
0000
0000
0000
0000
0000
0000
0000
0000
0000
0000
0010
0000
0000
0100
0000
0000
0000
0000
0000
0000
0000
0000
0000
0000
0000
0000
0000
0001
0010
0000
0000
0000
0000
0000
0000
0000
0000
0000
0000
0000
0000
0000
0000
0000
0000
0000
0100
0000
1000
0000
0000
0000
0000
0000
0000
0000
0000
0000
0000
0000
0000
0000
0010
,
0000
0000
0100
0000
0000
0000
0000
0000
0000
0000
0000
0000
0000
0000
0000
0000
0000
0000
0001
0000
0000
0000
0000
0000
0000
0000
0000
0000
0000
0000
0000
0000
0010
0000
0000
0000
0000
0000
0000
0100
0000
0000
0000
0000
0000
0000
0000
0000
0000
0000
0000
0000
0000
0000
0000
0000
0010
0000
0000
0000
0000
0000
0000
0000
,
0100
0000
0000
0000
0000
0000
0000
0000
0000
0000
0000
0000
1000
0000
0010
0000
0000
0000
0100
0000
0000
0000
0000
0000
0000
0000
0000
0000
0000
0000
0000
0000
0000
0001
0000
0000
0000
0000
0000
0000
0000
0000
0000
0000
0000
0000
0000
0010
0000
0000
0100
0000
0000
1000
0000
0000
0000
0000
0000
0000
0000
0000
0000
0000
,
0000
0000
0010
0000
0000
0000
0000
0000
0000
0000
0000
0100
0000
0000
0000
0001
0000
0000
0000
0010
0000
0000
0000
0000
0000
0000
0000
0000
0000
0000
0000
0000
0000
0100
0000
0000
0000
0000
0000
0000
0000
0000
0000
0000
0000
0000
0000
0000
1000
0000
0010
0000
0000
0000
0000
0000
0000
0000
0000
0000
0000
0000
0000
0000
,
0100
0001
0000
0000
0000
0000
0000
0000
0000
0000
0000
0000
0000
0000
0000
0100
0000
0000
0000
0010
0000
0000
0000
0000
0000
0000
0000
0000
0000
0000
0000
0100
0000
0000
1000
0000
0000
0000
0000
0000
0000
0000
0000
0000
0000
0010
0000
0000
0100
0000
0000
0000
0000
0000
0000
0000
0000
0000
0000
0000
0000
0000
0000
0001
,
0000
0000
0000
0000
0000
0000
0000
0000
0000
0000
0000
0000
0000
0000
0000
0000
0000
0000
0100
0000
0000
0000
0000
0000
0000
0000
0000
0000
0000
0000
0000
0000
0000
0010
0000
0000
0000
0000
0000
0000
0000
1000
0000
0000
0000
0000
0000
0000
0100
0000
0000
0000
0000
0000
0000
0000
0000
0000
0000
0000
0000
0000
0000
0000
,
0010
0000
0000
0000
0001
0000
0000
0000
0000
0100
0000
0000
0000
0000
0000
0000
0000
0000
0000
0000
0000
0000
0000
0000
0000
0000
0000
0000
0000
0000
0000
0000
0000
0000
1000
0000
0000
0000
0000
0000
0000
0000
0000
0000
0000
0000
0000
0000
0000
0000
0000
0000
0000
0000
0000
0000
0000
0000
0100
0000
0000
0010
0000
0000
,
0000
0001
0000
0000
0000
0100
0000
0000
0000
0000
0000
0000
0000
0000
0000
0000
0000
0000
0000
0000
0010
0000
0000
0000
1000
0000
0000
0000
0100
0000
0000
0000
0010
0000
0000
0000
0000
0000
0000
0000
0000
0000
0000
0000
0000
0000
0000
0001
0000
0000
0000
0000
0000
0000
0000
0000
0000
0000
0000
0000
0000
0000
0100
0000
,
0000
0010
0000
0000
0000
1000
0000
0000
0000
0000
0000
0000
0000
0000
0000
0000
0000
0000
0000
0000
0000
0000
0000
0000
0000
0000
0100
0000
0000
0000
0010
0000
0001
0000
0000
0000
0000
0000
0000
0000
0000
0000
0000
0000
0000
0000
0000
0000
0000
0000
0000
0000
0000
0000
0000
0000
0000
0100
0000
0000
0000
0010
0000
0000
,
0000
1000
0000
0000
0000
0000
0000
0000
0000
0000
0000
0000
0000
0000
0100
0000
0000
0010
0000
0000
0000
0000
0000
0000
0000
0000
0000
0000
0000
0001
0000
0000
0100
0000
0000
0000
0000
0000
0000
0000
0000
0000
0000
0000
0000
0000
0000
0000
0000
0000
0000
0000
0000
0000
0000
0000
0000
0000
0000
0000
0000
1010
0000
0000
,
0000
0000
0000
0000
0000
0000
0000
0000
0000
0000
0000
0000
0000
0000
0000
0101
0000
0000
0000
0000
0000
0000
0000
0000
0000
0000
0000
0000
0000
0000
0000
0100
0010
0000
0000
0000
0000
0000
0000
0001
1000
0000
0000
0000
0000
0000
0000
0000
0000
0110
0000
0000
0000
0000
0000
0000
0000
0000
0000
0000
0000
0000
0000
0000
,
0010
0000
0000
1000
0000
0000
0000
0000
0100
0000
0000
0000
0000
0000
0000
0000
0010
0000
0000
0000
0001
0000
0000
0000
0100
0000
0000
0000
0000
0000
0000
0000
0000
0000
0010
1000
0000
0000
0000
0000
0000
0000
0000
0000
0000
0000
0000
0000
0000
0000
0100
0000
0010
0000
0000
0000
0000
0000
0000
0000
0000
0000
0000
0000
,
0000
0000
0001
0000
0100
0000
0000
0000
0000
0000
0000
0000
0000
0000
0000
0000
0000
0000
0000
0000
0000
0000
0000
0000
0000
0000
0000
0000
0000
0000
0000
0000
0000
0000
0010
0000
0000
0000
0000
0000
0000
1000
0000
0000
0000
0000
0000
0000
0000
0000
0100
0000
0000
0000
0000
0000
0000
0000
0000
0000
0000
0000
0000
0000
,
0000
0011
0000
0000
0000
0000
0000
0000
0000
0000
0000
0000
0000
0000
0000
0000
0000
0000
0000
0000
0000
0000
0000
0000
0001
0000
0000
0000
0100
0000
0000
0000
0010
0000
0000
1000
0000
0000
0000
0000
0000
0000
0000
0000
0000
0000
0000
0000
0000
0000
0000
0000
0000
0000
0000
0000
0000
0000
0001
0000
0010
0000
0001
0000
,
0000
0000
0010
0000
0000
0000
0000
0000
0000
0000
0000
0000
0000
0000
0000
0000
0000
0000
0000
0000
0000
0000
0000
0010
0000
0000
0000
1000
0010
0000
0000
0000
0000
0000
1000
0000
0000
0000
0000
0000
0000
0000
0000
0000
0000
0000
0000
0000
0000
0000
0000
0000
0000
0000
0000
0000
0000
0000
0000
0000
0001
0000
0000
0000
,
0000
0100
0000
0000
0000
0000
0000
0000
0000
0000
0000
0000
0000
0000
0000
0000
0000
0000
0000
0000
0000
0000
0000
0000
0000
0000
0000
0000
0000
0010
0000
1000
0000
0000
0000
0000
0000
0000
0000
0000
0000
0000
0000
0000
0000
0000
0000
0000
0000
0000
0000
0000
0000
0000
0000
0000
0000
0000
0000
0000
0000
0001
0100
0000
,
0000
0000
0000
0000
0000
0000
0000
0000
0000
0000
0000
0000
0000
0000
0000
0000
0000
0000
0000
0000
0000
0000
0000
0000
0000
0000
0000
0000
0000
0010
0000
1000
0000
0000
0000
0000
0000
0000
0000
0000
0000
0000
0000
0000
0000
0000
0000
0000
0000
0000
0000
0000
0000
0000
0000
0000
0000
0000
0000
0000
0000
0000
0001
0000
,
0100
0000
0000
0000
0000
0000
0000
0000
0000
0000
0000
0000
0000
0000
0000
0000
0000
0000
0000
0000
0000
0000
0000
0000
0000
0000
0000
0000
0000
0000
0000
0100
0000
0010
0000
0000
0000
0000
0000
0000
0000
0000
0000
0000
0000
0000
0000
0000
0000
0000
0000
0000
0000
0000
0000
0000
0000
0000
0000
0000
0000
0000
0000
0001
,
0000
0000
0000
0000
0000
0000
0000
1000
0000
0000
0000
0000
0000
0000
0000
0010
0000
0000
0000
0000
0000
0000
0000
0000
0100
0000
0000
0000
0000
0000
0000
0000
0001
0000
0000
0000
0000
0000
0000
0000
0000
0000
0000
0000
0000
0000
0000
0000
0000
0000
0000
0000
0000
0000
0000
0000
0000
0000
0000
0000
0000
0000
0000
0000
,
0000
1000
0001
0000
0000
0000
0000
0000
0000
0000
0010
0000
0000
0000
0000
0000
0000
0000
0100
0000
0000
0000
0000
0000
0000
0001
0000
0000
0000
0000
0000
0000
0000
0010
0000
0000
0000
0000
0000
0000
0000
0000
0000
0000
0000
0000
0000
0000
0000
0000
0000
0000
0000
0000
0000
0000
0000
0000
0000
0000
0000
0000
0000
0000
,
0000
0100
0000
0000
0000
0000
0000
0000
1000
0000
0000
0000
0000
0000
0000
0000
0010
0000
0000
0000
0000
0000
0000
0000
0000
0000
0000
0000
0000
0000
0000
0000
0000
0000
0000
0000
0000
0000
0000
0000
0000
0000
0000
0000
0000
0000
0000
0000
0000
0100
0000
0000
0000
0000
0000
0000
0000
0000
0000
0000
0000
0000
0000
0000
,
1001
0000
0000
0000
0000
0000
0000
0000
0000
0000
0000
0000
0000
0010
0000
0000
1000
0000
0000
0000
0101
0000
0000
0000
0000
0000
0000
0000
0000
0000
0000
0000
0000
0010
0000
0000
0000
0000
0101
0000
0000
0000
0000
0000
0000
0000
0000
0000
0000
0000
0000
0000
0000
1000
0000
0000
0000
0000
0000
0000
0000
0001
0000
0000
,
0000
0000
0000
0000
0000
0100
0000
0000
0000
0000
0000
0010
0000
0000
0000
0000
0000
0000
0000
1000
0000
0000
0000
0000
0000
0000
0000
0000
0000
0000
0000
0000
0100
0000
0000
0000
0000
0000
0000
0010
0000
0000
0000
0000
0000
0000
0000
0001
0000
0000
0000
0000
0000
0000
0000
0000
0000
0000
0000
0000
1000
0000
0000
0010
,
0000
0000
0000
0000
0000
0000
0100
0000
0000
0000
0000
0000
0000
0000
0000
0000
0001
0000
0000
0000
0000
0000
0000
0000
0000
0000
0010
0000
0000
0000
0000
0000
0000
0000
0000
0000
0000
0000
0000
0100
0000
0000
0000
0000
0000
0000
0000
0000
0000
0000
0000
0000
0000
0000
0000
0000
0000
0000
1000
0000
0000
0000
0000
0010
,
0000
0000
0000
0100
0000
0000
0000
0000
0000
0000
0000
0000
0000
0000
0000
0000
0000
0000
0001
0000
0000
0000
0000
0000
0000
0000
0000
0000
0000
0000
0000
0010
0000
0000
0000
0000
0100
0000
0000
0000
0000
0000
0000
0000
0000
0000
0000
0000
1000
0000
0000
0000
0000
0000
0000
0000
0000
0000
0000
0000
0000
0000
0000
0000
,
0100
0000
0010
0000
0000
0000
0000
0000
0000
0000
0000
0000
0000
0000
0000
0000
0000
0000
0001
0000
0000
0000
0000
0000
0000
0000
0000
0000
1000
0000
0000
0000
0000
0000
0010
0000
0100
0000
0000
0000
0000
0000
0000
0000
0000
0000
0000
0000
0000
0000
0001
0000
0000
0000
0000
0000
0000
0000
0000
0000
0000
0010
0000
0000
,
0000
0100
0000
0000
1000
0000
0000
0000
0000
0000
0000
0000
0000
0000
0000
0000
0000
0010
0000
0000
0000
0000
0000
0000
0000
0000
0000
0000
0000
0000
0100
0000
0000
0001
0000
0000
0000
0000
0000
0000
0000
0000
0000
0000
0000
0000
0000
1001
0000
0000
0000
0000
0000
0000
0000
0000
0000
0000
0000
0000
0000
0000
0000
0100
,
0000
0000
0000
0000
0000
0000
0000
0000
0000
0000
0000
0000
0000
0010
0000
0000
0000
0000
0001
0000
0000
0000
0000
0000
0000
0000
0000
0000
0000
0000
0000
0000
0000
0000
0010
0000
0000
0000
0000
0000
0000
0000
0000
0000
0000
0000
0000
0000
0000
0000
1000
0000
0000
0000
0000
0000
0000
0000
0000
0000
0000
0000
0000
0000
,
0100
0000
0000
0010
0000
0000
0000
0001
0000
0000
0000
0000
0000
0000
0000
0000
0000
0000
0000
0000
0000
0000
0000
0000
0000
0000
0100
0000
0010
0000
0000
0000
1000
0000
0000
0000
0000
0000
0000
0000
0000
0000
0000
0000
0000
0000
0000
0000
0100
0000
0000
0010
0000
0000
0000
0001
0000
0000
0000
0000
0000
0000
0100
0000
,
0000
0000
0000
0000
0000
0000
0000
0000
0000
0000
0000
0000
0000
0010
0000
0000
0000
1000
0000
0000
0000
0000
0000
0000
0000
0000
0000
0000
0000
0000
0110
0000
0000
0000
0000
0000
0000
0000
0000
0000
0000
0000
0000
0000
0000
0000
0000
0101
0000
0000
0000
0000
0000
0000
0000
0000
0000
0000
0000
0000
0000
0000
0010
0000
,
0000
0000
0000
0000
0000
0000
1000
0000
0000
0000
0000
0000
0000
0000
0000
0100
0000
0000
0000
0000
0000
0000
0000
0000
0000
0000
0000
0000
0000
0000
0000
0011
0000
0000
0000
0000
0000
0000
0000
0000
0000
0000
0000
0000
0000
0000
0000
0000
0000
0000
0000
0000
0000
0000
0000
0000
0000
0000
0000
0000
0100
0000
0000
0000
,
0000
0000
0000
0000
0000
0000
0000
0000
0000
0000
0000
0000
0010
0000
1100
0001
0000
1000
0000
0000
0000
0000
0000
0000
0000
0010
0000
0000
0000
0000
0000
0000
,
0000
0100
0000
0000
0000
0000
0000
0000
0001
0000
0000
0000
0000
0000
0000
0000
0000
0000
0000
0000
0000
0000
0000
0000
0000
1000
0000
0000
0000
0000
0000
0010
0000
0000
0000
0000
0000
0000
0000
0000
0000
0000
0000
0000
0000
0000
0000
0000
0100
0001
0000
0000
0000
0000
0000
0000
0000
0000
0000
0000
0000
0000
0100
0000
,
0000
0000
0000
0000
0000
0000
1000
0000
0000
0000
0000
0000
0000
0000
0000
0000
0010
0000
0000
0000
0000
0000
0000
0000
0000
0000
0000
0000
0000
0000
0000
0100
0000
0000
0000
0000
0000
0000
0000
0000
0000
0000
0001
0000
0000
0000
0000
0000
0000
0000
0000
0000
0000
0000
0000
0000
0000
0000
1000
0000
0000
0000
0000
0010
,
0000
0000
0000
0000
0000
0100
0000
0000
0000
0000
0000
0000
0000
0000
0000
0000
0000
0000
0000
0000
0000
0001
0000
0000
1000
0000
0000
0000
0100
0000
0000
0000
0000
0000
0000
0000
0000
0000
0000
0000
0000
0000
0000
0000
0010
0001
0000
0000
0000
0000
0000
0000
0000
0000
0000
0000
0000
0000
0000
0000
0000
0100
0010
0000
,
0000
0000
0000
0000
0000
0000
0000
0000
0000
0000
0000
0000
0000
0000
0101
1000
0000
0000
0000
0000
0000
0000
0000
0000
0000
0000
0000
0000
0000
0000
0010
0000
0000
0000
0000
0000
0000
1000
0000
0000
0000
0000
0000
0000
0000
0000
0000
0100
0000
0000
0000
0000
0000
0000
0000
0000
0000
0000
0000
0000
0000
0000
0010
0000
,
0000
0000
0000
0000
0000
0000
0000
0000
0000
0001
0000
0000
0000
0000
0000
1000
0000
0000
0000
0000
0000
0000
0000
0000
0000
0000
0000
0010
0000
0000
0000
0000
0000
0100
0000
0000
0000
0000
0000
0000
0000
0000
0000
0000
0000
0001
0000
0000
0000
0010
0000
0000
0000
0000
0000
0000
0000
0000
0000
0000
0000
0000
0100
0000
,
0000
0000
1000
0000
0000
0000
0000
0000
0000
0000
0000
0000
0010
0000
0000
0000
0000
0100
0000
0000
0000
0000
0000
0000
0000
0000
0000
0001
0000
0000
0000
0000
0000
0000
0000
0000
0000
0000
0000
0000
0000
0000
0000
0000
0100
0000
0000
0000
0000
0000
0000
0000
0000
0000
0000
0000
0000
0010
0000
0000
0000
0100
0000
0000
,
0000
0000
0000
0000
0000
0000
0000
0000
0000
0001
0000
0000
0000
1000
0000
0000
0000
0000
0000
0000
0000
0000
0000
0000
0000
0000
0000
0000
0000
0010
0000
0000
0000
0000
0100
0000
0000
0000
0000
0100
0000
0000
0000
0000
0000
0010
0000
0000
0000
0000
0001
0000
0000
0000
0000
1000
0000
0000
0000
0000
0010
0000
0000
0000
,
0000
0100
0000
0000
0000
0000
0000
0000
0000
0000
0000
0000
0001
0000
0000
0000
1000
0000
0000
0000
0000
0000
0000
0000
0000
0000
0000
0000
0000
0000
0000
0000
0110
0000
0000
0000
0000
0000
0000
0000
0000
0000
0000
0000
0000
0000
0000
0001
0000
0000
0000
0000
0000
0000
0000
0000
0000
0000
0000
1000
0000
0000
0000
0010
,
0000
0000
0000
0000
0000
0000
0000
0000
0000
0000
0100
0000
0000
0000
0000
0001
0000
0000
0000
0000
0000
0000
0000
0000
0000
0010
0000
0000
0000
0000
0000
0000
0000
0000
0000
0000
0000
0000
0000
0000
0000
0000
0000
0100
0000
0000
0000
0000
1000
0000
0000
0000
0000
0000
0000
0000
0000
0000
0010
0000
0000
0000
0000
0000
,
0100
0000
0000
0000
0000
0001
0000
0000
0000
0000
0010
0000
0000
0000
0000
0100
0000
0000
0000
0001
0000
0000
0000
0000
0000
0100
0000
0000
0000
0000
0001
0000
0000
0000
0000
0000
1000
0000
0000
0000
0000
0000
0000
0000
0000
0000
0000
0000
0000
0000
0000
0000
0000
0000
0000
0000
0000
0000
0000
0100
0000
0000
0000
0000
,
0000
1000
0000
0000
0000
0000
0000
0000
0000
0000
0000
0000
0000
0010
0000
0000
0000
0000
0001
0000
0000
0000
0000
0000
0000
0000
0000
0000
0000
0000
0000
1000
0000
0000
0000
0000
1000
0000
0000
0000
0000
0100
0000
0000
0000
0000
0010
0000
0000
0000
0000
0000
0010
0000
0000
0000
0000
0000
1000
0000
0000
0000
0000
0100
,
0000
0000
0000
0000
0000
0000
0000
0000
0000
0000
0000
0001
0000
0000
0000
0000
0000
1000
0000
0000
0000
0000
0000
0000
0000
0000
0000
0000
0000
0000
0000
0000
0000
0000
0000
0000
0000
0000
0000
0000
0000
0000
0000
1000
0000
0000
0000
0000
0000
0100
0000
0000
0000
0000
0000
0000
0000
0000
0000
0010
0000
0000
0000
0000
,
0001
0000
0000
0000
0000
0000
0000
0000
0000
0000
0000
0100
0000
0000
0000
0000
0001
0000
0000
0000
0000
0000
0000
0000
0000
0000
1000
0000
0000
0000
0000
0000
0000
0001
0000
0000
0000
0000
0000
0000
0000
0000
0000
0010
0000
0000
0000
0000
0100
0000
0000
0000
0000
0000
0000
0000
0000
0000
1000
0000
0000
0000
0000
0000
,
0001
0000
0000
0000
0010
0000
0000
0000
0000
0000
0100
0000
0000
0000
0000
0000
0100
0000
0000
0000
0000
0000
0000
0000
0000
0000
0000
0001
0000
0000
0000
1000
0000
0000
0000
0000
0000
0000
0000
0000
0000
0000
0000
0000
0000
0000
0000
0010
0000
0000
0000
0000
0000
0000
0000
0000
0000
0000
0000
0000
0000
0000
0001
0000
,
0000
0000
0000
0000
1000
0000
0000
0000
0000
0010
0000
0000
0000
0000
1000
0000
0000
0000
0000
0000
0000
0000
0000
0000
0000
0000
0000
0000
0000
0001
0000
0000
0010
0000
0000
0000
0000
0000
0000
0000
0000
0000
0000
0100
0000
0000
0000
0000
1000
0000
0000
0000
0000
0000
0000
0000
0000
0000
0000
0000
0010
0000
0000
0000
,
0000
0100
0000
0000
0000
0000
0000
0000
0000
0000
0000
0001
0000
0000
0000
0000
0010
0000
0000
0000
0000
0000
0000
0000
0000
0000
0000
0100
0000
0000
0000
1000
0000
0000
0000
0000
0000
0000
0000
0000
0000
0000
0000
0000
0000
0100
0010
0000
0000
0000
0000
0000
0000
0000
0000
0000
0000
0000
0000
0000
0000
0000
0001
0000
,
0000
0000
0000
0000
0000
0000
0000
0000
0000
0000
1000
0000
0000
0000
0000
0010
0000
0000
0000
0000
0000
0000
0000
0000
0000
0000
0000
0000
0000
0000
0010
0000
0000
0000
0000
0000
0000
0000
0000
0000
0000
0000
0100
0000
0000
0000
0000
0000
0000
1000
0000
0000
0000
0000
0000
0000
0000
0000
0000
0000
0000
0000
0100
0000
,
0000
1000
0000
0000
0100
0000
0000
1000
0000
0100
0000
0000
1000
0000
0000
0000
0000
0000
0000
0000
0000
0000
0000
0000
0000
0000
0010
0000
0000
0000
0000
0100
0000
0000
0010
0000
0100
0000
0000
0000
0010
0000
0100
0000
0000
0000
0000
0000
0000
0000
0000
0000
0000
0000
0001
0000
0000
0000
0000
0000
0000
0100
0000
0000
,
0000
0000
0000
0000
0010
0000
0000
0000
0000
0000
0000
0000
1000
0000
0000
0000
0100
0000
0000
0000
0000
0000
0000
0000
0000
0100
0000
0000
0000
0010
0000
0000
0000
0000
0000
0000
0000
0001
0000
0000
1000
0000
0000
0000
0000
0000
0000
0000
0010
0000
0000
0000
0000
0100
0000
0000
0000
0000
0000
0000
0000
0000
0001
0000
,
0000
0000
0000
0000
0000
0000
0000
1000
0000
0000
0000
0000
0000
0000
0100
0000
0000
0010
0000
0000
0000
0001
0100
0000
0000
0000
0000
0010
0000
0100
0000
0000
0000
0000
0000
0000
0000
0000
0000
0001
0000
0000
0000
0000
0000
0000
1000
0000
0000
0000
0000
0000
0000
0000
0100
0000
0000
0000
0000
0000
0000
0000
0000
0000
,
2002
0000
0000
0000
0000
0000
0000
0000
0000
0000
0000
0000
0000
0000
0000
0000
0000
0000
0000
0000
0000
0000
0000
0000
0000
0000
0000
0000
0000
0000
0000
0000
0000
0000
0000
0000
0000
0000
0000
0000
0003
3000
0000
0010
0000
0000
0000
0000
0100
0000
0000
0000
0000
0010
0000
0000
0000
0000
1000
0000
0000
0000
0000
0000
,
0001
0000
0000
0000
0000
0000
0000
0010
0000
0000
0000
0000
0000
0000
0000
0000
0000
0000
0000
0000
0001
0000
0000
0000
0000
0000
0000
0000
0000
0000
0000
0000
0000
0000
0000
0000
0000
0000
0000
0000
0000
0000
0000
0000
0000
0000
0000
0000
0000
0000
0000
0000
0000
0000
0000
0000
0000
0000
0000
0000
0000
0000
0000
0000
;
