#TITLE:HEXAD;
#SUBTITLE:DJMAX Portale Black Square O.S.T;
#ARTIST:Electronic Boutique;
#TITLETRANSLIT:;
#SUBTITLETRANSLIT:;
#ARTISTTRANSLIT:;
#CREDIT:ALICE_;
#BANNER:HEXAD.png;
#BACKGROUND:HEXAD.jpg;
#LYRICSPATH:;
#CDTITLE:cdtitle.png;
#MUSIC:HEXAD.mp3;
#OFFSET:-0.780;
#SAMPLESTART:18.520;
#SAMPLELENGTH:20.820;
#SELECTABLE:YES;
#BPMS:0.000=135.000,103.000=1080.012,106.000=135.000,170.000=67.500,172.000=135.000;
#STOPS:103.000=0.280
;
#BGCHANGES:;
// cache tags:
#FIRSTBEAT:0.000;
#LASTBEAT:204.250;
#SONGFILENAME:Songs/alice 4th complete step/HEXAD/HEXAD.sm;
#HASMUSIC:1;
#HASBANNER:1;
#MUSICLENGTH:100.327;
// end cache tags

//---------------dance-single - ----------------
#NOTES:
     dance-single:
     :
     Hard:
     15:
     0.712,0.889,0.548,0.528,0.807,392.000,55.000,53.000,0.000,31.000:
0000
0000
0000
0000
,
0000
0000
0000
0000
,
1000
0010
0101
0010
1000
0010
0101
0010
,
1000
0010
0101
0010
1000
0010
0101
0010
,
0001
0100
1010
0100
0001
0100
1010
0100
,
0001
0100
1010
0100
0001
0100
1010
0100
,
1001
0010
0101
0010
1000
0010
0101
0010
,
1000
0010
0101
0010
1000
0010
0101
0010
,
1000
0100
0011
0100
1000
0100
0011
0100
,
0001
0000
0001
0000
0001
0000
0001
0000
1000
0000
1000
0000
1000
0000
1000
0000
0001
0010
0100
0010
0001
0000
0100
0000
0010
0000
0010
0000
0010
0000
0010
0000
,
1000
0000
0010
0000
0101
0010
0000
1000
0000
0100
0010
0100
1001
0010
0100
0010
,
1000
0000
0010
0000
0101
0010
0000
1000
0000
0100
0010
0100
1001
0010
0100
0010
,
1000
0000
0010
0000
0101
0010
0000
1000
0000
0100
0010
0100
1001
0010
0100
0010
,
1000
0000
0010
0000
0101
0010
0000
1000
0000
0100
0010
0100
1001
0010
0100
0010
,
2001
0100
0010
0100
0001
0010
3000
0100
0000
0100
0010
1000
0011
0100
1000
0010
,
0100
0001
0010
0100
1001
0010
0000
0100
0000
0100
0010
1000
1001
0100
0001
0010
,
0100
0001
0100
0010
1001
0010
0000
0100
0000
0100
0010
0001
1010
0100
0010
0100
,
0001
0000
1000
0000
0001
0000
1000
0100
0001
0000
1100
0000
0011
0000
0000
0000
,
1000
0100
2000
0000
0010
0000
0100
0001
0010
0001
0000
0010
0100
0000
3100
0010
,
0002
0000
0000
0000
0103
0000
0010
0000
1000
0001
0000
1000
0100
0010
0000
0001
,
1000
0100
2000
0000
0010
0000
0100
0001
0010
0001
0000
0010
3100
0000
0010
0100
,
0002
0000
0000
0000
0103
0000
0010
0000
1000
0001
0000
0100
0010
0100
0000
1000
,
0010
0100
0020
0000
1000
0000
0100
0001
1000
0001
0000
0000
1030
0000
0001
0010
,
0200
0000
0000
0000
0301
0000
0010
0000
1000
0100
0000
0100
0010
0000
0000
0001
,
0010
1000
0200
0000
0010
0000
0001
0010
1300
0010
0000
0100
0001
0000
0001
0100
,
2010
0000
0000
0000
0000
0000
0000
0000
0000
0000
0000
0000
0000
0000
0000
0000
3010
0000
0000
0000
0000
0000
0000
0000
0100
0000
0000
0000
0000
0000
0000
0000
0010
0000
0000
0000
0001
0000
0000
0000
0010
0000
0000
0000
1000
0000
0000
0000
0200
0300
0000
0000
0000
0000
0000
0000
0000
0000
0000
0000
0000
0000
0000
0000
,
0000
0000
2002
0000
,
0000
0000
0000
0000
,
0000
0000
0000
3003
2020
0000
0000
0000
,
0000
0000
0000
0000
,
0000
0000
0000
3030
0202
0000
0000
0000
,
0000
0000
0000
0000
,
0000
0000
0000
0303
0022
0000
0000
0000
,
0000
0000
0000
0000
2200
0000
0000
0033
,
0000
0000
0000
0000
0000
0000
3300
0000
0202
0000
0000
0000
0000
0000
0000
0010
,
0000
1000
0000
0010
0000
0000
0000
1000
0000
0010
0000
1000
0000
0000
0000
0010
,
0000
1000
0000
0010
0000
0000
0303
0000
0220
0000
0000
0000
0000
0000
0000
0001
,
0000
1000
0000
0001
0000
0000
0000
1000
0000
0001
0000
1000
0000
0000
0000
0001
,
0000
1000
0000
0001
0000
0000
0330
0000
0022
0000
0000
0000
0000
0000
0000
0100
,
0000
1000
0000
0100
0000
0000
0000
1000
0000
0100
0000
1000
0000
0000
0000
0100
,
0000
1000
0000
0100
0000
0000
0033
0000
2020
0000
0000
0000
0000
0000
0000
0001
,
0000
0100
0000
0001
0000
0000
3030
0100
0002
0000
0000
0000
0023
0000
0000
0000
,
0230
2300
3000
0000
,
1000
0000
0000
0000
1000
0000
0000
0000
1000
0000
0000
0000
0000
0000
0000
0000
0022
0033
0000
0000
0000
0000
0000
0000
0000
0000
0000
0000
0100
0000
0000
0000
0100
0000
0000
0000
0100
0000
0000
0000
0100
0000
0000
0000
0000
0000
0000
0000
2001
3000
0000
0000
0001
0000
0000
0000
0001
0000
0000
0000
0001
0000
0000
0000
,
0010
0000
0000
0000
0010
0000
0000
0000
0010
0000
0000
0000
0000
0000
0000
0000
2200
3300
0000
0000
0000
0000
0000
0000
0000
0000
0000
0000
0100
0000
0000
0000
0100
0000
0000
0000
0100
0000
0000
0000
0100
0000
0000
0000
0000
0000
0000
0000
0012
0003
0000
0000
0010
0000
0000
0000
0010
0000
0000
0000
0010
0000
0000
0000
,
1000
0000
0000
0000
1000
0000
0000
0000
1000
0000
0000
0000
0000
0000
0000
0000
0202
0303
0000
0000
0000
0000
0000
0000
0000
0000
0000
0000
0010
0000
0000
0000
0010
0000
0000
0000
0010
0000
0000
0000
0010
0000
0000
0000
0000
0000
0000
0000
2001
3000
0000
0000
0001
0000
0000
0000
0001
0000
0000
0000
0001
0000
0000
0000
,
1000
0000
0000
0000
1000
0000
0000
0000
1000
0000
0000
0000
0000
0000
0000
0000
0202
0303
0000
0000
0000
0000
0000
0000
0000
0000
0000
0000
0010
0000
0000
0000
0010
0000
0000
0000
0010
0000
0000
0000
0010
0000
0000
0000
0000
0000
0000
0000
1002
0003
0000
0000
1000
0000
0000
0000
1000
0000
0000
0000
1000
0000
0000
0000
,
0100
0000
0000
0000
0100
0000
0000
0000
0100
0000
0000
0000
0000
0000
0000
0000
2020
3030
0000
0000
0000
0000
0000
0000
0000
0000
0000
0000
0010
0000
0000
0000
0010
0000
0000
0000
0010
0000
0000
0000
0010
0000
0000
0000
0000
0000
0000
0000
0021
0030
0000
0000
0001
0000
0000
0000
0001
0000
0000
0000
0001
0000
0000
0000
,
0100
0000
0000
0000
0100
0000
0000
0000
0100
0000
0000
0000
0000
0000
0000
0000
2020
3030
0000
0000
0000
0000
0000
0000
0000
0000
0000
0000
0001
0000
0000
0000
0001
0000
0000
0000
0001
0000
0000
0000
0001
0000
0000
0000
0000
0000
0000
0000
0210
0300
0000
0000
0010
0000
0000
0000
0010
0000
0000
0000
0010
0000
0000
0000
,
0100
0000
0000
0000
0100
0000
0000
0000
0100
0000
0000
0000
0000
0000
0000
0000
0022
0033
0000
0000
0000
0000
0000
0000
0000
0000
0000
0000
1000
0000
0000
0000
1000
0000
0000
0000
1000
0000
0000
0000
1000
0000
0000
0000
0000
0000
0000
0000
0210
0300
0000
0000
0010
0000
0000
0000
0010
0000
0000
0000
0010
0000
0000
0000
,
0001
0001
0001
0000
0000
0000
0000
0100
0100
0100
0100
0000
0010
0010
0010
0010
;

//---------------dance-double - Copied from----------------
#NOTES:
     dance-double:
     Copied from:
     Easy:
     15:
     1.000,1.000,1.000,0.439,1.000,557.000,179.000,44.000,0.000,140.000:
00022000
00000000
00000000
00000000
,
00000000
00000000
00000000
00000000
00000000
00000000
00000000
00000000
00000000
00000000
00000000
00000000
00133000
00000100
00100000
00000100
,
10000000
00000000
00010010
00000000
00100100
00010000
00000010
01000000
00000000
01000000
00100010
10000000
00010100
00100000
01000010
10000000
,
01000000
00000000
00010010
00000000
00100100
00010000
00000010
00100000
00000000
01000000
00100010
01000000
00010100
00100000
01000010
10000000
,
00100000
00000000
00010100
00000000
01001000
00100000
00000100
01000000
00000000
00100000
01000100
00100000
10001000
00010000
00100100
01000000
,
00100000
00000000
00010100
00000000
01001000
00100000
00000100
01000000
00000000
00100000
00010100
00100000
10001000
01000000
00100100
00010000
,
00001002
00000000
01000103
00000010
00101000
00000100
01000000
00001000
00000000
00001000
01000100
00001000
00100010
00000100
01001000
00000010
,
00000100
00000001
01000010
00000001
00100100
00000010
01000000
00001000
00000000
00000100
01000010
00000100
00100001
00000010
01000100
00001000
,
00010000
00000100
00100010
00000100
00011000
00000010
00100000
00001000
00000000
00001000
00100001
00001000
00010010
00000001
00100100
00001000
,
00220010
00000000
00000010
00000000
00000010
00000000
00330010
00000000
01002200
00000000
01000000
00000000
01000000
00000000
01003300
00000000
00000100
00001000
00010000
00001000
00000100
00000000
00100000
00000000
00001010
00000000
00001010
00000000
00001010
00000000
00001010
00000000
,
10000000
00010000
01000000
00100000
00001100
00010000
00000000
00000110
00000000
00001000
00000010
00001000
00010100
00100000
01000000
10000000
,
00001000
00000001
01000000
00010000
00001100
00100000
00000000
00010100
00000000
01000000
00100000
01000000
00010010
00000100
00001000
00010000
,
10000000
00010000
01000000
00100000
00001100
00010000
00000000
00000110
00000000
00001000
00000010
00001000
10000100
01000000
00100000
00010000
,
00000010
00000100
00100000
00010000
00001100
00100000
00000000
01000010
00000000
00010000
00001000
00010000
00100010
00000100
00001000
00010000
,
10002002
00010000
01000000
00103003
00000110
00100000
00000000
01010000
00000000
00001000
00000001
00001000
01000100
00100000
00010000
00100000
,
00001000
00000001
00000010
00010000
00001100
00100000
00000000
00001001
00000000
10000000
00010000
10000000
00101000
00000100
00000010
00000100
,
00010000
00001000
00000100
00001000
00110000
00000100
00000000
01000000
00000000
00100000
00000100
00100000
00001010
00010000
00100000
00010000
,
00000110
00000000
01100000
00000000
00000110
00000000
01100000
00000110
01100000
00000000
10010000
00000000
00101100
00000000
00000000
00000000
,
00101000
01000000
00100000
00000000
00011000
00000000
10000000
01000000
00101000
01000000
00000000
00010000
01001000
00000000
10000000
01000000
,
00010200
00000000
00000000
00000000
00010310
00000000
00001000
00000000
00010100
00000010
00000000
00001000
00010100
00000010
00000000
00000100
,
00101000
01000000
00100000
00000000
00011000
00000000
10000000
01000000
00101000
01000000
00000000
00010000
01001000
00000000
10000000
01000000
,
00010200
00000000
00000000
00000000
00010310
00000000
00001000
00000000
00010100
00000010
00000000
00001000
00010100
00000010
00000000
00000100
,
01001000
00000010
00010100
00000010
01000000
00000000
00011000
00000001
01001000
00000100
00010000
00000000
01000010
00000000
00011000
00000100
,
02200010
00000000
00001000
00000000
03310010
00000000
10001000
01000000
00100010
00010000
00001000
01000000
00100010
00000000
00001000
00010000
,
01001000
00000010
00010100
00000000
01000010
00000000
00011000
00000001
01001000
00000100
00010000
00000000
01000010
00000000
00011000
00000100
,
02200010
00000000
00001000
00000000
03310010
00000000
10001000
00100000
01000010
00100000
10001000
00010000
02001100
00000000
00000000
00000000
,
03000000
20020200
00000000
00000000
,
00000000
00000000
00000000
00000000
,
00000000
00000000
00000000
30030300
02002020
00000000
00000000
00000000
,
00000000
00000000
00000000
00000000
,
00000000
00000000
00000000
03003030
00200202
00000000
00000000
00000000
,
00000000
00000000
00000000
00000000
,
00000000
00000000
00000000
00300303
20020020
00000000
00000000
00000000
,
00000000
00000000
02002000
00000000
,
00000000
00000000
00000000
00000000
00000000
00000000
33033030
00000000
02021000
00000010
00000100
00000010
00000000
00000000
00001000
00000001
,
00000100
00000010
00001000
00000100
00001000
00000000
00001000
00000001
00000100
00000010
00001000
00000100
00001000
00000000
00001000
00000001
,
00000100
00000010
00001000
00000100
00001000
00000000
00000100
03030010
10002002
00010000
01000000
00100000
00000000
00000000
01000000
00010000
,
00100000
00010000
01000000
00100000
10000000
00000000
01000000
00010000
00100000
00010000
01000000
00100000
10000000
00000000
01000000
00010000
,
00100000
00010000
01000000
00100000
10000000
00000000
01000000
00103003
22000001
00000100
00001000
00000010
00000000
00000000
00001000
00000010
,
00000100
00000010
00010000
00001000
00000100
00000000
00001000
00000010
00000100
00000010
00010000
00001000
00000100
00000000
00001000
00000010
,
00000100
00000010
00010000
00001000
00000100
00000000
00001000
33000001
00012020
00100000
01000000
00100000
00000000
00000000
10000000
00010000
,
01000000
00100000
10000000
01000000
00100000
00000000
10000000
00013030
01000200
01000000
01000000
01000000
00100320
00100000
00100000
00100000
,
10002030
00000000
10000000
00000000
10000000
00000000
10000000
00000000
00013002
00000000
00010000
00000000
00010000
00000000
00010000
00000000
10000003
01000000
00100000
00010000
00001000
00000000
00000100
00001000
00010000
00100000
01000000
00100000
00010000
00001000
00000100
00000010
,
00100100
00100000
00100000
00000000
00011010
00000010
00000010
00000010
01010000
00010000
00010000
00000000
00100100
00100100
00100100
00100100
,
01001000
00001000
00001000
00000000
00110100
00100000
00100000
00100000
00001010
00000010
00000010
00000000
00011000
00011000
00011000
00011000
,
00000101
00000001
00000001
00000000
00101010
00000010
00000010
00000010
00010100
00000100
00000100
00000000
00101000
00101000
00101000
00101000
,
10000100
10000000
10000000
00000000
01101000
01000000
01000000
01000000
00100100
00100000
00100000
00000000
00011010
00010010
00010010
00010010
,
10101000
10000000
10000000
00000000
00001001
00000001
00000001
00000001
01000100
01000000
01000000
00000000
00101010
00100010
00100010
00100010
,
00010100
00000100
00000100
00000000
00101000
00100000
00100000
00100000
01000100
01000000
01000000
00000000
00111100
00011000
00011000
00011000
,
01000100
01000000
01000000
00000000
00101010
00000010
00000010
00000010
00010100
00000100
00000100
00000000
00111000
00101000
00101000
00101000
,
00000010
00000010
00000010
00000000
00010000
00010000
00010000
00010000
00001000
00001000
00001000
00000000
01100220
01100000
01100000
01100330
,
00011000
00000000
00000000
00000000
;

//---------------dance-single - Copied from----------------
#NOTES:
     dance-single:
     Copied from:
     Challenge:
     17:
     0.973,1.000,1.000,0.449,1.000,522.000,103.000,45.000,0.000,30.000:
0220
0000
0000
0000
,
0000
0000
0000
0000
0000
0000
0000
0000
0000
0000
0000
0330
1000
0001
1000
0001
,
0100
1110
0100
1110
,
0100
1110
0100
1110
,
0010
0111
0010
0111
,
0010
0111
0010
0111
,
2002
3113
0100
0111
,
0010
1110
0100
0111
,
0010
0000
1110
0000
0100
0000
0111
1000
,
0001
0000
0001
0000
0001
0000
0001
0000
1000
0000
1000
0000
1000
0000
1000
0000
0001
0010
0100
0010
0001
0000
0100
0000
0010
0000
0010
0000
0010
0000
0010
0000
,
1000
0100
0001
0010
0101
0010
0000
1001
0000
0100
0010
0100
1001
0010
0100
0010
,
1000
0100
0010
0100
1010
0100
0000
1001
0000
0100
0010
0100
1001
0010
0100
0010
,
1000
0100
0010
1000
0101
0010
0000
1010
0000
0100
0010
0100
1001
0010
0100
0010
,
1000
0001
0010
0001
1100
0010
0000
0110
0000
1000
0010
1000
0101
0010
1000
0100
,
2001
0010
0100
0010
0001
0010
3000
1100
0000
0100
0010
1000
0011
0100
1000
0010
,
0100
0001
0010
0100
1001
0010
0000
0101
0000
0100
0010
1000
1001
0100
0001
0010
,
0100
0001
0100
0010
1001
0010
0000
0110
0000
0001
0010
0100
1100
0010
1000
0100
,
0011
0000
1100
0000
0011
0000
1100
0010
0011
0000
0101
0000
1010
0000
0000
0000
,
0001
0010
0002
0000
0100
0000
0010
1000
0100
1000
0000
0100
0010
0000
0013
0100
,
2000
0000
0000
0000
3010
0000
0100
0000
0001
1000
0000
0001
0010
0100
0000
1000
,
0001
0010
0002
0000
0100
0000
0010
1000
0100
1000
0000
0100
0013
0000
0100
0010
,
2000
0000
0000
0000
3010
0000
0100
0000
0001
1000
0000
0010
0100
0010
0000
0001
,
0100
0010
1200
0000
0001
0000
0010
1000
0001
1000
0010
0000
0301
0000
0100
1000
,
0020
0000
0100
0000
1030
0000
0100
0010
0001
0010
1000
0010
0100
0000
0001
1000
,
0100
0001
0020
0000
0100
0000
1000
0100
0031
0100
0001
0010
1000
0000
0100
1000
,
0012
0000
0000
0000
0000
0000
0000
0000
1000
0000
0000
0000
0000
0000
0000
0000
0103
0000
0000
0000
0000
0000
0000
0000
0010
0000
0000
0000
0100
0000
0000
0000
0010
0000
0000
0000
1000
0000
0000
0000
0100
0000
0000
0000
0001
0000
0000
0000
0020
0030
0000
0000
0000
0000
0000
0000
0000
0000
0000
0000
0000
0000
0000
0000
,
0000
0000
2002
0110
,
0000
0110
0000
0110
,
0000
0000
0110
3003
2020
0000
0101
0000
,
0000
0101
0000
0101
,
0000
0000
0101
3030
0202
0000
1010
0000
,
0000
1010
0000
1010
,
0000
0000
1010
0303
0022
0000
1100
0000
,
0000
0000
1100
0000
2200
0000
0000
0033
,
0000
0000
0000
0000
0011
0000
3300
0000
1002
0010
0100
0010
0000
0000
1000
0010
,
0100
1000
0010
0100
0010
0000
1000
0010
0100
1000
0010
0100
0010
0000
1000
0010
,
0100
1000
0010
0100
0010
0000
1003
0100
0021
0100
1000
0001
0000
0000
0001
0100
,
1000
0100
0001
1000
0001
0000
0001
0100
1000
0100
0001
1000
0001
0000
0001
0100
,
1000
0100
0001
1000
0001
0000
0130
0001
2100
0010
0001
0100
0000
0000
0010
0100
,
0001
0010
0001
0100
0010
0000
0100
0010
0100
0001
0010
0001
0100
0000
0010
0100
,
0001
0010
0001
0100
0010
0000
3001
0010
0201
1000
0010
0001
0000
0000
0010
1000
,
0001
0010
0001
1000
0010
0000
1000
0010
0301
0001
0001
0001
1000
1000
1000
1000
,
0010
0000
0010
0000
0010
0000
0010
0000
0100
0000
0100
0000
0100
0000
0200
0000
0301
0010
0100
1000
0100
0010
0001
0010
1000
0100
0010
0001
0010
0100
1000
0100
,
1001
0000
0000
0000
1000
0000
0000
0000
1000
0000
0000
0000
1000
0000
0000
0000
0022
0033
0000
0000
0001
0000
0000
0000
0001
0000
0000
0000
0001
0000
0000
0000
0101
0000
0000
0000
0100
0000
0000
0000
0100
0000
0000
0000
0100
0000
0000
0000
2010
3000
0000
0000
0010
0000
0000
0000
0010
0000
0000
0000
0010
0000
0000
0000
,
1100
0000
0000
0000
1000
0000
0000
0000
1000
0000
0000
0000
1000
0000
0000
0000
0102
0003
0000
0000
0100
0000
0000
0000
0100
0000
0000
0000
0100
0000
0000
0000
0011
0000
0000
0000
0010
0000
0000
0000
0010
0000
0000
0000
0010
0000
0000
0000
1002
0003
0000
0000
1000
0000
0000
0000
1000
0000
0000
0000
1000
0000
0000
0000
,
0101
0000
0000
0000
0001
0000
0000
0000
0001
0000
0000
0000
0001
0000
0000
0000
0210
0300
0000
0000
0010
0000
0000
0000
0010
0000
0000
0000
0010
0000
0000
0000
1100
0000
0000
0000
0100
0000
0000
0000
0100
0000
0000
0000
0100
0000
0000
0000
2001
3000
0000
0000
0001
0000
0000
0000
0001
0000
0000
0000
0001
0000
0000
0000
,
1010
0000
0000
0000
1000
0000
0000
0000
1000
0000
0000
0000
1000
0000
0000
0000
0102
0003
0000
0000
0100
0000
0000
0000
0100
0000
0000
0000
0100
0000
0000
0000
0011
0000
0000
0000
0010
0000
0000
0000
0010
0000
0000
0000
0010
0000
0000
0000
1002
0003
0000
0000
1000
0000
0000
0000
1000
0000
0000
0000
1000
0000
0000
0000
,
0101
0000
0000
0000
0001
0000
0000
0000
0001
0000
0000
0000
0001
0000
0000
0000
2100
3000
0000
0000
0100
0000
0000
0000
0100
0000
0000
0000
0100
0000
0000
0000
1010
0000
0000
0000
0010
0000
0000
0000
0010
0000
0000
0000
0010
0000
0000
0000
2001
3000
0000
0000
0001
0000
0000
0000
0001
0000
0000
0000
0001
0000
0000
0000
,
0101
0000
0000
0000
0100
0000
0000
0000
0100
0000
0000
0000
0100
0000
0000
0000
1020
0030
0000
0000
1000
0000
0000
0000
1000
0000
0000
0000
1000
0000
0000
0000
0101
0000
0000
0000
0001
0000
0000
0000
0001
0000
0000
0000
0001
0000
0000
0000
0210
0300
0000
0000
0010
0000
0000
0000
0010
0000
0000
0000
0010
0000
0000
0000
,
1100
0000
0000
0000
0100
0000
0000
0000
0100
0000
0000
0000
0100
0000
0000
0000
0021
0030
0000
0000
0001
0000
0000
0000
0001
0000
0000
0000
0001
0000
0000
0000
1010
0000
0000
0000
1000
0000
0000
0000
1000
0000
0000
0000
1000
0000
0000
0000
0210
0300
0000
0000
0010
0000
0000
0000
0010
0000
0000
0000
0010
0000
0000
0000
,
0101
0100
0100
0100
0010
0010
0010
0010
1000
1000
1000
1000
0011
0011
0011
0011
,
0200
0300
0000
0000
0000
0000
0000
0000
0000
0000
0000
0000
0000
0000
0000
0000
;
