#TITLE:Weekend Warriors;
#SUBTITLE:Feels The Arrow;
#ARTIST:Frontliner;
#TITLETRANSLIT:;
#SUBTITLETRANSLIT:;
#ARTISTTRANSLIT:;
#CREDIT:Ov3rHell3XoduZ;
#BANNER:../bn.png;
#BACKGROUND:../bg.png;
#LYRICSPATH:;
#CDTITLE:;
#MUSIC:Frontliner - Weekend Warriors.ogg;
#OFFSET:0.660;
#SAMPLESTART:44.655;
#SAMPLELENGTH:11.940;
#SELECTABLE:YES;
#BPMS:0.000=149.970,363.000=299.940,364.000=149.970,436.000=151.000,444.000=149.970,475.000=151.000,476.000=149.970,635.000=151.000,636.000=149.970,731.000=151.000,732.000=149.970;
#STOPS:275.000=25.000
;
#BGCHANGES:;
// cache tags:
#FIRSTBEAT:2.000;
#LASTBEAT:764.000;
#SONGFILENAME:Songs/EXoduz' Feels The Arrow/Weekend Warriors - [Ov3rHell3XoduZ]/Frontliner - Weekend Warriors.sm;
#HASMUSIC:1;
#HASBANNER:1;
#MUSICLENGTH:333.930;
// end cache tags

//---------------dance-single - Ov3rHell3XoduZ----------------
#NOTES:
     dance-single:
     Ov3rHell3XoduZ:
     Challenge:
     12:
     0.804,0.972,0.641,1.000,0.524,1275.000,214.000,372.000,57.000,17.000:

0000
0000
2000
3002
,
0203
0320
2030
3200
,
0320
0032
2003
3200
,
2300
3002
0203
0302
,
2003
0000
3020
0000
0130
0100
0002
0000
,
0013
0010
0200
0000
1300
1000
0020
0000
,
0230
0302
2003
3200
,
0320
0032
0003
0000
,
0000
0000
0000
0000
2002
3003
0000
0000
2002
3003
0000
1000
0100
0000
0110
0000
,
0010
0000
0000
0000
0011
0000
0000
0001
0100
0000
0000
0000
0110
0000
0010
0000
,
1000
0000
0000
0000
0110
0000
0010
0000
0001
0000
0000
1000
0100
0000
0010
0000
,
0100
0000
1100
1000
1010
0000
0110
0000
,
0101
0000
1000
0100
1000
0000
0110
0100
,
0101
0000
0011
0010
0110
0000
1100
1000
,
1100
0000
1010
0010
0110
0000
0101
0100
,
0101
0000
0000
0000
0001
0000
0010
0000
0100
0000
1000
0000
0001
0100
0001
1000
,
0010
1000
0100
0010
0001
1000
0001
1000
0020
0000
0000
0000
0000
0000
0000
0000
,
0000
0000
0000
0000
,
0000
0000
0000
0000
,
0000
0000
0000
0000
,
0000
0000
0000
0000
0030
0000
0000
0000
2202
3303
0000
0000
0000
0000
0000
0000
,
M000
0000
000M
0000
,
M000
0000
0000
0000
0000
0000
0000
0000
2022
3033
0000
0000
0000
0000
0000
0000
,
0M00
0000
00M0
0000
,
0M00
0000
0000
0000
0000
0000
0000
0000
2202
3303
0000
0000
0000
0000
0000
0000
,
M000
0000
00M0
0000
,
0M00
0000
0000
0000
0000
0000
0000
0000
2022
3033
0000
0000
0000
0000
0000
0000
,
M000
0000
000M
0000
,
M000
0000
0000
0000
0000
0000
0000
0000
2202
3303
0000
0000
0000
0000
1000
0000
,
1100
0000
0000
0000
0110
0000
0000
0000
2022
3033
0000
0000
0000
0000
1000
0000
,
1001
0000
0000
0000
0101
0000
0000
0000
2202
3303
0000
0000
0000
0000
1000
0000
,
1010
0000
0000
0000
1100
0000
0000
0000
2022
3033
0000
0000
0000
0000
0100
0000
,
0101
0000
0000
0000
0001
0000
0000
0000
2202
3303
0000
0000
0000
0000
1000
0000
,
1100
0000
0000
0000
0100
0000
0000
0000
2022
3033
0000
0000
0000
0000
0001
0000
,
0011
0000
0000
0000
0100
0000
0000
0000
2202
3303
0000
0000
0000
0000
0001
0000
,
1001
0000
0000
0000
1000
0000
0000
0000
2022
3033
0000
0000
0000
0000
0100
0000
,
0001
0000
0010
0000
0100
0000
1000
0000
0001
1000
0100
1000
0100
0000
0010
0000
,
0001
1000
0010
1000
0100
0000
0010
0000
0001
0100
0001
1000
0100
0000
0010
0000
,
0001
1000
0001
1000
0010
0000
0100
0000
0001
0010
0001
0010
0100
0000
1000
0000
,
0010
0100
0001
1000
0100
0000
0010
0000
0001
1000
0001
1000
0001
0000
0100
0000
,
0010
1000
0010
1000
0100
0000
0010
0000
0001
1000
0100
1000
0010
0100
0001
0010
,
0001
0010
0100
1000
0100
1000
0001
0100
0001
0100
0010
1000
0010
1000
0001
0100
,
0001
0100
0010
1000
0100
0100
0001
0100
0200
0000
0000
0000
0000
0000
0000
0000
,
2300
0000
3020
0000
,
0030
0000
0000
0000
2002
3003
0000
0000
2200
0000
3300
0000
0110
0000
0010
0000
,
0011
0001
0101
0100
0110
0010
1010
1000
,
1100
0100
2200
3300
2002
3003
1010
0010
,
0110
0000
0100
0000
0101
0000
0001
0000
0011
0000
0020
0230
2300
3000
0020
0230
,
0302
0003
0020
0230
2300
0000
0000
0000
3200
0000
0300
0000
1100
0000
1000
0000
,
1010
0010
0110
0100
0101
0001
1001
1000
,
1100
0100
0220
0330
0022
0033
0101
0100
,
0110
0000
0010
1000
0100
0000
0010
0000
0022
0000
0033
0000
0101
0000
0100
0010
,
1000
0100
0010
0001
1000
0001
2000
0000
0000
0000
0000
0000
3200
0000
0000
0300
0000
0000
0110
0000
0000
0010
0000
0000
,
0011
0001
0101
0100
0220
0330
1010
1000
,
1100
0100
0440
0330
0022
0033
0101
0100
,
0110
0000
0010
0000
1010
0000
1000
0000
1001
0000
0002
0203
0320
0030
2000
3200
,
0320
0030
0002
0203
0320
0000
0000
0000
1030
0000
0000
0000
1001
0000
0001
0000
,
0101
0000
0100
0000
0110
0000
0010
0000
1010
0000
0000
0000
1100
0000
0200
0320
,
0032
0003
0000
0000
0022
0000
0033
0000
2002
0000
3003
0000
1000
0001
0100
0010
,
1000
0000
0100
0010
0001
1000
0100
1000
0010
0000
0100
0000
0100
0001
0010
0001
,
0010
0000
0100
0000
2200
0000
3300
0000
2002
0000
3003
0000
1010
0000
0010
0100
,
0001
0000
0010
0000
0110
0000
0100
0000
2200
3300
0000
0000
0202
0303
0000
0000
,
2200
0000
0000
3300
0000
0000
0000
0000
0000
0000
0000
0000
0001
0000
0100
0000
0001
0000
0100
0000
0000
0010
0000
0000
1000
0000
0000
0000
0000
0000
0100
0000
0000
0000
0000
0000
0011
0000
0000
0000
0000
0000
0001
0000
0000
0000
0000
0000
,
0101
0000
0100
0000
0110
0000
0010
0000
2020
3030
0000
0000
1100
0000
0100
0010
,
0002
0000
0000
0000
2003
0000
0000
0000
3010
0000
0000
0000
0110
0000
0100
0001
,
0010
0000
0000
0000
2200
3300
0000
0000
0022
0033
0001
1000
0010
0000
0000
0000
,
0000
0000
0000
0000
0000
0000
0001
0000
2202
3303
0000
0000
2000
3000
0000
0000
,
0100
0000
0000
0010
0000
0000
0100
0000
0000
0010
0000
0000
0001
0000
1000
0000
0010
0000
1000
0000
0001
0000
0100
0000
0002
0000
0000
0000
0000
0000
0000
0000
0000
0000
0000
0000
1003
0000
0100
0000
1000
0000
0100
0000
0000
0000
0000
0000
,
0020
0000
0000
0000
0000
0000
0000
0000
0000
0000
0000
0000
0000
0000
0000
0000
0000
0000
0000
0000
0000
0000
0000
0000
0000
0000
0000
0000
0000
0000
0000
0000
0000
0000
0000
0000
0000
0000
0000
0000
0000
0000
0000
0000
0000
0000
0000
0000
0031
0000
0000
0000
0000
0000
0000
0000
0000
0000
0000
0000
0100
0000
0000
0000
0000
0000
0000
0000
0000
0000
0000
0000
0010
0000
0000
0000
0000
0000
0000
0000
1000
0000
0000
0000
0000
0000
0000
0000
0010
0000
0000
0000
0000
0000
0000
0000
2000
0000
0000
0000
0000
0000
0000
0000
0000
0000
0000
0000
0000
0000
0000
0000
0000
0000
0000
0000
0000
0000
0000
0000
0000
0000
0000
0000
0000
0000
0000
0000
0000
0000
0000
0000
0000
0000
0000
0000
0000
0000
0000
0000
0000
0000
0000
0000
0000
3000
0000
0000
0000
0000
0000
0000
MMMM
0000
0000
0000
0000
0000
0000
0000
M0M0
0000
0000
0000
M0M0
0000
0000
0000
20M0
0000
0000
0000
0000
0000
0000
0000
0MMM
0000
0000
0000
00M0
0000
0000
0000
0MMM
0000
0000
0000
00M0
0000
0000
0000
,
00M0
0000
3020
0000
0000
0000
0000
0230
,
0000
0000
0302
0000
0000
0000
0000
0023
,
0000
0000
0230
0000
0000
0000
0000
2300
,
0000
0000
3020
0000
0000
0000
0000
0230
,
0000
0000
0302
0000
0000
0000
0000
0023
,
0000
0000
0230
0000
0000
0000
0000
2300
,
0000
0000
3002
0000
0000
0000
0000
0203
,
0000
0000
0320
0000
0000
0000
0000
2030
,
3100
0010
0002
1003
0001
0100
0001
2000
,
3100
1000
0020
0130
0001
0010
0001
0020
,
0130
1000
0002
1003
0100
1000
0010
0200
,
0301
0010
0200
2300
3020
0230
0302
0023
,
0130
1000
0001
1000
0100
1000
0010
0100
,
0001
0010
0001
0010
0100
1000
0100
1000
,
0010
0100
0001
1000
0001
0010
0001
1000
,
0100
0010
0001
1000
0001
0100
0001
2000
,
0000
0000
0000
0000
,
0000
0000
0000
0000
0000
0000
0000
3200
,
0000
0000
0000
0000
0000
0000
0000
0320
,
0000
0000
0000
0000
0000
0000
0000
0032
,
0000
0000
0000
0000
,
0000
0000
0000
0000
,
2003
3200
0320
0034
,
2003
0000
3020
0000
0130
0001
0002
0000
,
0023
0000
0130
0100
2000
0000
3001
0001
,
0200
0000
0310
0010
2000
0000
3200
0300
,
0022
0033
0202
0303
0220
0330
0010
1000
,
0100
0000
0010
0001
0000
0000
0000
0001
,
0101
0000
0200
0000
0320
0000
1030
0100
,
0010
0001
0001
0100
0000
0000
1010
1000
,
2200
0000
3300
0000
0110
0000
0001
0100
0020
0000
0030
0000
1100
0000
0100
0000
,
0110
0000
0011
0101
0000
0000
0000
0110
,
1010
0000
2200
3300
0220
0330
0010
0001
,
0001
0100
0010
1000
0200
0000
0000
0300
,
2200
3300
2002
3003
0202
0303
0100
0010
,
2000
0000
3100
0020
0000
0000
0030
0011
,
0101
0000
0220
0330
2020
3030
1000
0100
,
0010
0001
0100
0010
0000
1001
1000
1001
,
1000
0100
1000
0010
1000
0010
0100
0001
0100
0001
0010
0100
1000
0001
0100
0001
,
1000
0100
1000
0100
0010
0001
1000
0010
1000
0001
0010
0001
1000
0100
0010
0001
,
1000
0000
0000
0000
,
0000
0000
0000
MMMM
,
1000
0100
1000
0010
0100
0001
0010
0001
1000
0100
0010
0001
1000
0001
0100
0001
,
1000
0010
0100
0010
1000
0001
1000
0100
1000
0001
0100
0001
0010
0100
1000
0001
,
1000
0100
0010
0001
1000
0010
0100
0001
1000
0010
0100
0001
1000
0100
1000
0100
,
0010
0001
0010
0001
1000
0010
0100
0001
0100
0001
0010
0100
0010
0001
1000
0010
,
0100
0001
0100
0001
1000
0100
1000
0100
0010
0001
0010
0001
1000
0010
1000
0100
,
1000
0010
0100
0001
0100
0001
0010
0001
0010
0100
1000
0001
0100
0001
1000
0100
,
1000
0100
0010
0001
1000
0001
1000
0010
0100
0001
0010
0100
0010
0001
1000
0100
,
1000
0010
1000
0010
0100
0001
0100
0001
0010
0100
1000
0001
2000
0000
0000
0000
,
3010
0100
0001
0010
0100
1000
0100
1000
0001
0100
0001
1000
0010
0100
0001
1000
,
0001
0010
0001
1000
0100
0010
0001
1000
0001
0100
0001
1000
0100
0010
0001
1000
,
0100
0010
0100
1000
0001
0100
0001
1000
0100
0010
0001
1000
0010
1000
0010
0100
,
0001
0010
0100
1000
0001
0100
0001
1000
0100
1000
0001
0010
0100
1000
0001
0010
,
0100
1000
0001
0100
0001
0000
1000
0000
1000
0000
0000
0000
0110
0000
0010
0000
,
0011
0000
0000
0000
0101
0000
0100
0000
0110
0000
0000
0000
0010
1000
0100
0000
,
0010
0000
0000
0000
0022
0033
0000
0000
0202
0303
0000
0000
0110
0000
0010
0000
,
0010
1000
0100
0010
0001
1000
0001
0100
0010
1000
0100
0010
0100
1000
0001
1000
,
0002
0000
2003
0000
3020
0000
0130
0001
,
0020
0000
0130
2000
0000
3000
0000
1001
,
0101
0000
0220
0330
2020
3030
1000
0100
,
0010
0000
0001
0101
0000
0100
0100
0010
,
2000
0000
0000
0000
3200
0000
0310
0001
1000
0000
0000
0000
0002
0000
0100
0000
,
0003
0000
0020
1000
0030
0000
0000
0000
,
0020
2030
3200
0320
,
0030
0000
0000
0000
,
0010
0001
1000
0100
1000
0010
0100
0001
0010
0001
0010
0100
1000
0001
0100
0001
,
1000
0010
0100
0001
1000
0001
1000
0100
0010
0001
1000
0010
0100
0001
0010
0001
,
0010
0100
1000
0001
0100
0010
0100
0010
1000
0100
0010
0001
1000
0010
1000
0100
,
0010
0001
1000
0001
0100
0001
0100
0010
1000
0100
0010
0001
1000
0001
0010
0001
,
1000
0100
0010
0001
1000
0010
1000
0010
0100
0001
0010
0100
0010
0001
1000
0100
,
1000
0100
0010
0001
1000
0010
0100
0010
1000
0100
0010
0001
0100
0001
0100
0010
,
0100
0001
0010
0100
0010
0001
0100
0001
0100
0010
1000
0100
1000
0100
0010
0001
,
1000
0010
0100
0001
0010
0001
1000
0100
0010
0001
1000
0001
0100
0001
0010
0100
,
1000
0100
1000
0010
0100
0001
1000
0100
0010
0001
0010
0001
1000
0010
0100
0001
,
0010
0001
1000
0100
0010
0001
1000
0001
0100
0001
1000
0100
1000
0100
0010
0001
,
1000
0100
1000
0100
0010
0100
1000
0100
1000
0010
0100
0001
0010
0100
0010
0001
,
1000
0001
1000
0010
0100
0001
0010
0100
1000
0100
1000
0010
0100
0001
1000
0100
,
0010
0000
0001
1000
0100
0000
0010
0001
2000
0000
0000
0000
0000
0000
3001
0000
,
0200
0000
0000
0310
1000
0000
0000
0110
,
0012
0000
2003
0000
3200
0000
1300
0010
,
0200
0000
0000
0000
,
0302
0000
0023
0000
0230
0000
1300
0020
,
0000
0000
0000
0000
0000
0000
0000
0130
,
0002
0000
0023
0000
0230
0000
1300
0002
,
0000
0000
1003
0020
0000
0130
0100
0001
,
0020
0000
0000
0000
0130
1000
0001
1000
0010
0000
0000
0000
0110
0000
0110
0000
,
0000
0000
0000
0000
0000
0000
2020
3030
,
0220
0330
0202
0303
0022
0033
0010
0100
,
1000
0001
0100
0001
1000
0100
1000
0001
0010
0001
1000
0010
1000
0001
0010
0001
,
2000
3200
0320
0032
,
2003
3020
0230
0302
,
1003
1000
0100
0100
0010
0010
0001
0001
,
MMMM
0000
0000
0000
,
2202
3303
0000
0000
2200
3300
0000
0000
0220
0330
0000
0000
0022
0033
0000
0000
,
0202
0303
0000
0000
0220
0330
0000
0000
2020
3030
0000
0000
2002
3003
0000
0000
,
0202
0303
0000
0000
2002
3003
0000
0000
2200
3300
0000
0000
2020
3030
0000
0000
,
0220
0330
0000
0000
2020
3030
0000
0000
4400
0000
0000
0000
3301
0000
0000
0000
,
2002
3003
0000
0000
0202
0303
0000
0000
0220
0330
0000
0000
2020
3030
0000
0000
,
2200
3300
0000
0000
0220
0330
0000
0000
2200
3300
0000
0000
2020
3030
0000
0000
,
0220
0330
0000
0000
0202
0303
0000
0000
0022
0033
0000
0000
2200
3300
0000
0000
,
0022
0000
0000
0033
0000
0000
0000
0000
0000
0000
0000
0000
1000
0000
0000
0000
0100
0000
0000
0000
0010
0000
0000
0000
0001
0000
0000
0000
1000
0000
0000
0000
0100
0000
0000
0000
1000
0000
0000
0000
0000
0000
0001
0000
0000
0000
0000
0000
,
0220
0330
0000
0000
2020
3030
0000
0000
2200
3300
0000
0000
0220
0330
0000
0000
,
0022
0033
0000
0000
0202
0303
0000
0000
2002
3003
0000
0000
2020
3030
0000
0000
,
0220
0330
0000
0000
2020
3030
0000
0000
2200
3300
0000
0000
0022
0033
0000
0000
,
2200
3300
0000
0000
2020
3030
0000
0000
0220
0330
0000
0000
0404
0000
0000
0000
,
1303
0000
0000
0000
2002
3003
0000
0000
0202
0303
0000
0000
0022
0033
0000
0000
,
0220
0330
0000
0000
2200
3300
0000
0000
1010
0000
0010
0000
0110
0000
0100
0000
,
0101
00MM
0MM0
MM00
,
0M0M
M0M0
MM0M
2020
,
3131
0000
0000
0000
0000
0000
0000
0000
0000
0000
0000
0000
0001
0010
0000
0000
0000
0000
0000
0000
0000
0000
0000
0000
0100
1000
0000
0000
0000
0000
0000
0000
0000
0000
0000
0000
0001
0100
0000
0000
0000
0000
0000
0000
0000
0000
0000
0000
,
0010
1000
0000
0000
0000
0000
0000
0000
0000
0000
0000
0000
0100
0010
0000
0000
0000
0000
0000
0000
0000
0000
0000
0000
0001
0100
0000
0000
0000
0000
0000
0000
0000
0000
0000
0000
0010
1000
0000
0000
0000
0000
0000
0000
0000
0000
0000
0000
,
0001
0010
0000
0000
0000
0000
0000
0000
0000
0000
0000
0000
0100
1000
0000
0000
0000
0000
0000
0000
0000
0000
0000
0000
0010
0100
0000
0000
0000
0000
0000
0000
0000
0000
0000
0000
0001
0010
0000
0000
0000
0000
0000
0000
0000
0000
0000
0000
,
0100
1000
0000
0000
0000
0000
0000
0000
0000
0000
0000
0000
0001
1000
0000
0000
0000
0000
0000
0000
0000
0000
0000
0000
0010
1000
0000
0000
0000
0000
0000
0000
0000
0000
0000
0000
0001
0100
0000
0000
0000
0000
0000
0000
0000
0000
0000
0000
,
1001
1000
1010
0010
0110
0100
0101
0001
,
0011
0010
0110
0100
1100
1000
1010
0010
,
0110
0100
0001
0010
0100
1000
0001
0100
0001
1000
0100
0010
0001
1000
0001
0010
,
0001
1000
0100
0010
0001
0100
0001
0100
0010
1000
0100
0010
0002
0000
0000
0003
,
2002
0000
0000
0000
,
3003
M00M
0000
0000
0000
0000
0000
0000
,
0000
0000
0000
0000
0000
0000
0000
0000
0000
0000
0000
0000
2202
3303
0000
0000
,
0000
0000
2022
3033
0000
0000
0000
0000
0000
0000
0000
0000
0000
0000
0000
0000
,
MMMM
0000
0000
0000
;
