#TITLE:Fatal Tragedy;
#SUBTITLE:Metropolis Pt. 2 Scenes From a Memory (1999);
#ARTIST:Dream Theater;
#TITLETRANSLIT:;
#SUBTITLETRANSLIT:;
#ARTISTTRANSLIT:;
#CREDIT:;
#BANNER:Fatal Tragedy.png;
#BACKGROUND:Fatal Tragedy.jpg;
#LYRICSPATH:;
#CDTITLE:KS.png;
#MUSIC:Fatal Tragedy.mp3;
#OFFSET:-0.020;
#SAMPLESTART:33.293;
#SAMPLELENGTH:11.940;
#SELECTABLE:YES;
#BPMS:0.000=140.020,48.000=93.100,60.000=140.020,357.500=142.000,360.000=140.020,376.000=140.800,378.000=140.020;
#STOPS:;
#BGCHANGES:;
// cache tags:
#FIRSTBEAT:8.000;
#LASTBEAT:488.000;
#SONGFILENAME:Songs/Astronomic Metal Collection/Fatal tragedy (KangXIX)/Fatal Tragedy.sm;
#HASMUSIC:1;
#HASBANNER:1;
#MUSICLENGTH:220.055;
// end cache tags

//---------------dance-single - ----------------
#NOTES:
     dance-single:
     :
     Challenge:
     13:
     1.000,1.000,0.854,0.282,1.000,1662.000,188.000,62.000,0.000,11.000:
0000
0000
0000
0000
,
0000
0000
0000
0000
,
2002
0000
0000
0000
0000
3003
0100
0000
2020
0000
0000
0000
0000
0000
0000
3030
,
0001
0100
0001
0000
0001
0000
0001
0000
2020
0000
0000
3030
0100
0001
0100
0000
,
2200
0000
0000
0000
0000
3300
0001
0000
0022
0000
0000
0000
0000
0000
0000
0033
,
1000
0000
0000
0000
0100
0000
0000
0000
1000
0000
0000
0000
0000
0000
0000
0000
1000
0000
0000
0000
0000
0000
0000
0000
1000
0000
0000
0000
0000
0000
0000
0000
0022
0000
0000
0000
0000
0000
0000
0000
0000
0000
0000
0000
0033
0000
0000
0001
1000
0000
0000
0000
0000
0000
0000
0000
0100
0000
0000
0000
0000
0000
0000
0000
,
1002
0000
0000
0000
1010
0000
0000
0000
0100
0000
0000
0003
0110
0000
0001
0000
,
2000
0000
0000
0000
0101
0000
0000
0000
0010
0000
0000
3000
0011
0000
0100
0000
,
2000
0000
0000
0000
0110
0000
0001
0000
0000
0000
0001
0000
0101
0000
0000
3000
,
1002
0000
0000
0000
1010
0000
0100
0000
0000
0000
0100
0003
0110
0000
1000
0000
,
0012
0000
0000
0000
1100
0000
0010
0000
0000
0000
0010
0000
1100
0000
0100
0003
,
0001
1010
0100
0001
1100
0001
0011
0100
,
0120
0000
1030
0100
0101
0110
2010
0000
3001
0010
0110
1100
,
1002
0000
0100
1010
0000
0103
2100
0000
0001
0011
0000
3001
,
0210
0000
1000
1001
0001
1301
0210
0000
0301
2100
0000
3010
,
0102
0000
0000
0000
0000
0000
1003
1000
0110
0000
0000
0000
0110
0000
0001
0001
,
1000
1000
0100
0010
0001
0010
0100
1000
0010
0100
0001
0010
0100
1000
0010
0100
,
0101
0000
0000
0110
0000
0000
2010
0000
0000
0000
0000
0000
3001
0010
0001
0010
0001
0010
0001
0000
0100
0010
0100
0000
,
1000
0100
1000
0100
1000
0100
1000
0000
0001
0010
0001
0000
0010
0100
0010
0100
0010
0100
0010
0000
1000
0001
1000
0000
,
0001
0100
0010
1000
0000
1000
0000
1000
0001
0100
0010
1000
0000
1000
0000
1000
,
0001
0100
0010
1000
0000
1000
0000
1000
0001
0100
0010
1000
0000
1000
0000
1000
,
0001
0010
0100
1000
0000
1000
0000
1000
0001
0010
0100
1000
0000
1000
0000
1000
,
0001
0010
0100
1000
0000
0100
0010
0001
0000
0100
0010
1000
0000
0001
0100
0000
,
1000
0100
0010
0001
0000
0001
0000
0001
0010
0100
1000
0010
0000
0010
0000
0010
,
0100
0001
0010
0100
0000
0100
0000
0100
1000
0010
0100
0001
0000
0001
0000
0001
,
0100
0010
1000
0100
0000
0100
0000
0100
0010
0001
1000
0010
0000
0010
0000
0010
,
0100
0001
1000
0100
0000
0010
0001
0100
0000
0010
1000
0001
0000
0010
0100
0000
,
0001
0010
0100
1000
0000
1000
0000
1000
0010
0100
0001
1000
0000
1000
0000
1000
,
0100
0010
0001
0100
0000
0100
0000
0100
0010
1000
0001
0010
0000
0010
0000
0010
,
0100
1000
0100
0001
0000
0001
0000
0001
0100
1000
0010
0100
0000
0100
0000
0100
,
0001
0010
0100
1000
0000
0010
0100
0001
0000
1000
0100
0010
0000
1000
0001
0000
,
0010
0100
0010
0100
0000
1000
0100
1000
0100
0000
0001
0100
0001
0100
0000
0010
,
1000
0010
1000
0000
0100
0010
0100
0000
0001
1000
0001
1000
0000
0100
0010
0100
,
0010
0000
1000
0100
1000
0100
0000
0001
0010
0001
0010
0000
0100
1000
0100
0000
,
0010
0001
0010
0001
0000
1000
0010
1000
0010
0000
0100
0001
0100
0001
0000
1000
,
0010
1000
0010
0000
0100
0001
0100
0000
1000
0100
1000
0100
0000
0010
0100
0010
,
0100
0000
0010
0001
0010
0001
0000
1000
0001
1000
0001
0000
0010
0100
0010
0000
,
1010
0110
0101
0011
0000
0011
0110
1100
0101
0000
0101
1100
0110
0011
0000
0011
,
0110
1100
1001
0000
0110
0101
1100
0000
0011
0110
1100
1010
0000
1010
0110
0101
,
1100
0000
1100
0110
1001
0110
0000
0110
0101
1100
0011
0000
1100
0110
0011
0000
,
0011
0110
1100
0101
0000
0101
0110
1010
1100
0000
1100
0110
0101
1001
0000
1001
,
1010
0000
0000
0110
0000
0000
0101
0000
0000
0000
0000
0000
1010
0000
0000
0110
0000
0000
0101
0000
0000
0000
0000
0000
1000
0000
0100
0000
0010
0000
0001
0000
0100
0000
0010
0000
1000
0000
0100
0000
0010
0000
0100
0000
1000
0000
0010
0000
,
0100
0001
0010
0001
0100
0010
1000
0100
0010
0100
1000
0010
0100
0001
0010
0100
1000
0100
0010
0001
0000
0000
0000
0000
,
0101
0101
0000
0100
1010
0000
1100
1100
0000
1100
1100
0000
0011
0000
0000
0000
,
0110
0110
0000
0001
1001
0000
1010
1010
0000
1010
1010
0000
1001
0000
0000
0000
,
0011
0011
0000
0100
1100
0000
0101
0101
0000
0101
0101
0000
1010
0000
0000
0000
,
1100
1100
0000
0100
0011
0000
1001
1001
0000
1001
1001
0000
0110
0001
0001
0001
,
1000
0100
0010
0001
0010
0100
1000
0010
0100
0001
0100
0010
1000
0100
0010
0001
0010
0100
1000
0010
0100
0001
0100
0010
,
1000
0100
0010
0001
0010
0100
1000
0010
0100
0001
0100
0001
0010
0100
1000
0010
0100
0001
0010
0001
0100
0010
1000
0100
,
0010
0001
0100
0001
0010
0100
1000
0010
0100
0001
1000
0100
0010
0001
0100
0001
0010
0100
0010
0001
0100
0010
1000
0001
,
0100
0010
1000
0100
0010
0001
0010
0100
1000
0010
0100
0001
0100
0010
1000
0100
0010
0100
1000
0001
0010
0100
1000
0010
,
0200
0000
0000
0302
0000
0000
0203
0000
0310
1000
0100
0010
0001
0010
0002
0000
,
2003
0000
0000
3020
0000
0000
2030
0000
3001
0010
0100
1000
0010
0100
0002
0000
,
0000
0000
0000
0000
0000
0000
1003
0000
0100
0000
1000
0000
0010
0000
0000
0100
0000
0000
0001
0000
0010
0000
0001
0000
1000
0000
0000
0100
0000
0000
1000
0000
0010
0000
1000
0000
0001
0000
0000
0100
0000
0000
0010
0000
1000
0000
0001
0000
,
0010
0000
0000
0100
0000
0000
1000
0000
0100
0000
0010
0000
0001
0000
0000
0100
0000
0000
0001
0000
0010
0000
0100
0000
1000
0000
0000
0100
0000
0000
0010
0000
0001
0000
1000
0000
0010
0000
0000
0100
0000
0000
0001
0000
0100
0000
0001
0000
,
0020
0000
0000
0030
0010
0001
2000
0000
0000
0000
0000
0000
0000
3001
0100
0010
,
1000
0001
0010
0100
1000
0000
0100
0000
0010
1000
0100
0010
0100
1000
0010
0100
,
0001
0000
0000
1000
0000
0000
0100
0000
0000
0010
0000
0000
0001
0000
0000
0100
0000
0000
0010
0000
0000
1000
0000
0000
0001
0000
0000
0010
0000
0000
0100
0000
1000
0000
0010
0000
0100
0000
0000
0001
0000
0000
1000
0000
0000
0100
0000
0000
,
0010
0001
1000
0100
0010
0001
1000
0100
0010
0001
0100
0010
1000
0001
0100
0010
1000
0001
0010
0001
1000
0100
0010
0001
,
1000
0100
0010
0100
1000
0010
0100
0001
0010
0100
1000
0001
0010
0001
1000
0100
0010
0001
1000
0100
0010
0001
0100
0010
,
1000
0000
0100
0000
0010
0000
0001
0000
0100
0000
0010
0000
1000
0000
0100
0000
0010
0000
0001
0000
1000
0000
0100
0000
0010
0000
0001
0000
0100
0000
0010
0000
1000
0000
0001
0000
0100
0000
0000
0010
0000
0000
1000
0000
0000
0100
0000
0000
,
0001
0001
0001
0010
0010
0010
0010
0010
0010
0100
0100
0100
0100
0100
1000
1000
,
1000
1000
1000
0010
0010
0010
0100
0100
0100
0001
0001
0001
0010
0010
1000
0000
,
0001
0010
0100
1000
0100
0010
0001
0010
0100
1000
0010
0100
0010
1000
0100
0010
0100
1000
0001
0100
0010
1000
0100
1000
,
0010
0100
0010
1000
0001
0100
0010
1000
0100
0010
0001
0100
0010
1000
0100
0001
0010
0100
1000
0010
0100
0001
1000
0100
,
0010
0100
1000
0010
0100
0001
0010
0100
1000
0100
0010
0001
0100
0010
1000
0001
0010
0200
0000
0000
0000
0000
0300
0000
,
0002
0000
0000
0000
0000
0000
1003
0000
0010
0000
1000
0000
0100
0000
0000
0010
0000
0000
0100
0000
0000
0010
0000
0000
0001
0000
0000
1000
0000
0000
0001
0000
0000
0010
0000
0000
0100
0000
0000
1000
0000
0000
0100
0000
0000
0010
0000
0000
,
0001
0000
0010
0000
0001
0000
0100
0000
0000
0010
0000
0000
1000
0000
0000
0001
0000
0000
0010
0000
0000
0100
0000
0000
1000
0000
0000
0100
0000
0000
0010
0000
0000
0001
0000
0000
1000
0000
0000
0010
0000
0000
0100
0000
0000
0001
0000
0000
,
1000
0000
0010
0000
1000
0000
0001
0000
0000
1000
0000
0000
0100
0000
0000
0010
0000
0000
0001
0000
0000
0100
0000
0000
0010
0000
0000
1000
0000
0000
0001
0000
0000
1000
0000
0000
0100
0000
0000
0010
0000
0000
0001
0000
0000
0010
0000
0000
,
0100
1000
0001
0010
0100
1000
0001
0010
0100
1000
0010
0100
0001
1000
0100
0010
0100
1000
0010
0100
0001
0010
0100
1000
,
0001
0100
0010
0100
0001
0010
0100
1000
0010
1000
0100
0010
0001
0100
0010
0100
0001
0010
0100
1000
0010
1000
0100
0010
,
0001
0010
0100
1000
0000
0100
1000
0010
0000
0100
0001
0010
0000
0100
1000
0000
,
0002
0000
0000
0000
0000
0000
0000
0000
0000
1003
0100
1000
0100
1000
0010
0100
0001
1000
0100
0010
0001
0010
0001
1000
,
0200
0000
0000
0000
0000
0000
0000
0000
0000
0000
0000
0000
0000
0000
0000
0000
0000
0000
0000
0000
0000
0000
0000
0000
0300
0000
0000
0000
0000
0000
0000
0000
0000
0200
0000
0000
0000
0000
0000
0000
0000
0000
0000
0000
0000
0000
0000
0000
0000
0000
0000
0000
0000
0000
0300
0000
0000
0000
0000
0000
0200
0000
0000
0000
0000
0000
0000
0000
0000
0000
0000
0000
0000
0000
0000
0000
0000
0000
0000
0000
0000
0000
0000
0000
0000
0000
0000
0000
0000
0000
0000
0000
0000
0000
0000
0000
0301
0000
0000
0000
0000
0000
0000
0000
0100
0000
0000
0000
0000
0000
0000
0000
0001
0000
0000
0000
0000
0000
0000
0000
0100
0000
0000
0000
0000
0000
0000
0000
0010
0000
0000
0000
0000
0000
0000
0000
1000
0000
0000
0000
0000
0000
0000
0000
0010
0000
0000
0000
0000
0000
0000
0000
1000
0000
0000
0000
0000
0000
0000
0000
0001
0000
0000
0000
0000
0000
0000
0000
0100
0000
0000
0000
0000
0000
0000
0000
0001
0000
0000
0000
0000
0000
0000
0000
0010
0000
0000
0000
0000
0000
0000
0000
,
0100
1000
0001
0100
0020
0000
0000
0000
0000
0000
0000
0000
0000
0000
0000
0000
,
1030
0000
0001
0000
0000
0000
0000
0001
0000
0000
0000
0000
0001
0000
0000
0000
0000
0000
0020
0000
0000
0000
0000
0000
0000
0000
0130
0010
0100
1000
0100
0010
,
0001
0000
0000
0000
0000
0000
0000
0000
0000
0000
1000
0010
0100
0001
1000
0100
0020
0000
0000
0000
0000
0000
0000
0000
0000
0000
0000
0000
0000
0000
0000
0000
,
0032
0000
0000
0000
0000
0000
0000
0000
0000
0000
0000
0000
0000
0000
0000
0000
0000
0000
0000
0000
0000
0000
0000
0000
0000
0000
0000
0000
0000
0000
0000
0000
0000
0000
0000
0000
0000
0000
0000
0000
0000
0000
0000
0000
0000
0000
0000
0000
0003
0000
0000
0000
0000
0000
0000
0000
0000
0000
0000
0000
0000
0000
0000
0000
1000
0000
0000
0000
0000
0000
0000
0000
0010
0000
0000
0000
0000
0000
0000
0000
0100
0000
0000
0000
0000
0000
0000
0000
0001
0000
0000
0000
0000
0000
0000
0000
0000
0000
0000
0000
0000
0000
0000
0000
0000
0000
0000
0000
0000
0000
0000
0000
0000
0000
0000
0000
0000
0000
0000
0000
0000
0000
0000
0000
0000
0000
0000
0000
0000
0000
0000
0000
0000
0000
0000
0000
0000
0000
0000
0000
0000
0000
0000
0000
1000
0000
0000
0000
0000
0000
0100
0000
0000
0000
0000
0000
0010
0000
0000
0000
0000
0000
0100
0000
0000
0000
0000
0000
1000
0000
0000
0000
0000
0000
0010
0000
0000
0000
0000
0000
0100
0000
0000
0000
0000
0000
0001
0000
0000
0000
0000
0000
,
0010
0001
1000
0001
0100
0010
1000
0100
0010
0001
0010
0100
1000
0010
0100
0001
2000
0000
0000
0000
0000
0000
0000
0000
0000
0000
0000
0000
0000
0000
0000
0000
,
3002
0000
0000
0000
0000
0000
0000
0000
0000
0000
0000
0000
0000
0000
0000
0003
0000
0000
0100
0000
1000
0000
0001
0000
0020
0000
0000
0000
0000
0000
0000
0000
0000
0000
0000
0000
0000
0000
0000
0000
0000
0000
0000
0000
0000
0000
0000
0000
,
2030
0000
0000
0000
0000
0000
0000
3000
2000
0000
3200
0000
0000
0320
0000
0000
,
0032
0000
0000
0000
0000
0000
0000
0000
0000
0000
0000
0000
0000
0000
0000
0003
0000
0000
0001
0000
0010
0000
0100
0000
2000
0000
0000
0000
0000
0000
0000
0000
0000
0000
0000
0000
0000
0000
0000
0000
0000
0000
0000
0000
0000
0000
0000
0000
,
3002
0000
0000
0000
0000
0000
0000
0000
0000
0003
0000
0000
0001
0000
0000
0010
0000
0000
0100
0000
1000
0000
0100
0000
0010
0000
0100
0000
1000
0000
0001
0000
0010
0000
0100
0000
0010
0000
0001
0000
0100
0000
0010
0000
1000
0000
0001
0000
,
0200
0000
0000
0000
0000
0000
0000
0000
0000
0000
0000
0000
0000
0000
0000
0000
0000
0000
0301
0000
0000
1000
0000
0000
0100
0000
0010
0000
0001
0000
1000
0000
0100
0000
0010
0000
0001
0000
0100
0000
0010
0000
1000
0000
0001
0000
0010
0000
,
0100
0000
0000
0000
0000
0000
1000
0000
0000
0000
0000
0000
0100
0000
0000
0000
0000
0000
1000
0000
0000
0000
0000
0000
0100
0000
0000
0000
0000
0000
1000
0000
0000
0000
0000
0000
0100
0000
0000
0000
0000
0000
1000
0000
0000
0000
0000
0000
0100
0000
0000
0000
0000
0000
1000
0000
0000
0000
0000
0000
0100
0000
0000
0000
0000
0000
1000
0000
0000
0000
0000
0000
0100
0000
0000
0000
0000
0000
1000
0000
0000
0000
0000
0000
0100
0000
0000
0000
0000
0000
0000
0000
0010
0000
0000
0000
0000
0000
0000
0000
0001
0000
0000
0000
0000
0000
0000
0000
0200
0000
0000
0000
0000
0000
0000
0000
0000
0000
0000
0000
0000
0000
0000
0000
0000
0000
0000
0000
0000
0000
0000
0000
0000
0000
0000
0000
0000
0000
0000
0000
0000
0000
0000
0000
0000
0000
0000
0000
0000
0000
0000
0000
0000
0000
0000
0000
0000
0000
0000
0000
0000
0000
0000
0000
0000
0000
0000
0000
0000
0000
0000
0000
0000
0000
0000
0000
0000
0000
0000
0000
0000
0000
0000
0000
0000
0000
0000
0000
0000
0000
0000
0000
,
0301
0000
0000
0000
0000
0000
0000
0000
0000
0000
0000
0000
0000
0000
0000
0000
0000
0000
0000
0000
0000
0000
0000
0000
0010
0000
0000
0000
0000
0000
0000
0000
0100
0000
0000
0000
0000
0000
0000
0000
1000
0000
0000
0000
0000
0000
0000
0000
0001
0000
0000
0000
0000
0000
0000
0000
0000
0000
0000
0000
0100
0000
0000
0000
0000
0000
0010
0000
0000
0000
0000
0000
1000
0000
0000
0000
0000
0000
0000
0000
0000
0000
0000
0000
0001
0000
0000
0000
0000
0000
0000
0000
0000
0000
0000
0000
0100
0000
0000
0000
0000
0000
0000
0000
0010
0000
0000
0000
0000
0000
0000
0000
1000
0000
0000
0000
0000
0000
0000
0000
0100
0000
0000
0000
0000
0000
0000
0000
0010
0000
0000
0000
0000
0000
0000
0000
0001
0000
0000
0000
0000
0000
0000
0000
0010
0000
0000
0000
0000
0000
0000
0000
0100
0000
0000
0000
0000
0000
0000
0000
1000
0000
0000
0000
0000
0000
0000
0000
0001
0000
0000
0000
0000
0000
0000
0000
0100
0000
0000
0000
0000
0000
0000
0000
0010
0000
0000
0000
0000
0000
0000
0000
,
1000
0100
1000
0100
0000
0010
0001
0010
0000
0100
0010
0100
0000
0001
1000
0001
,
0100
0000
0000
0000
0000
0000
0000
0000
0010
0000
0000
0000
0000
0000
0000
0000
1000
0000
0000
0000
0000
0000
0000
0000
0100
0000
0000
0000
0000
0000
0010
0000
0000
0000
0000
0000
0001
0000
0000
0000
0000
0000
0010
0000
0000
0000
0000
0000
0100
0000
0000
0000
0000
0000
0000
0000
1000
0000
0000
0000
0000
0000
0000
0000
0010
0000
0000
0000
0000
0000
0000
0000
0100
0000
0000
0000
0000
0000
0001
0000
0000
0000
0000
0000
0010
0000
0000
0000
0000
0000
0001
0000
0000
0000
0000
0000
0100
0000
0000
0000
0000
0000
0000
0000
0010
0000
0000
0000
0000
0000
0000
0000
1000
0000
0000
0000
0000
0000
0000
0000
0100
0000
0000
0000
0000
0000
0000
0000
0010
0000
0000
0000
0000
0000
0000
0000
0001
0000
0000
0000
0000
0000
0000
0000
1000
0000
0000
0000
0000
0000
0000
0000
0100
0000
0000
0000
0000
0000
0000
0000
0010
0000
0000
0000
0000
0000
0000
0000
0001
0000
0000
0000
0000
0000
0100
0000
0000
0000
0000
0000
0010
0000
0000
0000
0000
0000
0100
0000
0000
0000
0000
0000
,
0001
0000
0000
0000
0000
0000
0000
0000
0100
0000
0000
0000
0000
0000
0000
0000
0010
0000
0000
0000
0000
0000
0000
0000
1000
0000
0000
0000
0000
0000
0000
0000
0100
0000
0000
0000
0000
0000
0000
0000
0010
0000
0000
0000
0000
0000
0000
0000
0100
0000
0000
0000
0000
0000
0000
0000
1000
0000
0000
0000
0000
0000
0000
0000
0001
0000
0000
0000
0000
0000
0000
0000
0010
0000
0000
0000
0000
0000
0100
0000
0000
0000
0000
0000
1000
0000
0000
0000
0000
0000
0100
0000
0000
0000
0000
0000
0010
0000
0000
0000
0000
0000
0000
0000
0001
0000
0000
0000
0000
0000
0000
0000
1000
0000
0000
0000
0000
0000
0000
0000
0100
0000
0000
0000
0000
0000
0000
0000
0010
0000
0000
0000
0000
0000
0000
0000
0100
0000
0000
0000
0000
0000
0000
0000
2000
0000
0000
0000
0000
0000
0000
0000
0000
0000
0000
0000
0000
0000
0000
0000
0000
0000
0000
0000
0000
0000
0000
0000
0000
0000
0000
0000
0000
0000
0000
0000
0000
0000
0000
0000
0000
0000
0000
0000
0000
0000
0000
0000
0000
0000
0000
0000
,
3100
0010
0100
0020
0000
0000
0000
0000
,
0130
0000
0000
0000
0000
0000
0000
0000
1000
0000
0000
0000
0000
0000
0000
0000
0001
0000
0000
0000
0000
0000
0000
0000
0100
0000
0000
0000
0000
0000
0000
0000
0000
0000
0000
0000
0010
0000
0000
0000
0000
0000
0000
0000
0000
0000
0000
0000
1000
0000
0000
0000
0000
0000
0001
0000
0000
0000
0000
0000
0010
0000
0000
0000
0000
0000
0100
0000
0000
0000
0000
0000
1000
0000
0000
0000
0000
0000
0000
0000
0000
0000
0000
0000
0010
0000
0000
0000
0000
0000
0000
0000
0000
0000
0000
0000
0100
0000
0000
0000
0000
0000
0000
0000
0000
0000
0000
0000
0001
0000
0000
0000
0000
0000
0000
0000
0000
0000
0000
0000
0010
0000
0000
0000
0000
0000
0000
0000
0000
0000
0000
0000
0100
0000
0000
0000
0000
0000
0000
0000
0000
0000
0000
0000
1001
0000
0000
0000
0000
0000
0000
0000
0000
0000
0000
0000
0000
0000
0000
0000
0000
0000
0000
0000
0000
0000
0000
0000
0010
0000
0000
0000
0000
0000
0000
0000
0000
0000
0000
0000
0010
0000
0000
0000
0000
0000
0000
0000
0000
0000
0000
0000
,
0100
0001
0100
0000
0010
0000
1000
0000
0100
0000
0010
0000
0001
0000
0010
0000
0100
0000
1000
0000
0010
0000
0100
0000
0001
0000
0100
0000
0010
0000
1000
0000
,
0100
0010
0100
0000
0001
0000
1000
0000
0001
0000
0010
0000
0100
0000
1000
0000
0010
0000
0100
0000
0010
0000
1000
0000
0001
0000
0100
0000
0010
0000
1000
0000
,
0100
0010
0100
1000
0001
0100
0001
0010
0001
1000
0010
0100
0001
1000
0100
0001
,
1001
0000
0000
0000
0000
0000
0000
0000
1000
0100
0100
0010
0100
0100
0001
0100
,
0100
0010
0100
0100
1000
0010
0100
0001
0010
0001
0001
1000
0001
0001
0100
0001
,
0001
1000
0001
0001
0010
0001
0100
0010
1000
0010
0010
0100
0010
0010
0001
0010
,
0010
0100
0010
0010
1000
0100
0010
0100
0001
1000
1000
0010
1000
1000
0100
1000
,
1000
0010
1000
1000
0010
0100
0001
1000
0100
0010
0010
0001
0010
0010
1000
0010
,
0010
0100
0010
0010
0001
1000
0001
0010
0100
1000
1000
0001
1000
1000
0010
1000
,
1000
0001
1000
1000
0010
0100
0001
1000
0010
0100
0100
1000
0100
0100
0010
0100
,
0100
0001
0100
0100
0010
1000
0001
0010
0100
0010
0010
1000
0010
0010
0001
0010
,
0001
1000
0001
1000
0001
1000
0001
1000
0001
0100
1000
0100
0001
0010
0001
0100
,
1000
0100
0001
0010
0001
0100
1000
0100
0010
1000
0001
1000
0010
0100
0010
1000
,
0001
1000
0010
0100
0010
1000
0001
1000
0100
0001
0100
1000
0010
1000
0100
0001
,
0100
1000
0010
1000
0100
0001
0100
0010
0001
0010
1000
0010
0001
0100
0001
0010
,
1000
0010
0001
0100
0001
0010
1000
0010
0101
1000
0010
0101
0010
1000
0101
1000
,
0010
0101
0010
1000
0101
1000
0010
0100
0011
0100
1000
0011
1000
0100
0011
0100
,
1000
0011
1000
0100
0011
0100
1000
0010
1001
0100
0010
1001
0010
0100
1001
0100
,
0010
1001
0010
0100
1001
0100
0010
1000
0101
0000
0110
0110
0000
1010
0000
0110
,
0110
0000
1100
0000
0001
0001
0001
0001
1000
0010
0100
0010
1000
0001
1000
0010
,
0100
0010
1000
0001
1000
0010
0100
0001
0010
0100
1000
0001
0100
0001
0010
0100
,
1000
0000
0001
0000
0100
0000
0001
0000
0010
0001
0010
0000
0100
0000
1000
0000
0001
0000
0100
0000
1000
0000
0100
0000
0010
0000
1000
0000
0001
0000
0100
0000
,
1000
0100
0010
1000
0001
0100
1000
0100
0010
1000
0001
0010
0100
1000
0010
1000
,
0001
0010
0100
1000
0010
1000
0100
0001
0010
0001
0001
0010
0001
0001
0010
0001
,
0001
0010
0001
0001
0010
0001
0010
0001
1000
0001
0001
1000
0001
0001
1000
0001
,
0001
1000
0001
0001
1000
0001
1000
0001
0100
0001
0001
0100
0001
0001
0100
0001
,
0001
0100
0001
0001
0100
0001
0100
0001
1100
0000
0110
0000
0022
0000
0000
0033
,
1100
1100
1100
1100
1100
1100
1100
1100
,
1100
1100
1100
1100
1100
1100
1100
1100
,
0101
0101
0101
0101
0101
0101
0101
0101
,
0101
0101
0101
0101
0001
0100
1000
0000
,
1001
0000
0000
0000
;
