#TITLE:Steal Your Misery;
#SUBTITLE:;
#ARTIST:Scarecrow;
#TITLETRANSLIT:;
#SUBTITLETRANSLIT:;
#ARTISTTRANSLIT:;
#CREDIT:Akatsuki0;
#BANNER:Steal Your Misery-bn.avi;
#BACKGROUND:Steal Your Misery.png;
#LYRICSPATH:;
#CDTITLE:akatsuki0-cdtitle.png;
#MUSIC:Steal Your Misery.mp3;
#OFFSET:0.000;
#SAMPLESTART:147.300;
#SAMPLELENGTH:19.060;
#SELECTABLE:YES;
#BPMS:0.000=185.000,208.000=92.500,236.000=185.000,363.000=92.500,391.000=185.000;
#STOPS:328.000=0.320
;
#BGCHANGES:0.000=Steal Your Misery.avi=1.000=1=0=1,
99999=-nosongbg-=1.000=0=0=0 // don't automatically add -songbackground-
;
// cache tags:
#FIRSTBEAT:16.000;
#LASTBEAT:754.000;
#SONGFILENAME:Songs/toune 8/Steal Your Misery/Steal Your Misery.sm;
#HASMUSIC:1;
#HASBANNER:1;
#MUSICLENGTH:279.750;
// end cache tags

//---------------dance-single - ----------------
#NOTES:
     dance-single:
     :
     Challenge:
     9:
     0.602,0.606,0.443,0.408,0.038,941.000,124.000,114.000,0.000,0.000:
0000
0000
0000
0000
,
0000
0000
0000
0000
,
0000
0000
0000
0000
,
0000
0000
0000
0000
,
1100
0000
0000
0101
0000
0000
0110
0000
,
0011
0000
0000
0000
0000
0000
0001
0000
0100
0000
0000
0001
0000
0000
1000
0000
,
0002
0000
0003
0000
0000
0010
0001
1000
,
0100
0000
1100
0000
1010
0000
0010
0100
,
0002
0000
0000
0003
0010
0010
0001
2000
,
0000
0000
3000
0000
0000
0000
0100
0000
1000
0000
0000
0010
0000
0000
0100
0000
,
0002
0000
0003
0000
0000
0010
1000
0010
,
0001
0100
0000
0010
0000
1010
0000
1000
,
0100
2000
0000
3000
0001
0100
0001
1000
,
0100
0000
0000
0000
0000
0000
0010
0000
0001
0000
0000
0100
0000
0000
0001
0000
,
2000
0000
3000
0000
0000
0100
1000
0010
,
1000
0000
1001
0000
1100
0000
0100
0010
,
0002
0000
0000
0003
0100
0001
1000
0200
,
0000
0300
0000
0000
0000
1000
0010
1000
,
0001
0011
1010
0110
,
0100
0010
0001
0100
0001
1000
0001
0100
,
0010
0100
0001
1000
0100
0010
0000
0010
,
0001
0100
0000
0110
0000
1010
0000
0101
,
0000
0001
1000
0100
1000
0010
0000
0010
,
0100
0001
0000
1001
0000
1100
0000
0110
,
0000
0010
0001
1000
0001
0100
0000
0100
,
0010
1000
0000
1001
0000
1100
0000
0011
,
0000
0010
1000
0010
0001
0100
0000
0100
,
0001
1000
0000
2200
0000
3300
0000
2000
,
0000
3001
0010
0001
0100
0010
1000
0100
,
1000
0001
0000
0020
0000
0030
0000
0110
,
0000
0100
0010
0001
1000
0100
1000
0020
,
0000
0030
0000
0000
0000
0000
0000
0200
,
0000
0301
0010
1000
0001
0100
1000
0010
,
0100
0001
0000
2000
0000
3000
0000
1100
,
0000
0100
1000
0010
1000
0001
0100
0001
,
0000
0001
0020
0000
0030
0000
0000
0000
,
0100
0010
0001
0100
0001
1000
0000
1000
,
0010
1000
0000
1100
0000
0101
0000
1100
,
0000
1000
0010
0100
0001
1000
0000
1000
,
0001
0010
0000
0110
0000
0011
0000
0101
,
0000
0001
1000
0100
1000
0010
0000
0010
,
0100
0010
0000
1010
0000
1100
0000
0110
,
0000
0010
0001
0100
0001
1000
0000
1000
,
0010
0100
0000
0220
0000
0330
0000
0020
,
0000
1030
0010
0001
0010
0100
0001
1000
,
0100
0010
0000
0002
0000
0003
0000
0101
,
0000
0001
1000
0010
0100
0010
1000
0100
,
0000
0110
0000
1100
0000
1001
0000
0002
,
0000
0103
0001
0100
0010
1000
0100
1000
,
0010
1000
0000
0200
0000
0300
0000
0110
,
0000
0010
0001
1000
0001
0100
0001
0010
,
0000
0010
0100
0000
0000
1000
0100
1000
,
0001
0200
0302
2003
,
3100
0000
1000
0000
0001
0000
0010
0000
0100
0000
0100
0010
0100
0000
1000
0000
,
0001
0200
0302
2003
,
3100
0000
1000
0000
0010
0000
0100
0000
0000
0000
0101
0000
0001
1000
0001
0000
,
0010
0200
2300
3020
,
0032
0203
2300
3002
,
0203
0000
0000
0000
0300
0001
0010
0000
,
1010
0000
0000
0011
0000
0000
0101
0000
,
1010
0000
0000
0000
0000
0000
0010
0000
1000
0000
0000
0100
0000
0000
1000
0000
,
0002
0000
0003
0000
0000
0010
0100
0010
,
0001
0000
1001
0000
1100
0000
0100
1000
,
0020
0000
0000
0030
1000
0100
1000
0200
,
0000
0000
0300
0000
0000
0000
0010
0000
0100
0000
0000
1000
0000
0000
0001
0000
,
0200
0000
0300
0000
0000
0001
1000
0100
,
1000
0010
0000
0100
0000
0101
0000
0001
,
0010
0002
0000
0003
0100
0001
1000
0100
,
0010
0000
0000
0000
0000
0000
0001
0000
0100
0000
0000
0001
0000
0000
1000
0000
,
0200
0000
0300
0000
0000
0010
0100
1000
,
0010
0000
1010
0000
1001
0000
1000
0100
,
0020
0000
0000
0030
0001
0100
0001
2000
,
0000
3000
0000
0000
0000
0100
1000
0010
,
1000
1100
0101
0110
,
0010
0001
0100
0001
1000
0100
1000
0010
,
1000
0100
1000
0001
0010
0100
0000
0100
,
0010
0001
0000
0101
0000
1001
0000
1100
,
0000
0100
1000
0010
1000
0100
0000
0100
,
0010
0100
0000
1100
0000
2001
0000
3001
,
0000
0100
0010
0100
0001
1000
0000
1000
,
0001
0010
0000
0110
0000
0011
0000
1100
,
0000
0100
1000
0010
1000
0001
0000
0001
,
1000
0000
0000
0000
0000
0100
1000
0000
,
0010
0100
0010
1000
0100
0010
0001
0100
,
0000
0002
0000
0003
0000
1001
0000
0001
,
0010
0100
0010
0001
1000
0100
0000
0000
,
0110
0000
0010
0100
0000
2000
0000
3010
,
0100
0010
1000
0001
0100
0001
0010
0100
,
0000
2000
0000
3000
0000
1010
0000
0010
,
0001
0010
0100
0001
1000
0100
0000
0100
,
1000
0000
0000
0010
0100
0001
0010
0000
,
0200
0000
0320
0000
0032
0000
1003
0100
,
1000
0000
0010
0000
0100
0000
0100
0010
1000
0000
0100
0000
0010
0000
0000
0000
,
0002
0000
0203
0000
0302
0000
1003
0100
,
1000
0000
0001
0000
0000
0010
0100
0000
0010
0001
0010
0000
0001
0000
0000
0000
,
0200
0320
0032
2003
,
3020
0032
0203
0302
,
0000
0000
0003
1000
0100
0000
0110
0000
,
0000
1010
0000
0000
0011
0000
0101
0000
,
0000
0000
0001
0000
1000
0000
0000
0100
0000
0000
1000
0000
0020
0000
0000
0000
,
0030
0000
0000
1000
0100
0010
0001
0000
,
0011
0000
1100
0000
0100
1000
0020
0000
,
0000
0030
0100
0010
1000
0200
0000
0300
,
0000
0000
0010
0000
0001
0000
0000
1000
0000
0000
0100
0000
2000
0000
0000
0000
,
3000
0000
0000
0001
0100
0001
0010
0000
,
0100
0010
0000
0011
0000
0001
1000
0002
,
0000
0003
0100
0010
1000
0100
1000
0000
,
0000
0000
0001
0000
0100
0000
0000
0001
0000
0000
0010
0000
0200
0000
0000
0000
,
0300
0000
0000
0010
0001
1000
0010
0000
,
0110
0000
0101
0000
0001
0010
0200
0000
,
0000
0300
0010
0001
1000
0200
0000
0300
,
0000
0000
0000
0010
0100
1000
0010
0000
,
0011
0000
1010
0000
1100
0000
0100
0010
,
0001
1000
0001
0100
0001
1000
0100
0100
,
0010
0010
0100
1000
0010
0100
0001
0001
,
0010
0010
0100
0010
0001
0001
1000
1000
,
0100
1000
0001
0100
0001
0010
0100
0100
,
0010
0010
0001
0100
0001
1000
0100
0100
,
1000
1000
0010
1000
0100
0100
0010
0010
,
0100
1000
0001
0001
0100
0210
0000
0310
,
1000
0100
0001
1000
0010
0001
0100
0001
,
1000
0100
0000
0100
1000
0001
0100
0010
,
0100
0001
1000
0100
0000
0210
0000
0310
,
0001
0100
0001
1000
0000
2100
0000
3100
,
1000
0010
0100
0001
0000
0012
0000
0013
,
1000
0010
0001
0100
0001
1000
0100
0010
,
0100
1000
0001
0100
0000
0201
0000
0301
,
0010
0100
0010
0001
0000
1002
0000
1003
,
1000
0100
1000
0010
0100
0010
1000
0100
,
0010
0001
0000
0100
0001
1000
0002
0000
,
0000
0000
0000
0000
0000
0003
0000
0010
,
0100
0010
0001
0200
0000
0301
1000
0010
,
1000
0000
0100
0000
0010
0000
0100
1000
0100
0000
2000
0000
0000
0000
3010
0000
,
0100
0001
1000
0100
1000
0001
0020
0000
,
0000
0000
0030
0000
0100
1000
0002
0000
,
0000
0000
0003
0202
,
0000
0000
0303
0000
0100
0010
2000
0000
,
0000
0000
3000
1100
,
0000
0101
0000
0000
0110
0000
0011
0000
,
0000
1010
0000
0000
0011
0000
0101
0000
,
0000
1100
0000
0000
0101
0000
2002
0000
,
3003
0000
1000
0000
0100
0000
0000
1000
0000
0000
0010
0000
0200
0000
0000
0000
,
0300
0000
0000
0010
1000
0100
0010
0000
,
0100
0000
1000
0000
0001
0100
0002
0000
,
0003
0000
0020
0000
0030
0200
0000
0300
,
0000
0000
1000
0000
0100
0000
0000
1000
0000
0000
0010
0000
0200
0000
0000
0000
,
0300
0000
0000
0001
0010
0001
0100
0001
,
0000
1000
0000
1100
0000
0100
2000
0000
,
0000
3000
0020
0000
0030
1000
0001
0000
,
0000
0000
0100
0000
0001
0000
0000
0010
0000
0000
0001
0000
2000
0000
0000
0000
,
3000
0000
0000
0100
1000
0010
1000
0000
,
1100
0000
0110
0000
0010
0001
0200
0000
,
0000
0300
0001
1000
0100
2000
0000
3000
,
0000
0000
0000
0010
0100
0010
1000
0000
,
1001
0000
1100
0000
0011
0000
0220
0330
,
0000
0000
0010
0000
0001
0000
0000
0100
0000
0000
0001
0000
2000
0000
0000
0000
,
3000
0000
0000
0100
1000
0001
0010
0000
,
0110
0000
0011
0000
0100
0001
2000
0000
,
0000
3000
0100
0010
0100
2000
0000
3000
,
0000
0000
0010
0000
0100
0000
0000
0010
0000
0000
1000
0000
0200
0000
0000
0000
,
0300
0000
0000
0010
0001
0100
0001
0000
,
1000
0001
0000
0011
0000
0010
0100
0020
,
0000
0030
0001
0100
0001
1000
0100
0000
,
0000
0000
1000
0000
0001
0000
0000
0100
0000
0000
0001
0000
0020
0000
0000
0000
,
0030
0000
0000
0100
0010
0001
0100
0000
,
0101
0000
1010
0000
0010
0100
0020
0000
,
0000
0030
1000
0100
0010
0002
0000
0003
,
0000
0000
0000
0100
0010
0100
0001
0000
,
1001
0000
1100
0000
0110
0000
0010
0100
,
1000
0010
0100
0010
1000
0100
1000
0001
,
0010
0001
0100
0001
0000
0001
1000
0100
,
0000
0110
0000
0011
0000
0101
0000
0001
,
1000
0100
1000
0010
0000
0010
0100
0000
,
0010
0000
1000
0100
1000
0001
0010
0100
,
0010
0001
0100
0010
0000
0010
0100
0001
,
0000
1001
0000
1100
0000
0110
0000
0010
,
0001
0100
0001
1000
0000
1000
0010
1000
,
0000
2200
0000
3300
0000
0000
0100
0000
,
0010
0000
0001
0100
0000
0100
0010
0100
,
0000
0101
0000
1001
0000
1100
0000
0100
,
1000
0010
1000
0001
0000
0001
0010
0100
,
0000
0110
0000
0022
0033
0000
0001
0100
,
0001
1000
0010
0100
0000
0100
0010
1000
,
0000
1100
0000
1010
0000
0110
0000
0100
,
0001
1000
0100
1000
0000
1000
0001
0010
,
0000
0220
0000
0330
0000
0000
0010
0000
,
0001
0000
0100
0001
1000
0000
0100
0000
,
1000
0010
1000
0100
0010
0000
0022
0000
,
0000
0000
0033
0000
;

//---------------dance-single - ----------------
#NOTES:
     dance-single:
     :
     Hard:
     8:
     0.549,0.573,0.397,0.411,0.034,849.000,111.000,115.000,0.000,0.000:
0000
0000
0000
0000
,
0000
0000
0000
0000
,
0000
0000
0000
0000
,
0000
0000
0000
0000
,
1001
0000
0000
1100
0000
0000
0011
0000
,
0110
0000
0000
0000
0000
0000
0010
0000
0001
0000
0000
0100
0000
0000
0001
0000
,
2000
0000
3000
0000
0000
0100
1000
0000
,
0010
0000
0110
0000
0101
0000
0001
0010
,
0002
0000
0000
0003
0100
0001
1000
0002
,
0000
0000
0003
0000
0000
0000
0010
0000
0100
0000
0000
0010
0000
0000
0001
0000
,
0200
0000
0300
0000
0000
0001
1000
0000
,
1000
0010
0000
0100
0000
0101
0000
0001
,
0020
0000
0000
0030
0200
0000
0300
0010
,
0100
0000
0000
0000
0000
0000
1000
0000
0001
0000
0000
0100
0000
0000
0001
0000
,
2000
0000
3000
0000
0000
0100
0010
0000
,
0100
0000
1100
0000
1010
0000
0010
0100
,
0020
0000
0000
0030
0100
0000
0001
0020
,
0000
0030
0000
0000
0000
0100
0010
0001
,
0100
0110
1010
1001
,
1000
0100
1000
0010
0100
0000
0001
1000
,
0001
0000
0010
0100
1000
0001
0000
0001
,
0100
0000
0000
0110
0000
1010
0000
1100
,
0000
0100
0010
0001
0100
0001
0000
0001
,
0010
0000
0000
0110
0000
0011
0000
1001
,
0000
1000
0100
1000
0010
0100
0000
0100
,
0001
0000
0000
1001
0000
1100
0000
1010
,
0000
0010
0100
0010
1000
0100
0000
0100
,
1000
0000
0000
2002
0000
3003
0000
0002
,
0000
0013
0100
0000
0010
0001
0100
0001
,
1000
0100
0000
2000
0000
3000
0000
1010
,
0000
0010
0100
0000
0010
1000
0001
2000
,
0000
3000
0000
0000
0000
0000
0000
0200
,
0000
0310
0100
0000
1000
0001
1000
0010
,
0100
0010
0000
2000
0000
3000
0000
1100
,
0000
0100
0010
0000
0100
0010
0001
0100
,
0000
0100
0002
0000
0003
0000
0000
0000
,
1000
0100
1000
0010
0100
0001
0000
0001
,
0010
0000
0000
0110
0000
0011
0000
1001
,
0000
0001
1000
0100
1000
0010
0000
0010
,
0100
0000
0000
0101
0000
1001
0000
1100
,
0000
0100
1000
0001
0100
0001
0000
0001
,
0010
0000
0000
0110
0000
0011
0000
0101
,
0000
0100
0010
0100
0001
1000
0000
1000
,
0100
0000
0000
2200
0000
3300
0000
2000
,
0000
3001
0100
0000
0001
0010
0001
0100
,
0001
1000
0000
0200
0000
0300
0000
0110
,
0000
0010
0100
0000
1000
0001
0100
0002
,
0000
0003
0000
0000
0000
0000
0000
0020
,
0000
0130
0010
0000
0001
0100
0001
1000
,
0100
1000
0000
0020
0000
0030
0000
1010
,
0000
0010
0100
0000
0010
1000
0100
0010
,
0000
0010
0001
0000
0000
0100
0001
0100
,
0010
2000
3200
2300
,
3001
0000
0010
0000
0100
0000
0010
0000
0001
0000
0001
0100
0001
0000
1000
0000
,
0100
0020
0230
2300
,
3010
0000
0100
0000
0010
0000
1000
0000
0000
0000
0100
0000
1000
0001
1000
0000
,
0100
0020
2030
3020
,
0032
0203
2300
3200
,
0302
0000
0000
0000
0003
1000
0100
0000
,
0110
0000
0000
0011
0000
0000
0101
0000
,
1001
0000
0000
0000
0000
0000
1000
0000
0100
0000
0000
1000
0000
0000
0010
0000
,
0200
0000
0300
0000
0000
0001
0010
0000
,
0001
0000
0101
0000
1010
0000
0010
1000
,
0020
0000
0000
0030
0100
0010
1000
0002
,
0000
0000
0003
0000
0000
0000
0010
0000
0100
0000
0000
1000
0000
0000
0001
0000
,
2000
0000
3000
0000
0000
0100
1000
0000
,
1000
0010
0000
0100
0000
0101
0000
0001
,
0020
0000
0000
0030
0200
0000
0300
0010
,
0001
0000
0000
0000
0000
0000
0100
0000
0001
0000
0000
1000
0000
0000
0010
0000
,
2000
0000
3000
0000
0000
0100
1000
0000
,
0001
0000
0011
0000
0110
0000
0010
0001
,
0200
0000
0000
0300
0001
0000
1000
0200
,
0000
0300
0000
0000
0000
0010
0100
0010
,
0001
0101
1010
1001
,
1000
0100
1000
0001
0010
0000
0100
0010
,
0001
0000
0100
0001
1000
0010
0000
0010
,
0100
0000
0000
0101
0000
1001
0000
1100
,
0000
1000
0010
1000
0100
0010
0000
0010
,
0001
0000
0000
0101
0000
0120
0000
0130
,
0000
0001
0010
0100
0010
0001
0000
0001
,
0100
0000
0000
0110
0000
1010
0000
1100
,
0000
0100
1000
0001
0100
0001
0000
0001
,
0010
0000
0000
0000
0000
0100
0010
0000
,
0001
0000
0100
0001
1000
0100
1000
0001
,
0000
0020
0000
0030
0000
0110
0000
0100
,
0010
0000
0001
0100
0001
2000
0000
3000
,
0000
0000
0000
0000
0000
0200
0000
1300
,
0010
0000
1000
0001
0010
0001
0100
0001
,
0000
2000
0000
3000
0000
1100
0000
0100
,
1000
0000
0010
0100
0010
1000
0000
1000
,
0100
0000
0000
0010
0001
0100
0001
0000
,
2000
0000
3200
0000
0320
0000
0130
1000
,
0010
0000
0100
0000
0001
0000
0001
0010
0001
0000
0100
0000
0001
0000
0000
0000
,
2000
0000
3200
0000
2300
0000
3010
0100
,
0001
0000
1000
0000
0000
0000
0100
0000
0010
0100
0010
0000
0001
0000
0000
0000
,
0200
0320
0032
2003
,
3200
0302
0023
0230
,
0000
0000
0300
1000
0001
0000
0101
0000
,
0000
0110
0000
0000
0101
0000
1001
0000
,
0000
0000
1000
0000
0100
0000
0000
0010
0000
0000
0001
0000
0200
0000
0000
0000
,
0300
0000
0000
0001
1000
0000
0100
0000
,
1100
0000
1010
0000
0010
0100
0002
0000
,
0000
0003
0010
0100
0010
0002
0000
0003
,
0000
0000
0100
0000
0001
0000
0000
1000
0000
0000
0001
0000
0020
0000
0000
0000
,
0030
0000
0000
0100
0010
0000
0001
0000
,
0100
0001
0000
1000
0000
0010
0200
0000
,
0000
0300
0020
0000
0030
1000
0100
0000
,
0000
0000
1000
0000
0001
0000
0000
0010
0000
0000
0001
0000
0200
0000
0000
0000
,
0300
0000
0000
0001
1000
0000
0100
0000
,
0110
0000
0011
0000
0001
0100
0002
0000
,
0000
0003
0010
0100
0010
0002
0000
0003
,
0000
0000
0000
0100
0001
1000
0100
0000
,
1100
0000
0011
0000
0110
0000
0100
0010
,
0001
0100
0010
0000
1000
0001
0100
0000
,
0001
0010
0001
0100
0001
0000
1000
0100
,
1000
0010
0100
0000
0010
1000
0100
0010
,
0100
0000
1000
0001
0010
0000
0100
0010
,
0001
0100
0001
0000
1000
0010
1000
0100
,
0010
0100
1000
0000
0001
0100
0001
0010
,
0100
0000
0010
0001
0100
0002
0000
0013
,
0100
0000
0010
0001
0100
0001
1000
0000
,
0100
1000
0000
0010
0000
1000
0100
0000
,
1000
0001
0010
0001
0000
0200
0000
0310
,
1000
0100
1000
0001
0000
0020
0000
0130
,
0010
0001
0100
0001
0000
2000
0000
3100
,
1000
0010
1000
0000
0100
0010
0002
0000
,
0103
0001
0010
0001
0000
2000
0000
3010
,
0100
0010
1000
0100
0000
2000
0000
3001
,
0010
0001
0100
0001
0010
0000
0100
0010
,
0001
0200
0000
0301
1000
0100
2000
0000
,
0000
0000
0000
0000
0000
3000
0000
0010
,
0100
0010
1000
0001
0000
0010
0100
0010
,
0001
0100
0001
0000
1000
0100
0000
1000
,
0010
1000
0100
0010
0001
0000
0200
0000
,
0000
0000
0300
0000
0001
0010
0002
0000
,
0000
0000
0003
0200
,
0000
0000
0300
0000
0010
1000
0200
0000
,
0000
0000
0300
0110
,
0000
1100
0000
0000
1001
0000
0101
0000
,
0000
0110
0000
0000
1010
0000
1001
0000
,
0000
0011
0000
0000
0110
0000
0022
0000
,
0033
0000
0100
0000
0001
0000
0000
1000
0000
0000
0001
0000
0200
0000
0000
0000
,
0300
0000
0000
0010
1000
0000
0100
0000
,
1100
0000
1001
0000
0001
0010
0002
0000
,
0000
0003
0100
0001
1000
0200
0000
0300
,
0000
0000
0010
0000
0100
0000
0000
0010
0000
0000
0001
0000
0200
0000
0000
0000
,
0300
0000
0000
0001
1000
0000
1000
0100
,
0000
0010
0000
0110
0000
0010
0002
0000
,
0000
0003
0200
0000
0300
0001
1000
0000
,
0000
0000
0100
0000
1000
0000
0000
0010
0000
0000
1000
0000
0002
0000
0000
0000
,
0003
0000
0000
0010
0100
0000
0010
0000
,
0011
0000
0101
0000
0001
1000
0200
0000
,
0000
0300
1000
0000
0010
2000
0000
3000
,
0000
0000
0000
0100
0010
0001
0010
0000
,
0011
0110
0011
0002
,
0003
0000
0100
0000
0001
0000
0000
1000
0000
0000
0010
0000
2000
0000
0000
0000
,
3000
0000
0000
0100
1000
0000
0001
0000
,
1001
0000
1010
0000
0010
0100
0002
0000
,
0000
0003
0010
0100
0010
0002
0000
0003
,
0000
0000
0100
0000
0001
0000
0000
1000
0000
0000
0010
0000
0200
0000
0000
0000
,
0300
0000
0000
0010
1000
0000
0100
0000
,
1000
0001
0000
0010
0000
0100
0020
0000
,
0000
0030
0002
0000
0003
0100
0001
0000
,
0000
0000
1000
0000
0100
0000
0000
1000
0000
0000
0010
0000
2000
0000
0000
0000
,
3000
0000
0000
0100
0010
0000
0001
0000
,
0011
0000
0101
0000
0001
1000
0200
0000
,
0000
0300
1000
0010
1000
0002
0000
0003
,
0000
0000
0000
0010
0100
0010
0001
0000
,
0011
0000
0101
0000
0110
0000
0010
1000
,
0100
1000
0010
0000
0100
0001
1000
0000
,
0100
1000
0010
1000
0000
1000
0100
0000
,
0000
0110
0000
0011
0000
0101
0000
0001
,
1000
0100
1000
0001
0000
0001
0100
0000
,
0010
0000
0100
0001
0010
0000
0100
0010
,
0001
1000
0001
0100
0000
0100
0010
0000
,
0000
1010
0000
1001
0000
1100
0000
0100
,
0010
0100
1000
0001
0000
0001
0100
0000
,
0000
0220
0000
0330
0000
0000
0100
0000
,
0001
0000
1000
0100
0000
0100
1000
0000
,
0000
1010
0000
0110
0000
1010
0000
1000
,
0100
0010
0100
1000
0000
1000
0001
0000
,
0000
0101
0000
1001
0000
0000
0001
0010
,
0100
0010
0001
0100
0000
0100
0001
0000
,
0000
1001
0000
1100
0000
1010
0000
0010
,
0100
0010
1000
0100
0000
0100
0010
0000
,
0000
0022
0000
0033
0000
0000
0001
0000
,
0100
0001
1000
0100
,
1000
0010
1000
0001
1000
0000
2002
0000
,
0000
0000
3003
0000
;

//---------------dance-single - ----------------
#NOTES:
     dance-single:
     :
     Medium:
     6:
     0.455,0.573,0.154,0.375,0.034,743.000,43.000,105.000,0.000,0.000:
0000
0000
0000
0000
,
0000
0000
0000
0000
,
0000
0000
0000
0000
,
0000
0000
0000
0000
,
1001
0000
0000
1000
0000
0000
0010
0000
,
0110
0000
0000
0000
0000
0000
0010
0000
1000
0000
0000
0010
0000
0000
1000
0000
,
0002
0000
0003
0000
0000
0010
0100
0000
,
0010
0000
0001
0000
0100
0000
0001
1000
,
0002
0000
0000
0003
0010
0000
0100
2000
,
0000
0000
3000
0000
0000
0000
0010
0000
1000
0000
0000
0010
0000
0000
0100
0000
,
0002
0000
0003
0000
0000
0010
0100
0000
,
0100
0010
0000
0001
0000
1001
0000
1000
,
0200
0000
0000
0300
1000
0000
0000
0001
,
0100
0000
0000
0000
0000
0000
0001
0000
1000
0000
0000
0100
0000
0000
1000
0000
,
0002
0000
0003
0000
0000
0010
0100
0000
,
0010
0000
0001
0000
1000
0000
0100
1000
,
0200
0000
0000
0300
0010
0000
0100
0020
,
0000
0030
0000
0000
0000
0001
0100
0000
,
0001
1000
1100
1000
,
0010
0100
0010
0000
1000
0000
0100
0010
,
0001
0000
0100
0001
0100
0000
0000
0000
,
0001
0000
0000
0010
0000
0110
0000
0100
,
0000
0000
1000
0000
0001
1000
0000
0000
,
0010
0000
0000
0100
0000
0101
0000
0001
,
0000
0000
0010
0000
0100
0010
0000
0000
,
0001
0000
0000
1000
0000
1100
0000
0100
,
0000
0000
1000
0000
0010
0100
0000
0000
,
0010
0000
0000
2020
0000
3030
0000
2000
,
0000
3000
0100
0000
1000
0010
1000
0000
,
0001
0100
0000
0002
0000
0003
0000
1001
,
0000
1000
0100
0000
0010
0000
0001
0200
,
0000
0300
0000
0000
0000
0000
0000
0002
,
0000
0003
1000
0000
0100
1000
0100
0000
,
0010
0100
0000
2000
0000
3000
0000
1001
,
0000
0001
0100
0000
0001
0000
0010
0001
,
0000
0001
0200
0000
0300
0000
0000
0000
,
0001
1000
0001
0000
0100
0010
0000
0000
,
1000
0000
0000
0001
0000
0011
0000
0010
,
0000
0000
0100
0000
0010
0001
0000
0000
,
0100
0000
0000
0001
0000
1001
0000
1000
,
0000
0000
0100
0000
1000
0010
0000
0000
,
1000
0000
0000
0100
0000
1100
0000
1000
,
0000
0000
0010
0000
0100
0001
0000
0000
,
0010
0000
0000
0220
0000
0330
0000
0200
,
0000
0300
1000
0000
0001
0100
0001
0000
,
0010
0100
0000
0020
0000
0030
0000
0011
,
0000
0001
0100
0000
0001
0000
1000
0002
,
0000
0003
0000
0000
0000
0000
0000
2000
,
0000
3000
0100
0000
1000
0010
1000
0000
,
0100
1000
0000
0002
0000
0003
0000
1001
,
0000
1000
0100
0000
0010
0000
0001
0100
,
0000
0100
0001
0000
0000
1000
0100
0000
,
1000
0020
0230
0302
,
0013
0000
0100
0000
0010
0000
0001
0000
1000
0000
1000
0100
1000
0000
0010
0000
,
0100
0002
2003
3200
,
1300
0000
0010
0000
0100
0000
0001
0000
0000
0000
0010
0000
0100
0010
0100
0000
,
0010
0002
0203
0302
,
0023
2030
3020
0032
,
2003
0000
0000
0000
3000
0100
1000
0000
,
1010
0000
0000
0010
0000
0000
0100
0000
,
0101
0000
0000
0000
0000
0000
0001
0000
0010
0000
0000
0001
0000
0000
0100
0000
,
0002
0000
0003
0000
0000
0010
0100
0000
,
1000
0000
0001
0000
1000
0000
0010
0100
,
0020
0000
0000
0030
1000
0000
0100
2000
,
0000
0000
3000
0000
0000
0000
0001
0000
0010
0000
0000
0100
0000
0000
0010
0000
,
0002
0000
0003
0000
0000
0100
0001
0000
,
0001
1000
0000
0100
0000
1100
0000
1000
,
0020
0000
0000
0030
0100
0000
0000
0010
,
1000
0000
0000
0000
0000
0000
0100
0000
1000
0000
0000
0001
0000
0000
0100
0000
,
0002
0000
0003
0000
0000
0010
0100
0000
,
0010
0000
0001
0000
1000
0000
0001
0100
,
0002
0000
0000
0003
1000
0000
0100
2000
,
0000
3000
0000
0000
0000
0010
0100
0000
,
0010
1000
1001
0001
,
0010
0100
0010
0000
0001
0000
0100
0001
,
0100
0000
0010
1000
0100
0000
0000
0000
,
1000
0000
0000
0001
0000
0011
0000
0010
,
0000
0000
0100
0000
0010
0001
0000
0000
,
0100
0000
0000
0001
0000
1002
0000
1003
,
0000
0000
0100
0000
1000
0010
0000
0000
,
0100
0000
0000
0010
0000
1010
0000
1000
,
0000
0000
0100
0000
0010
0001
0000
0000
,
1000
0000
0000
0000
0000
0100
1000
0000
,
0001
0000
0100
0010
0100
0000
0001
0010
,
0000
0200
0000
0300
0000
0110
0000
0010
,
0001
0000
0100
0000
0001
2000
0000
3000
,
0000
0000
0000
0000
0000
0200
0000
0300
,
0010
0000
0001
0100
0001
0000
0010
0100
,
0000
2000
0000
3000
0000
1010
0000
1000
,
0100
0000
1000
0000
0001
0010
0000
0010
,
0100
0000
0000
1000
0001
0000
1000
0000
,
0020
0000
0230
0000
0302
0000
1003
0100
,
1000
0000
0010
0000
0100
0000
0100
0001
0100
0000
0001
0000
0010
0000
0000
0000
,
0200
0000
2300
0000
3002
0000
0103
0010
,
0100
0000
0001
0000
0000
0000
0010
0000
0100
1000
0100
0000
1000
0000
0000
0000
,
0002
0203
0320
2030
,
3200
0302
0203
2300
,
0000
0000
3000
0010
0100
0000
0101
0000
,
0000
0001
0000
0000
0010
0000
0110
0000
,
0000
0000
0100
0000
0010
0000
0000
0001
0000
0000
0100
0000
0002
0000
0000
0000
,
0003
0000
0000
1000
0100
0000
1000
0000
,
0010
0000
0100
0000
0010
1000
0200
0000
,
0000
0300
0010
0000
0001
0020
0000
0030
,
0000
0000
0100
0000
1000
0000
0000
0010
0000
0000
1000
0000
0002
0000
0000
0000
,
0003
0000
0000
0010
0100
0000
0010
0000
,
0001
0100
0000
0001
0000
1000
0200
0000
,
0000
0300
1000
0000
0000
0001
0100
0000
,
0000
0000
0001
0000
0010
0000
0000
0001
0000
0000
0100
0000
0002
0000
0000
0000
,
0003
0000
0000
1000
0100
0000
0010
0000
,
0100
0000
1000
0000
0001
0100
0002
0000
,
0000
0003
1000
0000
0100
2000
0000
3000
,
0000
0000
0000
0010
0100
0000
0001
0000
,
0010
0000
0110
0000
0100
0000
1000
0001
,
1000
0000
0010
0000
0100
0001
0100
0000
,
0001
1000
0100
0000
0010
0100
1000
0000
,
0001
0010
0001
0000
0100
0001
0010
0000
,
0100
0010
0001
0000
1000
0000
0100
1000
,
0100
0000
1000
0010
1000
0000
0001
0010
,
0001
0000
0100
0001
0010
0000
0100
0010
,
0100
0000
1000
0000
0001
1000
0000
0100
,
1000
0000
0010
0100
0010
0000
1000
0100
,
0000
0010
0000
0001
0100
0000
0001
1000
,
0000
0100
0010
0100
0000
2000
0000
3001
,
0000
0010
0100
0010
0000
0001
0100
0001
,
0000
1000
0001
1000
0000
0020
0000
0130
,
0000
0010
1000
0000
0100
1000
0001
0000
,
0010
0000
0100
0010
0000
0002
0000
0103
,
0000
0010
1000
0010
0000
0200
0000
0310
,
1000
0000
0100
0010
0100
0000
0010
0001
,
0000
0100
0000
0001
1000
0000
0200
0000
,
0000
0000
0000
0000
0300
0000
0000
0010
,
0100
0000
0010
0000
0001
0100
0001
0000
,
1000
0100
1000
0000
0010
0100
0000
0001
,
1000
0000
0100
0000
1000
0001
0020
0000
,
0000
0000
0030
0000
0100
0010
0002
0000
,
0000
0000
0003
0200
,
0000
0000
0300
0000
0001
1000
0002
0000
,
0000
0000
0003
1001
,
0000
1000
0000
0000
0100
0000
0110
0000
,
0000
0010
0000
0000
0100
0000
1100
0000
,
0000
1000
0000
0000
0001
0000
1001
0000
,
0000
0000
1000
0000
0001
0000
0000
0100
0000
0000
0001
0000
2000
0000
0000
0000
,
3000
0000
0000
0100
1000
0000
0010
0000
,
0100
0000
0010
0000
1000
0100
2000
0000
,
0000
3000
0001
0000
0010
0200
0000
0300
,
0000
0000
0010
0000
0001
0000
0000
0100
0000
0000
0001
0000
2000
0000
0000
0000
,
3000
0000
0000
0100
1000
0000
1000
0001
,
0000
0100
0000
0110
0000
0010
0200
0000
,
0000
0300
0001
0000
0000
1000
0001
0000
,
0000
0000
0010
0000
0100
0000
0000
0010
0000
0000
0001
0000
2000
0000
0000
0000
,
3000
0000
0000
0100
1000
0000
0001
0000
,
0100
0000
0001
0000
0010
0100
0020
0000
,
0000
0030
0001
0000
0100
0002
0000
0003
,
0000
0000
0000
1000
0100
0000
0010
0000
,
0100
0110
0010
0002
,
0003
0000
0100
0000
0001
0000
0000
1000
0000
0000
0100
0000
2000
0000
0000
0000
,
3000
0000
0000
0001
0100
0000
0001
0000
,
0010
0000
0100
0000
1000
0001
2000
0000
,
0000
3000
0010
0000
0100
0020
0000
0030
,
0000
0000
1000
0000
0100
0000
0000
1000
0000
0000
0001
0000
0200
0000
0000
0000
,
0300
0000
0000
0001
0010
0000
0001
0000
,
0100
0001
0000
1000
0000
0100
2000
0000
,
0000
3000
0001
0000
0000
0010
0200
0000
,
0300
0000
0010
0000
0100
0000
0000
1000
0000
0000
0001
0000
2000
0000
0000
0000
,
3000
0000
0000
0010
0100
0000
0010
0000
,
1000
0000
0100
0000
1000
0001
0020
0000
,
0000
0030
0100
0000
0010
0002
0000
0003
,
0000
0000
0000
0100
0001
0000
1000
0000
,
0100
0000
0110
0000
0010
0000
0001
0100
,
0001
0000
1000
0000
0001
1000
0010
0000
,
0100
0010
1000
0000
0000
0000
0100
0000
,
0000
1000
0000
1001
0000
0001
0000
0000
,
0010
0000
0100
0010
0000
0000
0001
0000
,
0100
0000
0001
1000
0001
0000
0010
0000
,
0100
0000
0010
0001
0000
0000
0100
0000
,
0000
0001
0000
1001
0000
1000
0000
0000
,
0100
0000
1000
0010
0000
0000
0100
0000
,
0000
0220
0000
0330
0000
0000
0010
0000
,
1000
0000
0001
1000
0000
0000
0100
0000
,
0000
0010
0000
0011
0000
0001
0000
0000
,
0100
0000
0001
1000
0000
0000
0100
0000
,
0000
1000
0000
1010
0000
0010
0000
0000
,
0100
0000
0010
1000
0000
0000
0100
0000
,
0000
1000
0000
1001
0000
0001
0000
0000
,
0010
0000
0100
0010
0000
0000
0001
0000
,
0000
2002
0000
3003
0000
0000
1000
0000
,
0100
1000
0010
0100
,
0001
0100
0001
0000
1000
0000
2002
0000
,
0000
0000
3003
0000
;

//---------------dance-single - ----------------
#NOTES:
     dance-single:
     :
     Easy:
     4:
     0.345,0.539,0.086,0.368,0.000,549.000,24.000,103.000,0.000,0.000:
0000
0000
0000
0000
,
0000
0000
0000
0000
,
0000
0000
0000
0000
,
0000
0000
0000
0000
,
1001
0000
0000
0001
0000
0000
0100
0000
,
0101
0000
0001
0010
,
0200
0300
0000
1000
,
0001
0100
0001
0010
,
0200
0000
0000
0300
1000
0000
0000
0002
,
0000
0003
0000
0000
0100
0000
0010
0000
,
0200
0300
0000
0001
,
0010
0000
0000
0100
0000
1000
0000
0000
,
0020
0000
0000
0030
0200
0000
0000
0300
,
0001
0000
1000
0100
,
2000
3000
0000
0001
,
0100
0001
0010
0001
,
2000
0000
0000
3000
0100
0000
0000
2000
,
0000
3000
0000
0000
0000
0000
0100
0000
,
1000
0010
0100
0001
,
0010
0100
0010
0000
,
0001
0100
0001
0000
,
1000
0000
0000
0010
0000
0110
0000
0100
,
0000
0001
0010
0000
,
0100
0000
0000
0010
0000
0011
0000
0001
,
0000
0100
0001
0000
,
1000
0000
0000
0100
0000
1100
0000
0100
,
0000
0010
0001
0000
,
0100
0000
0000
0002
0000
0003
0000
0000
,
1000
0100
1000
0010
,
0100
0000
0000
0020
0000
0030
0000
0000
,
1000
0000
0100
0000
0010
0000
0000
0002
,
0000
0003
0000
0000
0000
0000
0000
0000
,
0100
0001
1000
0001
,
0010
0000
0000
0200
0000
0300
0000
0000
,
0010
0000
0001
0000
0100
0000
0000
0001
,
0000
2000
3000
0000
,
0100
1000
0001
0000
,
0100
0000
0000
0010
0000
1010
0000
1000
,
0000
0100
1000
0000
,
0001
0000
0000
0010
0000
0110
0000
0010
,
0000
0001
0100
0000
,
0001
0000
0000
1000
0000
1100
0000
0100
,
0000
0010
0100
0000
,
1000
0000
0000
0002
0000
0003
0000
0000
,
0100
0001
1000
0100
,
1000
0000
0000
0020
0000
0030
0000
0000
,
0100
0000
0010
0000
1000
0000
0000
0200
,
0000
0300
0000
0000
0000
0000
0000
0000
,
0010
0001
0100
0001
,
0010
0000
0000
0200
0000
0300
0000
0000
,
1000
0000
0001
0000
0100
0000
0000
0010
,
0000
0100
0000
0001
,
1000
0200
2300
3020
,
0130
0001
1000
0100
1000
0000
0010
0100
,
0001
0020
0230
2300
,
3001
0100
0001
1000
0000
0100
1000
0100
,
0010
0002
0203
2300
,
3200
0302
0023
0230
,
2300
0000
0000
0000
3000
0010
0100
0000
,
0101
0000
0000
0001
0000
0000
1000
0000
,
1001
0000
1000
0100
,
2000
3000
0000
0001
,
0010
0100
0010
0001
,
0200
0000
0000
0300
0001
0000
0000
2000
,
0000
3000
0000
0000
0100
0000
1000
0000
,
0020
0030
0000
0100
,
0010
0000
0000
1000
0000
0001
0000
0000
,
0020
0000
0000
0030
0200
0000
0000
0300
,
0010
0000
0001
0100
,
0002
0003
0000
1000
,
0010
1000
0100
0010
,
0002
0000
0000
0003
1000
0000
0000
0002
,
0000
0003
0000
0000
0000
0000
0100
0000
,
0001
1000
0100
0010
,
0100
1000
0010
0000
,
0100
0001
0100
0000
,
0010
0000
0000
1000
0000
1010
0000
1000
,
0000
0100
0010
0000
,
0001
0000
0000
0100
0000
0201
0000
0301
,
0000
0010
0100
0000
,
1000
0000
0000
0001
0000
1001
0000
1000
,
0000
0010
0100
0000
,
0010
0000
0000
1000
,
0001
0100
0001
0010
,
0000
0200
0000
0300
0000
0000
0010
0000
,
0001
0000
0100
0000
0000
0002
0000
0003
,
0000
0000
0000
1000
,
0100
1000
0001
0100
,
0000
0002
0000
0003
0000
0000
0010
0000
,
0100
0000
1000
0000
0000
0001
0000
0000
,
1000
0000
0100
1000
,
0002
0000
0203
0000
0320
0000
0130
0001
,
1000
0100
0010
0000
0001
0100
0001
0000
,
2000
0000
3002
0000
0023
0000
0130
0010
,
0001
0100
0000
0001
1000
0001
0100
0000
,
0020
0230
0302
0023
,
2030
3020
0032
0203
,
0000
0000
0300
0001
1000
0000
1100
0000
,
0000
1000
0000
0000
0010
0000
1010
0000
,
0000
0010
0100
0002
,
0003
0000
0010
0100
,
1000
0010
0100
0002
,
0000
0003
1000
0000
0000
0002
0000
0003
,
0000
0010
0100
0020
,
0030
0000
0001
0100
,
0000
0001
0000
1000
0000
0000
0200
0000
,
0000
0300
2000
0000
0000
3000
0010
0000
,
0000
0100
0010
2000
,
3000
0000
0100
1000
,
0001
0010
0001
0200
,
0000
0300
0001
0000
0000
0200
0000
0300
,
0000
0000
0010
0100
,
0001
1000
0001
0010
,
0100
1000
0000
0001
,
0100
0001
1000
0100
,
0010
0100
1000
0001
,
0100
0001
0010
0001
,
0100
0001
1000
1000
,
0100
1000
0010
0100
,
0001
0000
1000
0000
0000
0200
0000
0300
,
1000
0001
0100
0001
,
0010
0001
0100
0001
,
1000
0000
0100
0000
0000
0020
0000
0030
,
0100
0000
1000
0000
0000
0002
0000
0003
,
0100
0000
0001
0000
0000
0020
0000
0030
,
0100
0010
0001
0100
,
0001
0000
1000
0000
0000
0200
0000
0300
,
1000
0000
0001
0000
0000
0020
0000
0030
,
0100
0100
1000
0001
,
0100
0001
1000
0020
,
0000
0000
0030
0000
,
0100
0001
0010
0100
,
0010
0000
0001
0000
0000
0200
0000
0300
,
0010
1000
0100
2000
,
0000
3000
0001
0020
,
0000
0000
0030
0200
,
0000
0300
0010
0002
,
0000
0000
0003
0011
,
0000
0100
0000
0000
0001
0000
1001
0000
,
0000
1000
0000
0000
0100
0000
1100
0000
,
0000
1000
0000
0000
0010
0000
2020
0000
,
3030
1000
0001
0200
,
0300
0000
0001
0010
,
0001
0100
0001
2000
,
0000
3000
0001
0000
0000
0200
0000
0300
,
0000
0010
0100
0002
,
0003
0000
0010
0100
,
0000
0010
0000
0001
0000
0000
2000
0000
,
0000
3000
0002
0000
0000
0003
0100
0000
,
0000
0010
0100
0002
,
0003
0000
1000
0100
,
0010
0100
0010
0002
,
0000
0003
0100
0000
0000
0002
0000
0003
,
0000
0000
0010
0100
,
1000
0001
0100
0010
,
0000
1000
0100
2000
,
3000
0000
0010
0100
,
0001
0010
0100
0020
,
0000
0030
0001
0000
0000
0200
0000
0300
,
0000
0001
1000
0200
,
0300
0000
1000
0001
,
0000
0100
0000
0001
0000
0000
2000
0000
,
0000
3000
0020
0000
0000
0030
1000
0000
,
0000
0100
0010
0002
,
0003
0000
0100
0001
,
1000
0100
1000
0020
,
0000
0030
1000
0000
0000
0002
0000
0003
,
0000
0000
0010
0100
,
1000
0001
0100
0001
,
0010
0001
0000
1000
,
0100
1000
0000
0010
,
0000
1000
0000
1001
0000
0001
0000
0000
,
0010
0100
0000
0010
,
0001
0100
0000
0001
,
0100
0010
0000
1000
,
0000
0100
0000
1100
0000
1000
0000
0000
,
0010
0100
0000
0010
,
0000
2000
0000
3000
0000
0000
0001
0000
,
0010
0100
0000
0010
,
0000
0001
0000
1001
0000
1000
0000
0000
,
0010
1000
0000
0001
,
0000
0100
0000
0110
0000
0100
0000
0000
,
0001
0010
0000
0100
,
0000
1000
0000
1100
0000
1000
0000
0000
,
0010
1000
0000
0100
,
0000
0020
0000
0030
0000
0000
0001
0000
,
0100
0001
1000
0100
,
1000
0010
0100
0020
,
0000
0000
0030
0000
;
