#TITLE:Rocket Rider;
#SUBTITLE:;
#ARTIST:Super Meat Boy;
#TITLETRANSLIT:;
#SUBTITLETRANSLIT:;
#ARTISTTRANSLIT:;
#CREDIT:Mad Matt;
#BANNER:../Tachyon Spectrum-bn.png;
#BACKGROUND:../Tachyon Spectrum-bg.png;
#LYRICSPATH:;
#CDTITLE:;
#MUSIC:Rocket Rider.ogg;
#OFFSET:-0.144;
#SAMPLESTART:30.083;
#SAMPLELENGTH:16.000;
#SELECTABLE:YES;
#DISPLAYBPM:256.000;
#BPMS:0.000=256.000;
#STOPS:;
#BGCHANGES:;
// cache tags:
#FIRSTBEAT:33.000;
#LASTBEAT:672.000;
#SONGFILENAME:Songs/Tachyon Spectrum/Rocket Rider - [Mad Matt]/Rocket Rider.sm;
#HASMUSIC:1;
#HASBANNER:1;
#MUSICLENGTH:165.024;
// end cache tags

//---------------dance-single - Tachyon Gamma----------------
#NOTES:
     dance-single:
     Tachyon Gamma:
     Easy:
     18:
     1.000,1.000,0.012,0.588,0.830,1261.000,2.000,97.000,31.000,0.000:


















0000
0000
0000
0000
,
0000
0000
0000
0000
,
0000
0000
0000
0000
,
0000
0000
0000
0000
,
0000
0000
0000
0000
,
0000
0000
0000
0000
,
0000
0000
0000
0000
,
0000
0000
0000
0000
,
0000
1000
0100
0010
,
0002
0000
0103
0010
0000
0000
1000
0000
,
0000
0000
0010
0000
1000
0010
0100
0001
,
0000
0010
0000
0100
0100
0000
0011
0000
,
0000
0010
0100
0010
,
0002
0000
1003
0001
0000
0000
1000
0000
,
0010
1000
0001
1000
0100
1000
0001
1000
,
0100
0010
0001
0100
0001
1000
0001
0010
,
0100
1000
0010
1000
0010
1000
0010
0000
,
0100
0001
0100
0001
0010
0100
1000
0001
,
0100
0010
1000
0100
1000
0100
1000
0000
,
0001
0010
0001
0010
0100
1000
0010
0100
,
0001
0010
0100
1000
0100
1000
0100
0000
,
0010
0100
0010
0100
1000
0001
0100
0010
,
1000
0001
0010
0001
0010
0001
0010
0000
,
0100
0000
1000
0000
0100
0000
1000
0000
0010
0000
0100
0000
0001
1000
0001
1000
,
0001
0010
0001
0010
0002
0000
2003
0000
,
3200
0000
0320
0200
0030
0300
2000
0000
,
3020
0000
0230
0002
0300
0003
2000
0000
,
3200
0320
0032
2003
,
3001
0010
0100
1000
0000
0001
0100
0010
,
0000
1000
0100
0010
0000
0001
0100
0010
,
2000
3002
2003
3020
,
1030
0001
0100
0010
0100
0001
0010
0100
,
1000
0100
0010
0001
1000
0100
0010
0001
,
1000
0100
0010
0001
1000
0100
0010
0001
,
1000
0010
0100
0001
1000
0010
0100
0001
,
1000
0010
0100
0001
1000
0010
0100
0001
,
1000
0001
0010
0001
0100
0001
0010
0001
,
1000
0010
1000
0100
1000
0010
1000
0100
,
1000
0001
0010
0100
0010
0001
0010
0100
,
1000
0010
0100
0010
1000
0010
0100
0010
,
1000
0010
0100
0001
1000
0010
0100
0001
0100
0010
1000
0001
0100
0010
1000
0001
,
1000
0001
0010
0100
1000
0001
1000
0001
0010
0100
1000
0100
0010
0001
1000
0001
,
1000
0010
0100
0001
0100
0010
1000
0001
0100
0001
1000
0010
0100
0001
1000
0010
,
1000
0001
0010
0001
1000
0100
1000
0001
0010
0100
1000
0001
0010
0001
1000
0100
,
1000
0001
0100
0001
1000
0010
0100
0001
1000
0010
1000
0001
0100
0001
1000
0010
,
0100
0001
0100
0010
1000
0001
1000
0001
0100
0010
1000
0010
0100
0001
1000
0001
,
1000
0100
0010
0001
1000
0100
1000
0001
0010
0100
1000
0001
0010
0001
1000
0100
,
1000
0001
0010
0100
1000
0001
1000
0001
0010
0100
1000
0001
1000
0001
0010
0100
,
1000
2000
0100
3200
,
0010
0320
0001
0032
,
0100
0203
0001
0302
,
0010
0023
0100
0230
,
1000
2300
0010
3020
,
0100
0230
0010
0320
,
1000
2030
0001
3002
,
0010
0023
0100
0230
,
0310
0001
1000
0010
0100
0001
0010
0001
,
1000
0010
1000
0000
0001
0000
1000
0000
0100
0000
0010
0000
0001
0000
1000
0000
,
0010
1000
0100
0010
0001
0000
0100
0010
,
1000
0000
0100
0010
0001
0000
1000
0010
,
0200
0000
0000
0020
0000
0300
2000
0000
,
0030
0002
0000
3000
0010
0000
0013
0000
,
0100
1000
0001
0010
0001
1000
0010
1000
,
0001
0100
0001
1000
0100
1000
0001
0010
,
0100
1000
0010
0100
0001
0100
0010
1000
,
0001
0010
0100
1000
0100
0010
0001
0100
,
0010
0000
1000
0000
0001
0000
0010
0000
0100
0000
1000
0001
1000
0000
0001
0010
,
0001
0000
1000
0100
1000
0000
0010
0100
0010
0000
0100
0000
0001
0000
1000
0000
,
0020
0000
0000
0200
0000
0030
0020
0000
,
0300
0000
0000
0000
2000
0000
0000
0000
0000
0000
0000
0000
0030
0000
0000
0000
0200
0000
0000
0000
0000
0000
0000
3000
0010
0000
0000
0000
0000
0000
0000
0000
,
0020
0300
0000
0032
0000
0000
2000
0000
,
0003
0000
0100
0000
3100
0000
0000
0000
0010
0000
0000
0000
0001
1000
0001
1000
,
0100
0010
0001
0010
0100
1000
0001
0010
0100
1000
0100
0010
0001
1000
0001
1000
,
0010
0100
0001
0100
0010
1000
0001
0100
0010
1000
0010
0100
0001
1000
0001
1000
,
0100
0010
0001
0010
0100
1000
0001
0010
0100
0010
0100
1000
0001
0010
0100
1000
,
0001
0100
0010
1000
0010
0100
0001
1000
0010
0100
0010
0100
0001
1000
0010
0100
,
0001
1000
0001
1000
0100
0010
0001
1000
0100
1000
0001
0010
0001
1000
0100
1000
,
0001
0010
0100
0010
0100
1000
0001
0010
0100
1000
0001
0010
0001
1000
0100
0010
,
0001
1000
0001
1000
0010
0100
0001
1000
0010
1000
0001
0100
0010
1000
0010
0100
,
0001
1000
0001
1000
0010
0100
0001
0100
0010
1000
0001
0100
0010
1000
0001
0100
,
0001
0100
0010
1000
0001
0010
0000
0100
,
1000
0010
0100
0001
0010
0001
0100
0010
,
1000
0000
0010
0100
0001
0100
0010
1000
,
0010
0100
0001
0010
0100
0000
1000
0010
,
0100
0010
1000
0001
0010
0100
1000
0100
,
0010
0001
0010
0001
1000
0000
0001
0100
,
0010
0100
0001
1000
0100
0000
0010
0100
,
1000
0001
0100
0010
0100
0001
0010
0100
,
1000
0001
0100
0010
,
2000
0000
3100
0010
0000
0000
0001
0000
,
0000
0000
0010
0000
0001
0010
0100
1000
,
0000
0010
0000
0100
0100
0000
1010
0000
,
0000
0010
0100
0010
,
2000
0000
3001
1000
0000
0000
0001
0000
,
0010
0001
1000
0001
0100
0001
1000
0001
,
0100
0010
1000
0100
1000
0001
1000
0010
,
0100
0001
0010
0001
0010
0001
0010
0000
,
0100
1000
0100
1000
0010
0100
0001
1000
,
0100
0010
0001
0100
0001
0100
0001
0000
,
1000
0010
1000
0010
0100
0001
0010
0100
,
1000
0010
0100
0001
0100
0001
0100
0000
,
0010
0100
0010
0100
0001
1000
0100
0010
,
0001
1000
0010
1000
0010
1000
0010
0000
,
0100
0000
0001
0000
0100
0000
0001
0000
0010
0000
0100
0000
1000
0001
1000
0001
,
1000
0010
1000
0010
2000
0000
3002
0000
,
0203
0000
0320
0200
0030
0300
0002
0000
,
0023
0000
0230
2000
0300
3000
0002
0000
,
0203
0320
2030
3002
,
1003
0010
0100
0001
0000
1000
0100
0010
,
0000
0001
0100
0010
0000
1000
0100
0010
,
0002
2003
3002
0023
,
0031
1000
0100
0010
0100
1000
0010
0100
,
0001
0100
0010
1000
0001
0100
0010
1000
,
0001
0100
0010
1000
0001
0100
0010
1000
,
0001
0010
0100
1000
0001
0010
0100
1000
,
0001
0010
0100
1000
0001
0010
0100
1000
,
0001
1000
0010
1000
0100
1000
0010
1000
,
0001
0010
0001
0100
0001
0010
0001
0100
,
0001
1000
0010
0100
0010
1000
0010
0100
,
0001
0010
0100
0010
0001
0010
0100
0010
,
0001
0010
0100
1000
0001
0010
0100
1000
0100
0010
0001
1000
0100
0010
0001
1000
,
0001
1000
0010
0100
0001
1000
0001
1000
0010
0100
0001
0100
0010
1000
0001
1000
,
0001
0010
0100
1000
0100
0010
0001
1000
0100
1000
0001
0010
0100
1000
0001
0010
,
0001
1000
0010
1000
0001
0100
0001
1000
0010
0100
0001
1000
0010
1000
0001
0100
,
0001
1000
0100
1000
0001
0010
0100
1000
0001
0010
0001
1000
0100
1000
0001
0010
,
0100
1000
0100
0010
0001
1000
0001
1000
0100
0010
0001
0010
0100
1000
0001
1000
,
0001
0100
0010
1000
0001
0100
0001
1000
0010
0100
0001
1000
0010
1000
0001
0100
,
0001
1000
0010
0100
0001
1000
0001
1000
0010
0100
0001
1000
0001
1000
0010
0100
,
0001
0002
0010
0023
,
0100
0230
1000
2300
,
0010
3020
1000
2030
,
0100
3200
0010
0320
,
0001
0032
0100
0203
,
0010
0320
0100
0230
,
0001
0302
1000
2003
,
0010
3020
0100
0230
,
0310
1000
0001
0010
0100
1000
0010
1000
,
0001
0010
0001
0000
1000
0000
0001
0000
0100
0000
0010
0000
1000
0000
0001
0000
,
0010
0001
0100
0010
1000
0000
0100
0010
,
0001
0000
0100
0010
1000
0000
0001
0010
,
0200
0000
0000
0020
0000
0300
0002
0000
,
0030
2000
0000
0003
0010
0000
3010
0000
,
0100
0001
1000
0100
1000
0001
0100
0001
,
1000
0010
1000
0001
0010
0001
1000
0100
,
0010
0001
0100
0010
1000
0010
0100
0001
,
1000
0100
0010
0001
0010
0100
1000
0010
,
0100
0000
0001
0000
1000
0000
0100
0000
0010
0000
0001
1000
0001
0000
1000
0100
,
1000
0000
0001
0010
0001
0000
0100
0010
0100
0000
0010
0000
1000
0000
0001
0000
,
0020
0000
0000
0200
0000
0030
0020
0000
,
0300
0000
0000
0000
0002
0000
0000
0000
0000
0000
0000
0000
0030
0000
0000
0000
0200
0000
0000
0000
0000
0000
0000
0003
0010
0000
0000
0000
0000
0000
0000
0000
,
0020
0300
0000
2030
0000
0000
0002
0000
,
3000
0000
0100
0000
0103
0000
0000
0000
0010
0000
0000
0000
1000
0001
1000
0001
,
0100
0010
1000
0010
0100
0001
1000
0010
0100
0001
0100
0010
1000
0001
1000
0001
,
0010
0100
1000
0100
0010
0001
1000
0100
0010
0001
0010
0100
1000
0001
1000
0001
,
0100
0010
1000
0010
0100
0001
1000
0010
0100
0010
0100
0001
1000
0010
0100
0001
,
1000
0100
0010
0001
0010
0100
1000
0001
0010
0100
0010
0100
1000
0001
0010
0100
,
1000
0001
1000
0001
0100
0010
1000
0001
0100
0001
1000
0010
1000
0001
0100
0001
,
1000
0010
0100
0010
0100
0001
1000
0010
0100
0001
1000
0010
1000
0001
0100
0010
,
1000
0001
1000
0001
0010
0100
1000
0001
0010
0001
1000
0100
0010
0001
0010
0100
,
1000
0001
1000
0001
0010
0100
1000
0100
0010
0001
1000
0100
0010
0001
1000
0100
,
0020
0000
M000
0000
,
0M00
0000
000M
0000
,
0M30
0000
00M0
0000
,
0M00
0000
000M
0000
,
M0M0
0000
0MM0
0000
,
MM00
0000
00MM
0000
,
MM0M
0000
M0MM
0000
,
0MMM
0000
MMM0
0000
,
MMMM
0000
0000
0000
;

//---------------dance-single - Mad Matt----------------
#NOTES:
     dance-single:
     Mad Matt:
     Challenge:
     19:
     1.000,1.000,0.012,0.588,0.830,1261.000,2.000,97.000,31.000,0.000:


0000
0000
0000
0000
,
0000
0000
0000
0000
,
0000
0000
0000
0000
,
0000
0000
0000
0000
,
0000
0000
0000
0000
,
0000
0000
0000
0000
,
0000
0000
0000
0000
,
0000
0000
0000
0000
,
0000
1000
0100
0010
,
0002
0000
0103
0010
0000
0000
1000
0000
,
0000
0000
0010
0000
1000
0010
0100
0001
,
0000
0010
0000
0100
0100
0000
0011
0000
,
0000
0010
0100
0010
,
0002
0000
1003
0001
0000
0000
1000
0000
,
0010
1000
0001
1000
0100
1000
0001
1000
,
0100
0010
0001
0100
0001
1000
0001
0010
,
0100
1000
0010
1000
0010
1000
0010
0000
,
0100
0001
0100
0001
0010
0100
1000
0001
,
0100
0010
1000
0100
1000
0100
1000
0000
,
0001
0010
0001
0010
0100
1000
0010
0100
,
0001
0010
0100
1000
0100
1000
0100
0000
,
0010
0100
0010
0100
1000
0001
0100
0010
,
1000
0001
0010
0001
0010
0001
0010
0000
,
0100
0000
1000
0000
0100
0000
1000
0000
0010
0000
0100
0000
0001
1000
0001
1000
,
0001
0010
0001
0010
0002
0000
2003
0000
,
3200
0000
0320
0200
0030
0300
2000
0000
,
3020
0000
0230
0002
0300
0003
2000
0000
,
3200
0320
0032
2003
,
3001
0010
0100
1000
0000
0001
0100
0010
,
0000
1000
0100
0010
0000
0001
0100
0010
,
2000
3002
2003
3020
,
1030
0001
0100
0010
0100
0001
0010
0100
,
1000
0100
0010
0001
1000
0100
0010
0001
,
1000
0100
0010
0001
1000
0100
0010
0001
,
1000
0010
0100
0001
1000
0010
0100
0001
,
1000
0010
0100
0001
1000
0010
0100
0001
,
1000
0001
0010
0001
0100
0001
0010
0001
,
1000
0010
1000
0100
1000
0010
1000
0100
,
1000
0001
0010
0100
0010
0001
0010
0100
,
1000
0010
0100
0010
1000
0010
0100
0010
,
1000
0001
0010
0100
1000
0001
0100
0001
0010
0100
1000
0001
0100
0001
0010
0100
,
1000
0010
0100
0001
1000
0100
0010
0100
1000
0010
0100
0001
1000
0001
0010
0100
,
0010
0001
1000
0010
0100
0001
0010
0001
1000
0010
0100
0001
0010
0001
0100
0010
,
1000
0100
0010
0001
1000
0010
0100
0010
1000
0100
0010
0001
1000
0001
0100
0010
,
1000
0001
1000
0100
0010
0001
1000
0010
1000
0100
0010
0001
1000
0010
1000
0100
,
0010
0001
0100
0010
1000
0001
0010
0100
0010
0001
0100
0010
1000
0001
1000
0100
,
0010
0100
1000
0001
0100
0010
1000
0100
1000
0001
0100
0010
1000
0100
1000
0010
,
0100
0001
0010
0100
1000
0001
0100
0010
0100
0001
0010
0100
1000
0001
0100
0010
,
1000
2000
0100
3200
,
0010
0320
0001
0032
,
0100
0203
0001
0302
,
0010
0023
0100
0230
,
1000
2300
0010
3020
,
0100
0230
0010
0320
,
1000
2030
0001
3002
,
0010
0023
0100
0230
,
0310
0001
1000
0010
0100
0001
0010
0001
,
1000
0010
1000
0000
0001
0000
1000
0000
0100
0000
0010
0000
0001
0000
1000
0000
,
0010
1000
0100
0010
0001
0000
0100
0010
,
1000
0000
0100
0010
0001
0000
1000
0010
,
0200
0000
0000
0020
0000
0300
2000
0000
,
0030
0002
0000
3000
0010
0000
0013
0000
,
0100
1000
0001
0010
0001
1000
0010
1000
,
0001
0100
0001
1000
0100
1000
0001
0010
,
0100
1000
0010
0100
0001
0100
0010
1000
,
0001
0010
0100
1000
0100
0010
0001
0100
,
0010
0000
1000
0000
0001
0000
0010
0000
0100
0000
1000
0001
1000
0000
0001
0010
,
0001
0000
1000
0100
1000
0000
0010
0100
0010
0000
0100
0000
0001
0000
1000
0000
,
0020
0000
0000
0200
0000
0030
0020
0000
,
0300
0000
0000
0000
2000
0000
0000
0000
0000
0000
0000
0000
0030
0000
0000
0000
0200
0000
0000
0000
0000
0000
0000
3000
0010
0000
0000
0000
0000
0000
0000
0000
,
0020
0300
0000
0032
0000
0000
2000
0000
,
0003
0000
0100
0000
3100
0000
0000
0000
0010
0000
0000
0000
0001
1000
0001
1000
,
0100
1000
0010
0100
0001
1000
0100
1000
0010
0100
0001
1000
0100
1000
0010
0100
,
0001
0010
0100
1000
0001
0100
0010
0100
0001
0010
0100
1000
0001
1000
0010
0100
,
0010
1000
0001
0010
0100
1000
0010
1000
0001
0010
0100
1000
0010
1000
0100
0010
,
0001
0100
0010
1000
0001
0010
0100
0010
0001
0100
0010
1000
0001
1000
0100
0010
,
0001
1000
0001
0100
0010
1000
0001
0010
0001
0100
0010
1000
0001
0010
0001
0100
,
0010
1000
0100
0010
0001
1000
0010
0100
0010
1000
0100
0010
0001
1000
0001
0100
,
0010
0100
0001
1000
0100
0010
0001
0100
0001
1000
0100
0010
0001
0100
0001
0010
,
0100
1000
0010
0100
0001
1000
0100
0010
0100
1000
0010
0100
0001
1000
0100
0010
,
0001
0100
0010
1000
0001
0010
0000
0100
,
1000
0010
0100
0001
0010
0001
0100
0010
,
1000
0000
0010
0100
0001
0100
0010
1000
,
0010
0100
0001
0010
0100
0000
1000
0010
,
0100
0010
1000
0001
0010
0100
1000
0100
,
0010
0001
0010
0001
1000
0000
0001
0100
,
0010
0100
0001
1000
0100
0000
0010
0100
,
1000
0001
0100
0010
0100
0001
0010
0100
,
1000
0001
0100
0010
,
2000
0000
3100
0010
0000
0000
0001
0000
,
0000
0000
0010
0000
0001
0010
0100
1000
,
0000
0010
0000
0100
0100
0000
1010
0000
,
0000
0010
0100
0010
,
2000
0000
3001
1000
0000
0000
0001
0000
,
0010
0001
1000
0001
0100
0001
1000
0001
,
0100
0010
1000
0100
1000
0001
1000
0010
,
0100
0001
0010
0001
0010
0001
0010
0000
,
0100
1000
0100
1000
0010
0100
0001
1000
,
0100
0010
0001
0100
0001
0100
0001
0000
,
1000
0010
1000
0010
0100
0001
0010
0100
,
1000
0010
0100
0001
0100
0001
0100
0000
,
0010
0100
0010
0100
0001
1000
0100
0010
,
0001
1000
0010
1000
0010
1000
0010
0000
,
0100
0000
0001
0000
0100
0000
0001
0000
0010
0000
0100
0000
1000
0001
1000
0001
,
1000
0010
1000
0010
2000
0000
3002
0000
,
0203
0000
0320
0200
0030
0300
0002
0000
,
0023
0000
0230
2000
0300
3000
0002
0000
,
0203
0320
2030
3002
,
1003
0010
0100
0001
0000
1000
0100
0010
,
0000
0001
0100
0010
0000
1000
0100
0010
,
0002
2003
3002
0023
,
0031
1000
0100
0010
0100
1000
0010
0100
,
0001
0100
0010
1000
0001
0100
0010
1000
,
0001
0100
0010
1000
0001
0100
0010
1000
,
0001
0010
0100
1000
0001
0010
0100
1000
,
0001
0010
0100
1000
0001
0010
0100
1000
,
0001
1000
0010
1000
0100
1000
0010
1000
,
0001
0010
0001
0100
0001
0010
0001
0100
,
0001
1000
0010
0100
0010
1000
0010
0100
,
0001
0010
0100
0010
0001
0010
0100
0010
,
0001
1000
0100
0010
0001
1000
0010
1000
0100
0010
0001
1000
0010
1000
0100
0010
,
0001
0100
0010
1000
0001
0010
0100
0010
0001
0100
0010
1000
0001
1000
0100
0010
,
0100
1000
0001
0100
0010
1000
0100
1000
0001
0100
0010
1000
0100
1000
0010
0100
,
0001
0010
0100
1000
0001
0100
0010
0100
0001
0010
0100
1000
0001
1000
0010
0100
,
0001
1000
0001
0010
0100
1000
0001
0100
0001
0010
0100
1000
0001
0100
0001
0010
,
0100
1000
0010
0100
0001
1000
0100
0010
0100
1000
0010
0100
0001
1000
0001
0010
,
0100
0010
0001
1000
0010
0100
0001
0010
0001
1000
0010
0100
0001
0010
0001
0100
,
0010
1000
0100
0010
0001
1000
0010
0100
0010
1000
0100
0010
0001
1000
0010
0100
,
0001
0002
0010
0023
,
0100
0230
1000
2300
,
0010
3020
1000
2030
,
0100
3200
0010
0320
,
0001
0032
0100
0203
,
0010
0320
0100
0230
,
0001
0302
1000
2003
,
0010
3020
0100
0230
,
0310
1000
0001
0010
0100
1000
0010
1000
,
0001
0010
0001
0000
1000
0000
0001
0000
0100
0000
0010
0000
1000
0000
0001
0000
,
0010
0001
0100
0010
1000
0000
0100
0010
,
0001
0000
0100
0010
1000
0000
0001
0010
,
0200
0000
0000
0020
0000
0300
0002
0000
,
0030
2000
0000
0003
0010
0000
3010
0000
,
0100
0001
1000
0100
1000
0001
0100
0001
,
1000
0010
1000
0001
0010
0001
1000
0100
,
0010
0001
0100
0010
1000
0010
0100
0001
,
1000
0100
0010
0001
0010
0100
1000
0010
,
0100
0000
0001
0000
1000
0000
0100
0000
0010
0000
0001
1000
0001
0000
1000
0100
,
1000
0000
0001
0010
0001
0000
0100
0010
0100
0000
0010
0000
1000
0000
0001
0000
,
0020
0000
0000
0200
0000
0030
0020
0000
,
0300
0000
0000
0000
0002
0000
0000
0000
0000
0000
0000
0000
0030
0000
0000
0000
0200
0000
0000
0000
0000
0000
0000
0003
0010
0000
0000
0000
0000
0000
0000
0000
,
0020
0300
0000
2030
0000
0000
0002
0000
,
3000
0000
0100
0000
0103
0000
0000
0000
0010
0000
0000
0000
1000
0001
1000
0001
,
0010
0001
0100
0010
1000
0001
0010
0001
0100
0010
1000
0001
0010
0001
0100
0010
,
1000
0100
0010
0001
1000
0010
0100
0010
1000
0100
0010
0001
1000
0001
0100
0010
,
0100
0001
1000
0100
0010
0001
0100
0001
1000
0100
0010
0001
0100
0001
0010
0100
,
1000
0010
0100
0001
1000
0100
0010
0100
1000
0010
0100
0001
1000
0001
0010
0100
,
1000
0001
1000
0010
0100
0001
1000
0100
1000
0010
0100
0001
1000
0100
1000
0010
,
0100
0001
0010
0100
1000
0001
0100
0010
0100
0001
0010
0100
1000
0001
1000
0010
,
0100
0010
1000
0001
0010
0100
1000
0010
1000
0001
0010
0100
1000
0010
1000
0100
,
0010
0001
0100
0010
1000
0001
0010
0100
0010
0001
0100
0010
1000
0001
0010
0100
,
2000
0000
0M00
0000
,
000M
0000
00M0
0000
,
300M
0000
M000
0000
,
000M
0000
00M0
0000
,
MM00
0000
M00M
0000
,
0M0M
0000
M0M0
0000
,
0MMM
0000
MMM0
0000
,
M0MM
0000
MM0M
0000
,
MMMM
0000
0000
0000
;

//---------------dance-single - Mad Matt----------------
#NOTES:
     dance-single:
     Mad Matt:
     Hard:
     18:
     1.000,1.000,0.012,0.588,0.830,1261.000,2.000,97.000,31.000,0.000:

0000
0000
0000
0000
,
0000
0000
0000
0000
,
0000
0000
0000
0000
,
0000
0000
0000
0000
,
0000
0000
0000
0000
,
0000
0000
0000
0000
,
0000
0000
0000
0000
,
0000
0000
0000
0000
,
0000
1000
0100
0010
,
0002
0000
0103
0010
0000
0000
1000
0000
,
0000
0000
0010
0000
1000
0010
0100
0001
,
0000
0010
0000
0100
0100
0000
0011
0000
,
0000
0010
0100
0010
,
0002
0000
1003
0001
0000
0000
1000
0000
,
0010
1000
0001
1000
0100
1000
0001
1000
,
0100
0010
0001
0100
0001
1000
0001
0010
,
0100
1000
0010
1000
0010
1000
0010
0000
,
0100
0001
0100
0001
0010
0100
1000
0001
,
0100
0010
1000
0100
1000
0100
1000
0000
,
0001
0010
0001
0010
0100
1000
0010
0100
,
0001
0010
0100
1000
0100
1000
0100
0000
,
0010
0100
0010
0100
1000
0001
0100
0010
,
1000
0001
0010
0001
0010
0001
0010
0000
,
0100
0000
1000
0000
0100
0000
1000
0000
0010
0000
0100
0000
0001
1000
0001
1000
,
0001
0010
0001
0010
0002
0000
2003
0000
,
3200
0000
0320
0200
0030
0300
2000
0000
,
3020
0000
0230
0002
0300
0003
2000
0000
,
3200
0320
0032
2003
,
3001
0010
0100
1000
0000
0001
0100
0010
,
0000
1000
0100
0010
0000
0001
0100
0010
,
2000
3002
2003
3020
,
1030
0001
0100
0010
0100
0001
0010
0100
,
1000
0100
0010
0001
1000
0100
0010
0001
,
1000
0100
0010
0001
1000
0100
0010
0001
,
1000
0010
0100
0001
1000
0010
0100
0001
,
1000
0010
0100
0001
1000
0010
0100
0001
,
1000
0001
0010
0001
0100
0001
0010
0001
,
1000
0010
1000
0100
1000
0010
1000
0100
,
1000
0001
0010
0100
0010
0001
0010
0100
,
1000
0010
0100
0010
1000
0010
0100
0010
,
1000
0010
1000
0100
1000
0001
0010
0001
0100
0001
1000
0010
1000
0100
1000
0001
,
0010
0100
1000
0001
0010
0001
0100
0001
1000
0010
1000
0100
1000
0001
0010
0100
,
1000
0001
0100
0001
0010
0001
1000
0100
1000
0010
1000
0001
0100
0010
1000
0001
,
0100
0001
0010
0001
1000
0100
1000
0010
1000
0001
0100
0001
0010
0001
1000
0100
,
0010
0001
1000
0100
1000
0010
1000
0001
0100
0001
0010
0001
1000
0100
0010
0001
,
1000
0100
1000
0010
1000
0001
0100
0001
0010
0001
1000
0100
1000
0010
1000
0001
,
0100
0010
1000
0001
0100
0001
0010
0001
1000
0100
1000
0010
1000
0001
0100
0010
,
1000
0001
0100
0001
0010
0001
1000
0010
1000
0100
1000
0001
0010
0001
0100
0001
,
1000
2000
0100
3200
,
0010
0320
0001
0032
,
0100
0203
0001
0302
,
0010
0023
0100
0230
,
1000
2300
0010
3020
,
0100
0230
0010
0320
,
1000
2030
0001
3002
,
0010
0023
0100
0230
,
0310
0001
1000
0010
0100
0001
0010
0001
,
1000
0010
1000
0000
0001
0000
1000
0000
0100
0000
0010
0000
0001
0000
1000
0000
,
0010
1000
0100
0010
0001
0000
0100
0010
,
1000
0000
0100
0010
0001
0000
1000
0010
,
0200
0000
0000
0020
0000
0300
2000
0000
,
0030
0002
0000
3000
0010
0000
0013
0000
,
0100
1000
0001
0010
0001
1000
0010
1000
,
0001
0100
0001
1000
0100
1000
0001
0010
,
0100
1000
0010
0100
0001
0100
0010
1000
,
0001
0010
0100
1000
0100
0010
0001
0100
,
0010
0000
1000
0000
0001
0000
0010
0000
0100
0000
1000
0001
1000
0000
0001
0010
,
0001
0000
1000
0100
1000
0000
0010
0100
0010
0000
0100
0000
0001
0000
1000
0000
,
0020
0000
0000
0200
0000
0030
0020
0000
,
0300
0000
0000
0000
2000
0000
0000
0000
0000
0000
0000
0000
0030
0000
0000
0000
0200
0000
0000
0000
0000
0000
0000
3000
0010
0000
0000
0000
0000
0000
0000
0000
,
0020
0300
0000
0032
0000
0000
2000
0000
,
0003
0000
0100
0000
3100
0000
0000
0000
0010
0000
0000
0000
0001
0010
0100
1000
,
0001
0010
0001
0100
0001
1000
0010
1000
0100
1000
0001
0010
0001
0100
0001
1000
,
0010
0100
0001
1000
0010
1000
0100
1000
0001
0010
0001
0100
0001
1000
0010
0100
,
0001
1000
0100
1000
0010
1000
0001
0100
0001
0010
0001
1000
0100
0010
0001
1000
,
0100
1000
0010
1000
0001
0100
0001
0010
0001
1000
0100
1000
0010
1000
0001
0100
,
0010
1000
0001
0100
0001
0010
0001
1000
0100
1000
0010
1000
0001
0100
0010
1000
,
0001
0100
0001
0010
0001
1000
0100
1000
0010
1000
0001
0100
0001
0010
0001
1000
,
0100
0010
0001
1000
0100
1000
0010
1000
0001
0100
0001
0010
0001
1000
0100
0010
,
0001
1000
0100
1000
0010
1000
0001
0010
0001
0100
0001
1000
0010
1000
0100
1000
,
0001
0100
0010
1000
0001
0010
0000
0100
,
1000
0010
0100
0001
0010
0001
0100
0010
,
1000
0000
0010
0100
0001
0100
0010
1000
,
0010
0100
0001
0010
0100
0000
1000
0010
,
0100
0010
1000
0001
0010
0100
1000
0100
,
0010
0001
0010
0001
1000
0000
0001
0100
,
0010
0100
0001
1000
0100
0000
0010
0100
,
1000
0001
0100
0010
0100
0001
0010
0100
,
1000
0001
0100
0010
,
2000
0000
3100
0010
0000
0000
0001
0000
,
0000
0000
0010
0000
0001
0010
0100
1000
,
0000
0010
0000
0100
0100
0000
1010
0000
,
0000
0010
0100
0010
,
2000
0000
3001
1000
0000
0000
0001
0000
,
0010
0001
1000
0001
0100
0001
1000
0001
,
0100
0010
1000
0100
1000
0001
1000
0010
,
0100
0001
0010
0001
0010
0001
0010
0000
,
0100
1000
0100
1000
0010
0100
0001
1000
,
0100
0010
0001
0100
0001
0100
0001
0000
,
1000
0010
1000
0010
0100
0001
0010
0100
,
1000
0010
0100
0001
0100
0001
0100
0000
,
0010
0100
0010
0100
0001
1000
0100
0010
,
0001
1000
0010
1000
0010
1000
0010
0000
,
0100
0000
0001
0000
0100
0000
0001
0000
0010
0000
0100
0000
1000
0001
1000
0001
,
1000
0010
1000
0010
2000
0000
3002
0000
,
0203
0000
0320
0200
0030
0300
0002
0000
,
0023
0000
0230
2000
0300
3000
0002
0000
,
0203
0320
2030
3002
,
1003
0010
0100
0001
0000
1000
0100
0010
,
0000
0001
0100
0010
0000
1000
0100
0010
,
0002
2003
3002
0023
,
0031
1000
0100
0010
0100
1000
0010
0100
,
0001
0100
0010
1000
0001
0100
0010
1000
,
0001
0100
0010
1000
0001
0100
0010
1000
,
0001
0010
0100
1000
0001
0010
0100
1000
,
0001
0010
0100
1000
0001
0010
0100
1000
,
0001
1000
0010
1000
0100
1000
0010
1000
,
0001
0010
0001
0100
0001
0010
0001
0100
,
0001
1000
0010
0100
0010
1000
0010
0100
,
0001
0010
0100
0010
0001
0010
0100
0010
,
0001
0100
0001
0010
0001
1000
0100
1000
0010
1000
0001
0100
0001
0010
0001
1000
,
0100
0010
0001
1000
0100
1000
0010
1000
0001
0100
0001
0010
0001
1000
0100
0010
,
0001
1000
0010
1000
0100
1000
0001
0010
0001
0100
0001
1000
0010
0100
0001
1000
,
0010
1000
0100
1000
0001
0010
0001
0100
0001
1000
0010
1000
0100
1000
0001
0010
,
0100
1000
0001
0010
0001
0100
0001
1000
0010
1000
0100
1000
0001
0010
0100
1000
,
0001
0010
0001
0100
0001
1000
0010
1000
0100
1000
0001
0010
0001
0100
0001
1000
,
0010
0100
0001
1000
0010
1000
0100
1000
0001
0010
0001
0100
0001
1000
0010
0100
,
0001
1000
0010
1000
0100
1000
0001
0100
0001
0010
0001
1000
0100
1000
0010
1000
,
0001
0002
0010
0023
,
0100
0230
1000
2300
,
0010
3020
1000
2030
,
0100
3200
0010
0320
,
0001
0032
0100
0203
,
0010
0320
0100
0230
,
0001
0302
1000
2003
,
0010
3020
0100
0230
,
0310
1000
0001
0010
0100
1000
0010
1000
,
0001
0010
0001
0000
1000
0000
0001
0000
0100
0000
0010
0000
1000
0000
0001
0000
,
0010
0001
0100
0010
1000
0000
0100
0010
,
0001
0000
0100
0010
1000
0000
0001
0010
,
0200
0000
0000
0020
0000
0300
0002
0000
,
0030
2000
0000
0003
0010
0000
3010
0000
,
0100
0001
1000
0100
1000
0001
0100
0001
,
1000
0010
1000
0001
0010
0001
1000
0100
,
0010
0001
0100
0010
1000
0010
0100
0001
,
1000
0100
0010
0001
0010
0100
1000
0010
,
0100
0000
0001
0000
1000
0000
0100
0000
0010
0000
0001
1000
0001
0000
1000
0100
,
1000
0000
0001
0010
0001
0000
0100
0010
0100
0000
0010
0000
1000
0000
0001
0000
,
0020
0000
0000
0200
0000
0030
0020
0000
,
0300
0000
0000
0000
0002
0000
0000
0000
0000
0000
0000
0000
0030
0000
0000
0000
0200
0000
0000
0000
0000
0000
0000
0003
0010
0000
0000
0000
0000
0000
0000
0000
,
0020
0300
0000
2030
0000
0000
0002
0000
,
3000
0000
0100
0000
0103
0000
0000
0000
0010
0000
0000
0000
1000
0001
1000
0001
,
1000
0100
1000
0010
1000
0001
0100
0001
0010
0001
1000
0100
1000
0010
1000
0001
,
0100
0010
1000
0001
0100
0001
0010
0001
1000
0100
1000
0010
1000
0001
0100
0010
,
1000
0001
0010
0001
0100
0001
1000
0010
1000
0100
1000
0001
0010
0100
1000
0001
,
0010
0001
0100
0001
1000
0010
1000
0100
1000
0001
0010
0001
0100
0001
1000
0010
,
0100
0001
1000
0010
1000
0100
1000
0001
0010
0001
0100
0001
1000
0010
0100
0001
,
1000
0010
1000
0100
1000
0001
0010
0001
0100
0001
1000
0010
1000
0100
1000
0001
,
0010
0100
1000
0001
0010
0001
0100
0001
1000
0010
1000
0100
1000
0001
0010
0100
,
1000
0001
0010
0001
0100
0001
1000
0100
1000
0010
1000
0001
0100
0001
0010
0001
,
2000
0000
0M00
0000
,
000M
0000
00M0
0000
,
300M
0000
M000
0000
,
000M
0000
00M0
0000
,
MM00
0000
M00M
0000
,
0M0M
0000
M0M0
0000
,
0MMM
0000
MMM0
0000
,
M0MM
0000
MM0M
0000
,
MMMM
0000
0000
0000
;

//---------------dance-single - Mad Matt----------------
#NOTES:
     dance-single:
     Mad Matt:
     Medium:
     18:
     1.000,1.000,0.012,0.588,0.830,1261.000,2.000,97.000,31.000,0.000:

0000
0000
0000
0000
,
0000
0000
0000
0000
,
0000
0000
0000
0000
,
0000
0000
0000
0000
,
0000
0000
0000
0000
,
0000
0000
0000
0000
,
0000
0000
0000
0000
,
0000
0000
0000
0000
,
0000
1000
0100
0010
,
0002
0000
0103
0010
0000
0000
1000
0000
,
0000
0000
0010
0000
1000
0010
0100
0001
,
0000
0010
0000
0100
0100
0000
0011
0000
,
0000
0010
0100
0010
,
0002
0000
1003
0001
0000
0000
1000
0000
,
0010
1000
0001
1000
0100
1000
0001
1000
,
0100
0010
0001
0100
0001
1000
0001
0010
,
0100
1000
0010
1000
0010
1000
0010
0000
,
0100
0001
0100
0001
0010
0100
1000
0001
,
0100
0010
1000
0100
1000
0100
1000
0000
,
0001
0010
0001
0010
0100
1000
0010
0100
,
0001
0010
0100
1000
0100
1000
0100
0000
,
0010
0100
0010
0100
1000
0001
0100
0010
,
1000
0001
0010
0001
0010
0001
0010
0000
,
0100
0000
1000
0000
0100
0000
1000
0000
0010
0000
0100
0000
0001
1000
0001
1000
,
0001
0010
0001
0010
0002
0000
2003
0000
,
3200
0000
0320
0200
0030
0300
2000
0000
,
3020
0000
0230
0002
0300
0003
2000
0000
,
3200
0320
0032
2003
,
3001
0010
0100
1000
0000
0001
0100
0010
,
0000
1000
0100
0010
0000
0001
0100
0010
,
2000
3002
2003
3020
,
1030
0001
0100
0010
0100
0001
0010
0100
,
1000
0100
0010
0001
1000
0100
0010
0001
,
1000
0100
0010
0001
1000
0100
0010
0001
,
1000
0010
0100
0001
1000
0010
0100
0001
,
1000
0010
0100
0001
1000
0010
0100
0001
,
1000
0001
0010
0001
0100
0001
0010
0001
,
1000
0010
1000
0100
1000
0010
1000
0100
,
1000
0001
0010
0100
0010
0001
0010
0100
,
1000
0010
0100
0010
1000
0010
0100
0010
,
1000
0001
0100
0010
0100
0001
1000
0100
1000
0001
0100
0010
0100
0001
1000
0100
,
1000
0001
1000
0010
0100
0001
1000
0010
0100
0001
1000
0001
0010
0100
1000
0001
,
0100
0010
0100
0001
1000
0100
1000
0001
0100
0010
0100
0001
1000
0100
1000
0001
,
1000
0010
0100
0001
1000
0010
0100
0001
1000
0001
0010
0100
1000
0001
0010
0100
,
1000
0001
1000
0010
0100
0010
1000
0001
1000
0100
1000
0001
0100
0010
0100
0001
,
1000
0001
0010
0001
1000
0010
0100
0010
1000
0001
1000
0100
1000
0001
0100
0010
,
1000
0001
1000
0100
0010
0001
1000
0001
0100
0010
0100
0001
1000
0001
0010
0100
,
1000
0001
1000
0010
0100
0010
1000
0001
1000
0100
0010
0001
1000
0001
0100
0010
,
1000
2000
0100
3200
,
0010
0320
0001
0032
,
0100
0203
0001
0302
,
0010
0023
0100
0230
,
1000
2300
0010
3020
,
0100
0230
0010
0320
,
1000
2030
0001
3002
,
0010
0023
0100
0230
,
0310
0001
1000
0010
0100
0001
0010
0001
,
1000
0010
1000
0000
0001
0000
1000
0000
0100
0000
0010
0000
0001
0000
1000
0000
,
0010
1000
0100
0010
0001
0000
0100
0010
,
1000
0000
0100
0010
0001
0000
1000
0010
,
0200
0000
0000
0020
0000
0300
2000
0000
,
0030
0002
0000
3000
0010
0000
0013
0000
,
0100
1000
0001
0010
0001
1000
0010
1000
,
0001
0100
0001
1000
0100
1000
0001
0010
,
0100
1000
0010
0100
0001
0100
0010
1000
,
0001
0010
0100
1000
0100
0010
0001
0100
,
0010
0000
1000
0000
0001
0000
0010
0000
0100
0000
1000
0001
1000
0000
0001
0010
,
0001
0000
1000
0100
1000
0000
0010
0100
0010
0000
0100
0000
0001
0000
1000
0000
,
0020
0000
0000
0200
0000
0030
0020
0000
,
0300
0000
0000
0000
2000
0000
0000
0000
0000
0000
0000
0000
0030
0000
0000
0000
0200
0000
0000
0000
0000
0000
0000
3000
0010
0000
0000
0000
0000
0000
0000
0000
,
0020
0300
0000
0032
0000
0000
2000
0000
,
0003
0000
0100
0000
3100
0000
0000
0000
0010
0000
0000
0000
0001
0100
0010
0100
,
0001
1000
0100
0010
0100
1000
0001
0100
0001
1000
0100
0010
0100
1000
0001
0100
,
0001
1000
0001
0010
0100
1000
0001
0010
0100
1000
0001
1000
0010
0100
0001
1000
,
0100
0010
0100
1000
0001
0100
0001
1000
0100
0010
0100
1000
0001
0100
0001
1000
,
0001
0010
0100
1000
0001
0010
0100
1000
0001
1000
0010
0100
0001
1000
0010
0100
,
0001
1000
0001
0010
0100
0010
0001
1000
0001
0100
0001
1000
0100
0010
0100
1000
,
0001
1000
0010
1000
0001
0010
0100
0010
0001
1000
0001
0100
0001
1000
0100
0010
,
0001
1000
0001
0100
0010
1000
0001
1000
0100
0010
0100
1000
0001
1000
0010
0100
,
0001
1000
0001
0010
0100
0010
0001
1000
0001
0100
0010
1000
0001
1000
0100
0010
,
0001
0100
0010
1000
0001
0010
0000
0100
,
1000
0010
0100
0001
0010
0001
0100
0010
,
1000
0000
0010
0100
0001
0100
0010
1000
,
0010
0100
0001
0010
0100
0000
1000
0010
,
0100
0010
1000
0001
0010
0100
1000
0100
,
0010
0001
0010
0001
1000
0000
0001
0100
,
0010
0100
0001
1000
0100
0000
0010
0100
,
1000
0001
0100
0010
0100
0001
0010
0100
,
1000
0001
0100
0010
,
2000
0000
3100
0010
0000
0000
0001
0000
,
0000
0000
0010
0000
0001
0010
0100
1000
,
0000
0010
0000
0100
0100
0000
1010
0000
,
0000
0010
0100
0010
,
2000
0000
3001
1000
0000
0000
0001
0000
,
0010
0001
1000
0001
0100
0001
1000
0001
,
0100
0010
1000
0100
1000
0001
1000
0010
,
0100
0001
0010
0001
0010
0001
0010
0000
,
0100
1000
0100
1000
0010
0100
0001
1000
,
0100
0010
0001
0100
0001
0100
0001
0000
,
1000
0010
1000
0010
0100
0001
0010
0100
,
1000
0010
0100
0001
0100
0001
0100
0000
,
0010
0100
0010
0100
0001
1000
0100
0010
,
0001
1000
0010
1000
0010
1000
0010
0000
,
0100
0000
0001
0000
0100
0000
0001
0000
0010
0000
0100
0000
1000
0001
1000
0001
,
1000
0010
1000
0010
2000
0000
3002
0000
,
0203
0000
0320
0200
0030
0300
0002
0000
,
0023
0000
0230
2000
0300
3000
0002
0000
,
0203
0320
2030
3002
,
1003
0010
0100
0001
0000
1000
0100
0010
,
0000
0001
0100
0010
0000
1000
0100
0010
,
0002
2003
3002
0023
,
0031
1000
0100
0010
0100
1000
0010
0100
,
0001
0100
0010
1000
0001
0100
0010
1000
,
0001
0100
0010
1000
0001
0100
0010
1000
,
0001
0010
0100
1000
0001
0010
0100
1000
,
0001
0010
0100
1000
0001
0010
0100
1000
,
0001
1000
0010
1000
0100
1000
0010
1000
,
0001
0010
0001
0100
0001
0010
0001
0100
,
0001
1000
0010
0100
0010
1000
0010
0100
,
0001
0010
0100
0010
0001
0010
0100
0010
,
0001
1000
0010
0100
0010
1000
0001
0010
0001
1000
0010
0100
0010
1000
0001
0010
,
0001
1000
0001
0100
0010
1000
0001
0100
0010
1000
0001
1000
0100
0010
0001
1000
,
0010
0100
0010
1000
0001
0010
0001
1000
0010
0100
0010
1000
0001
0010
0001
1000
,
0001
0100
0010
1000
0001
0100
0010
1000
0001
1000
0100
0010
0001
1000
0100
0010
,
0001
1000
0001
0100
0010
0100
0001
1000
0001
0010
0001
1000
0010
0100
0010
1000
,
0001
1000
0100
1000
0001
0100
0010
0100
0001
1000
0001
0010
0001
1000
0010
0100
,
0001
1000
0001
0010
0100
1000
0001
1000
0010
0100
0010
1000
0001
1000
0100
0010
,
0001
1000
0001
0100
0010
0100
0001
1000
0001
0010
0100
1000
0001
1000
0010
0100
,
0001
0002
0010
0023
,
0100
0230
1000
2300
,
0010
3020
1000
2030
,
0100
3200
0010
0320
,
0001
0032
0100
0203
,
0010
0320
0100
0230
,
0001
0302
1000
2003
,
0010
3020
0100
0230
,
0310
1000
0001
0010
0100
1000
0010
1000
,
0001
0010
0001
0000
1000
0000
0001
0000
0100
0000
0010
0000
1000
0000
0001
0000
,
0010
0001
0100
0010
1000
0000
0100
0010
,
0001
0000
0100
0010
1000
0000
0001
0010
,
0200
0000
0000
0020
0000
0300
0002
0000
,
0030
2000
0000
0003
0010
0000
3010
0000
,
0100
0001
1000
0100
1000
0001
0100
0001
,
1000
0010
1000
0001
0010
0001
1000
0100
,
0010
0001
0100
0010
1000
0010
0100
0001
,
1000
0100
0010
0001
0010
0100
1000
0010
,
0100
0000
0001
0000
1000
0000
0100
0000
0010
0000
0001
1000
0001
0000
1000
0100
,
1000
0000
0001
0010
0001
0000
0100
0010
0100
0000
0010
0000
1000
0000
0001
0000
,
0020
0000
0000
0200
0000
0030
0020
0000
,
0300
0000
0000
0000
0002
0000
0000
0000
0000
0000
0000
0000
0030
0000
0000
0000
0200
0000
0000
0000
0000
0000
0000
0003
0010
0000
0000
0000
0000
0000
0000
0000
,
0020
0300
0000
2030
0000
0000
0002
0000
,
3000
0000
0100
0000
0103
0000
0000
0000
0010
0000
0000
0000
1000
0010
0100
0010
,
1000
0001
0010
0100
0010
0001
1000
0010
1000
0001
0010
0100
0010
0001
1000
0010
,
1000
0001
1000
0100
0010
0001
1000
0100
0010
0001
1000
0001
0100
0010
1000
0001
,
0010
0100
0010
0001
1000
0010
1000
0001
0010
0100
0010
0001
1000
0010
1000
0001
,
1000
0100
0010
0001
1000
0100
0010
0001
1000
0001
0100
0010
1000
0001
0100
0010
,
1000
0001
1000
0100
0010
0100
1000
0001
1000
0010
1000
0001
0010
0100
0010
0001
,
1000
0001
0100
0001
1000
0100
0010
0100
1000
0001
1000
0010
1000
0001
0010
0100
,
1000
0001
1000
0010
0100
0001
1000
0001
0010
0100
0010
0001
1000
0001
0100
0010
,
1000
0001
1000
0100
0010
0100
1000
0001
1000
0010
0100
0001
1000
0001
0010
0100
,
2000
0000
0M00
0000
,
000M
0000
00M0
0000
,
300M
0000
M000
0000
,
000M
0000
00M0
0000
,
MM00
0000
M00M
0000
,
0M0M
0000
M0M0
0000
,
0MMM
0000
MMM0
0000
,
M0MM
0000
MM0M
0000
,
MMMM
0000
0000
0000
;
