#TITLE:Battle of Honor;
#SUBTITLE:;
#ARTIST:ParagonX9;
#TITLETRANSLIT:;
#SUBTITLETRANSLIT:;
#ARTISTTRANSLIT:;
#CREDIT:;
#BANNER:battle-of-honor-bn.png;
#BACKGROUND:battle-of-honor-bg.png;
#LYRICSPATH:;
#CDTITLE:!cdtitle.png;
#MUSIC:ParagonX9 - Battle of Honor (extended).mp3;
#OFFSET:-0.086;
#SAMPLESTART:28.800;
#SAMPLELENGTH:19.200;
#SELECTABLE:YES;
#BPMS:0.000=165.060;
#STOPS:;
#BGCHANGES:;
// cache tags:
#FIRSTBEAT:0.000;
#LASTBEAT:271.750;
#SONGFILENAME:Songs/Keyboard Collaboration II/Zaghurim - Battle of Honor/battle-of-honor.sm;
#HASMUSIC:1;
#HASBANNER:1;
#MUSICLENGTH:98.977;
// end cache tags

//---------------dance-single - ----------------
#NOTES:
     dance-single:
     :
     Hard:
     11:
     1.000,1.000,1.000,0.000,1.000,829.000,190.000,0.000,0.000,0.000:  // measure 1
1001
0000
0100
0000
0100
0000
0100
0000
0100
0000
0100
0000
0100
0001
0100
0000
,  // measure 2
0010
0010
0010
1000
1000
1000
1000
1000
,  // measure 3
0100
0000
0100
0000
0100
0000
0100
0000
0100
0000
0100
0000
0100
0001
0100
0000
,  // measure 4
0010
1000
0010
0100
0001
0100
0010
0100
0010
1000
0010
0100
1001
0000
0000
0000
,  // measure 5
1001
0000
0100
0010
0101
0000
0000
0010
0000
0001
0010
0000
0011
0100
1000
0100
,  // measure 6
1000
0000
0000
0001
0000
0000
0100
0000
0000
0000
0000
0000
0110
0000
0000
0000
0000
0000
0100
0000
0000
0010
0000
0000
0000
0000
0000
0001
0000
0000
0100
0000
0000
0000
0000
0000
0110
0000
0000
0001
0000
0000
0010
0000
1000
0000
0100
0000
,  // measure 7
0010
0000
0100
0000
0011
0000
1000
0001
0100
0010
1000
0100
0011
0000
0100
0010
,  // measure 8
1000
0001
0100
0010
0101
0000
1000
0001
0100
0010
1000
0010
1001
0100
1000
0010
,  // measure 9
1000
0000
1000
0100
0011
0000
0000
0100
0000
0001
0100
0000
0101
0010
0100
0000
,  // measure 10
1000
0000
0000
0010
0000
0000
0100
0000
0000
0000
0000
0000
0110
0000
0000
0000
0000
0000
1000
0000
0000
0010
0000
0000
0000
0000
0000
0010
0000
0000
1000
0000
0000
0000
0000
0000
0110
0000
0000
0000
0000
0000
1000
0000
0100
0000
0010
0000
,  // measure 11
0001
0000
1000
0000
0101
0000
0010
1000
0010
0100
0001
0100
0011
0000
1000
0010
,  // measure 12
0100
0000
0000
0001
0000
0000
1000
0000
0000
0100
0000
0000
0011
0000
0000
0000
0000
0000
1000
0000
0000
0001
0000
0000
0100
0000
0000
0001
0000
0000
1000
0000
0000
0100
0000
0000
0010
0000
1000
0000
0010
0000
0100
0000
0001
0000
0100
0000
,  // measure 13
1001
0000
0100
0010
0101
0000
0000
1000
0000
0001
1000
0000
1001
0010
0100
1000
,  // measure 14
0100
0010
1000
0000
0011
0100
1000
0010
0000
0010
1000
0000
1001
0010
0100
0010
,  // measure 15
0100
0000
1000
0000
0011
0000
1000
0001
0100
0010
1000
0100
0011
0000
0001
0010
,  // measure 16
1000
0001
1000
0100
0011
0000
1000
0100
0010
1000
0100
0000
0011
1000
0001
0010
,  // measure 17
1000
0000
0100
0000
0011
0000
0000
1000
0000
0001
1000
0000
1010
0100
0010
0100
,  // measure 18
0010
0001
1000
0000
0011
0000
0100
0010
0000
0010
0100
0000
0110
1000
0100
0010
,  // measure 19
0001
0000
1000
0000
0101
0000
0010
0100
0000
1000
0100
0001
0010
1000
0100
0010
,  // measure 20
1000
0000
0000
0001
0000
0000
0100
0000
0000
0010
0000
0000
0001
0000
0000
1000
0000
0000
0100
0000
0000
0001
0000
0000
1000
0000
0000
0100
0000
0000
0010
0000
0000
0001
0000
0000
1000
0000
0001
0000
0010
0000
0100
0000
0000
0010
0000
0000
,  // measure 21
1001
0101
1010
1001
0101
1010
0110
0101
,  // measure 22
0011
0110
1100
0011
0110
1100
0110
0101
,  // measure 23
0011
0110
1100
0011
0110
1100
0110
0011
,  // measure 24
0101
1010
0110
1001
0110
1010
0101
0011
,  // measure 25
1100
1010
0101
1100
1010
0101
0011
1010
,  // measure 26
1001
0011
0110
1001
0011
0110
0011
1010
,  // measure 27
1001
0011
0110
1001
0011
0110
0011
1001
,  // measure 28
1010
0101
0011
1100
0011
0101
1010
1001
,  // measure 29
1000
0100
0010
0001
0100
0010
1000
0100
0001
0010
0100
1000
0010
0100
0001
0010
,  // measure 30
0100
0010
1000
0010
0100
0001
0100
0010
1000
0010
0100
0001
0100
0010
1000
0100
,  // measure 31
0010
0001
1000
0100
0001
0010
1000
0100
0001
0010
1000
0100
0010
0001
1000
0100
,  // measure 32
0010
0001
0100
0010
1000
0010
0100
0010
0001
0010
0100
1000
0001
0010
0100
1000
,  // measure 33
0010
0100
0001
0100
0010
1000
0010
0100
0001
0100
0010
1000
0010
0100
0001
0100
,  // measure 34
0010
1000
0010
0100
0001
0100
0010
1000
0010
0100
0001
0100
0010
1000
0010
0100
,  // measure 35
0001
0010
1000
0100
0001
0010
1000
0100
0001
0010
0001
1000
0100
1000
0010
0100
,  // measure 36
0010
0001
0100
0001
0010
1000
0010
0100
0001
0100
0010
0100
1000
0010
0100
0010
,  // measure 37
1001
0000
0100
0010
0101
0000
0000
0010
0000
0001
0010
0000
0011
0100
1000
0100
,  // measure 38
1000
0000
0000
0001
0000
0000
0100
0000
0000
0000
0000
0000
0110
0000
0000
0000
0000
0000
0100
0000
0000
0010
0000
0000
0000
0000
0000
0001
0000
0000
0100
0000
0000
0000
0000
0000
0110
0000
0000
0001
0000
0000
0010
0000
1000
0000
0001
0000
,  // measure 39
0100
0000
0100
0000
0011
0000
1000
0001
0100
0010
1000
0100
0011
0000
0100
0010
,  // measure 40
1000
0001
0100
0010
0101
0000
1000
0001
0100
0010
1000
0010
1001
0100
1000
0010
,  // measure 41
1000
0000
1000
0100
0011
0000
0000
0100
0000
0001
0100
0000
0101
0010
0100
0000
,  // measure 42
1000
0000
0000
0010
0000
0000
0100
0000
0000
0000
0000
0000
0110
0000
0000
0000
0000
0000
1000
0000
0000
0010
0000
0000
0000
0000
0000
0010
0000
0000
1000
0000
0000
0000
0000
0000
0110
0000
0000
0000
0000
0000
1000
0000
0100
0000
0010
0000
,  // measure 43
0001
0000
1000
0000
0101
0000
0010
1000
0010
0100
0001
0100
0011
0000
1000
0010
,  // measure 44
0100
0000
0000
0001
0000
0000
1000
0000
0000
0100
0000
0000
0011
0000
0000
0000
0000
0000
1000
0000
0000
0001
0000
0000
0100
0000
0000
0001
0000
0000
1000
0000
0000
0100
0000
0000
0010
0000
1000
0000
0010
0000
0100
0000
0001
0000
0100
0000
,  // measure 45
1001
0000
0100
0010
0101
0000
0000
1000
0000
0001
1000
0000
1001
0010
0100
1000
,  // measure 46
0100
0010
1000
0000
0011
0100
1000
0010
0000
0010
1000
0000
1001
0010
0100
0010
,  // measure 47
0100
0000
1000
0000
0011
0000
1000
0001
0100
0010
1000
0100
0011
0000
0001
0010
,  // measure 48
1000
0001
1000
0100
0011
0000
1000
0100
0010
1000
0100
0000
0011
1000
0001
0010
,  // measure 49
1000
0000
0100
0000
0011
0000
0000
1000
0000
0001
1000
0000
1010
0100
0010
0100
,  // measure 50
0010
0001
1000
0000
0011
0000
0100
0010
0000
0010
0100
0000
0110
1000
0100
0010
,  // measure 51
0001
0000
1000
0000
0101
0000
0010
0100
0000
1000
0100
0001
0010
1000
0100
0010
,  // measure 52
1000
0000
0000
0001
0000
0000
0100
0000
0000
0010
0000
0000
0001
0000
0000
1000
0000
0000
0100
0000
0000
0001
0000
0000
1000
0000
0000
0100
0000
0000
0010
0000
0000
0001
0000
0000
1000
0000
0001
0000
0010
0000
0100
0000
0000
0010
0000
0000
,  // measure 53
1001
0101
1010
1001
0101
1010
0110
0101
,  // measure 54
0011
0110
1100
0011
0110
1100
0110
0101
,  // measure 55
0011
0110
1100
0011
0110
1100
0110
0011
,  // measure 56
0101
1010
0110
1001
0110
1010
0101
0011
,  // measure 57
1100
1010
0101
1100
1010
0101
0011
1010
,  // measure 58
1001
0011
0110
1001
0011
0110
0011
1010
,  // measure 59
1001
0011
0110
1001
0011
0110
0011
1001
,  // measure 60
1010
0101
0011
1100
0011
0101
1010
1001
,  // measure 61
0001
0010
0100
1000
0010
0100
0001
0010
1000
0100
0010
0001
0100
0010
1000
0100
,  // measure 62
0010
0100
0001
0100
0010
1000
0010
0100
0001
0100
0010
1000
0010
0100
0001
0010
,  // measure 63
0100
1000
0001
0010
1000
0100
0001
0010
1000
0100
0001
0010
0100
1000
0001
0010
,  // measure 64
0100
1000
0010
0100
0001
0100
0010
0100
1000
0100
0010
0001
1000
0100
0010
0001
,  // measure 65
0100
0010
1000
0010
0100
0001
0100
0010
1000
0010
0100
0001
0100
0010
1000
0010
,  // measure 66
0100
0001
0100
0010
1000
0010
0100
0001
0100
0010
1000
0010
0100
0001
0100
0010
,  // measure 67
1000
0100
0001
0010
1000
0100
0001
0010
1000
0100
1000
0001
0010
0001
0100
0010
,  // measure 68
0100
1000
0010
1000
0100
0001
0100
0010
1000
0010
0100
0010
0001
0100
0010
0100
;
