#TITLE:Jung-Hwa Bun Jam;
#SUBTITLE:(Chinese Restaraunt);
#ARTIST:Maladroit;
#TITLETRANSLIT:;
#SUBTITLETRANSLIT:;
#ARTISTTRANSLIT:;
#CREDIT:;
#BANNER:Jung-Hwa Ban Jum-banner.png;
#BACKGROUND:Jung-Hwa Ban Jum-bg.png;
#LYRICSPATH:;
#CDTITLE:xz-logo.PNG;
#MUSIC:Maladroit.com Chin2 - Jung-Hwa Ban Jum.mp3;
#OFFSET:0.112;
#SAMPLESTART:135.670;
#SAMPLELENGTH:21.060;
#SELECTABLE:YES;
#DISPLAYBPM:150.000;
#BPMS:0.000=136.010,32.000=186.890;
#STOPS:;
#BGCHANGES:;
// cache tags:
#FIRSTBEAT:1.250;
#LASTBEAT:548.000;
#SONGFILENAME:Songs/IzzySM Keyboard Mega Pack/Jung-Hwa Ban Jum/Jung-Hwa Ban Jum.sm;
#HASMUSIC:1;
#HASBANNER:1;
#MUSICLENGTH:182.256;
// end cache tags

//---------------dance-single - ----------------
#NOTES:
     dance-single:
     :
     Hard:
     11:
     1.000,1.000,1.000,0.993,0.839,1158.000,443.000,181.000,0.000,1.000:
0000
0000
0000
0000
0000
0001
1000
0001
0000
0000
0000
0000
0000
1000
0001
1000
,
0001
0100
0010
0100
0000
0000
0000
0000
2000
0000
0000
0000
3001
0000
0000
0000
,
0000
0000
1000
0100
0000
0000
0002
0000
0013
0100
1000
0000
0000
0000
0000
1001
,
0000
1001
0000
0000
2002
0000
0000
0000
0000
0000
0000
0000
0000
0000
0000
0000
,
3003
0000
0000
1000
0100
0010
0000
0002
,
0000
0000
0003
0020
0000
0000
0000
0030
0200
0000
0000
0000
0300
2000
0000
0000
,
0000
0000
0000
0000
0000
0000
0000
0000
0000
0000
0000
0000
3200
0000
0000
0000
0000
0000
0000
0000
0000
0000
0000
0000
0000
0000
0000
0000
0000
0000
0000
0000
0000
0000
0000
0000
0000
0000
0000
0000
0000
0000
0000
0000
0000
0000
0000
0000
0300
0000
0000
0000
0000
0000
0000
0000
0000
0000
0000
0000
0000
0000
0000
0000
1001
0000
0000
0000
0000
0000
0000
0000
0000
0000
0000
0000
0000
0000
0000
0000
0000
0000
0000
0000
0000
0000
0000
0000
0000
0000
0000
0000
0000
0000
0000
0000
0000
0000
0000
0000
0000
0000
0000
0000
0000
0000
0000
0000
0000
0000
0000
0000
0000
0000
0010
0000
0000
0000
0000
0000
0000
0000
0000
0000
0000
0000
0000
0000
0000
0000
0000
0000
0000
0000
0000
0000
0000
0000
1000
0000
0000
0000
0000
0000
0000
0000
0000
0000
0000
0000
0000
0000
0000
0000
0000
0000
0000
0000
0000
0000
0000
0000
0000
0000
0000
0000
0000
0000
0100
0000
0000
0000
0000
0000
0000
0000
0000
0000
0000
0000
0000
0000
0000
0000
0000
0000
0000
0000
0000
0000
0000
0000
,
0000
0000
1001
0000
0000
0000
0000
0110
0000
0000
0000
0000
1001
0000
0000
0000
,
1001
0000
1001
0000
1001
0000
0011
0110
,
2200
0000
0000
0000
0000
0000
0000
3300
,
1001
0000
1001
0000
1001
0000
1010
0110
,
0202
0000
0000
0000
0000
0000
0000
0303
,
2000
0000
3200
0000
0310
0001
1001
1001
,
0002
0000
0203
0000
0310
1000
1001
1001
,
1010
0000
0101
0000
0011
0110
1100
0110
,
0001
0000
1000
0000
0001
0000
1000
0000
0001
1000
0001
1000
0001
1000
0001
1000
,
1001
0010
1001
0010
1010
1000
1100
0110
,
0220
0000
0000
0330
2002
0000
0000
3003
0220
0000
0000
0330
2002
0000
0000
3003
,
1001
0100
1001
0100
0101
0001
0011
0110
,
0220
0000
0000
0330
2002
0000
0000
3003
0220
0000
0000
0330
2002
0000
0000
3003
,
0010
0000
1000
0001
1000
0000
0001
1000
0001
0000
0010
0100
0010
0000
1000
0001
,
1000
0100
0010
0001
0100
0010
1000
0100
0010
0001
0100
0010
1000
0001
0100
0010
,
1000
0001
1000
0001
1000
0001
1000
0001
1000
0001
1000
0001
1000
0001
1000
0001
,
0100
0010
0100
0010
0100
0010
0100
0010
0100
0010
0100
0010
0100
0010
0100
0010
,
1001
0000
1000
0100
1000
0000
0100
0010
0100
0000
0010
0001
0010
0000
0100
0000
,
1010
0100
0011
1000
0101
0010
1100
0010
,
1001
0000
0001
0010
0001
0000
0010
0100
0010
0000
0100
1000
0100
0000
0010
0000
,
0101
0010
1100
0001
1010
0100
0011
0110
,
1001
0100
1001
0010
1001
0100
1001
0010
,
1001
0000
0010
0100
0010
0000
1000
0001
1000
0000
0100
0010
0100
0000
1001
0000
,
1001
0010
1001
0100
1001
0010
1001
0100
,
1001
0000
0100
0010
0100
0000
0001
1000
0001
0000
0010
0100
0010
0000
1000
0001
,
2002
0000
0000
3003
2020
0000
0000
3030
0202
0000
0000
0303
1010
0000
0101
0000
,
0110
0000
2002
0000
0000
3003
2002
0000
0000
3003
1001
0000
1001
0000
0000
0000
,
1010
0101
1010
0101
0011
1100
0000
2002
,
0000
0000
0000
0000
3003
0000
0000
0000
0010
0000
0010
0000
0010
0000
1001
0110
,
1001
0000
0011
0000
1100
0000
0022
0000
0000
0033
1001
0110
1001
0000
1010
0000
,
0101
0000
1010
0000
0101
0000
2020
0000
0000
3030
1001
0110
1001
0000
1000
0100
,
1000
0000
0001
0010
0001
0000
0100
0010
0100
0000
1000
0100
1000
0000
0001
1000
,
0001
1000
0100
0010
0100
0010
0001
0010
0001
0100
0001
0100
0010
1000
0010
1000
,
2002
0000
0000
3003
0022
0000
0000
0033
2200
0000
0000
3300
0011
0000
0011
0000
,
0011
0100
0011
0100
1001
0010
1100
0010
,
2002
0000
0000
3003
2200
0000
0000
3300
0022
0000
0000
0033
1100
0000
1100
0000
,
1100
0100
0011
0100
1001
0010
1100
0010
,
0202
0000
0000
0303
2020
0000
0000
3030
2200
0000
0000
3300
0011
0000
1001
0000
,
1000
0001
1000
0001
1000
0000
0010
0100
0010
0100
0010
0000
1010
0000
0101
0000
,
2020
0000
0000
3030
0101
0000
0101
0000
0022
0000
0000
0033
1100
0000
1001
0000
,
0001
1000
0001
1000
0001
0000
0100
0010
0100
0010
0100
0000
0101
0000
1010
0000
,
1001
0100
2002
0000
0000
3003
0011
0011
,
1100
0000
0022
0000
0000
0033
2200
0000
0000
3300
1001
0000
1001
0000
0000
0110
,
1001
0011
1100
0101
1010
1001
0000
2002
,
0000
0000
0000
0000
0000
0000
3003
0000
0100
0000
0100
0000
0100
0000
0011
1100
,
0011
0000
1001
0000
0110
0000
2002
0000
0000
3003
1010
0101
1010
0000
1001
0000
,
0110
1001
0110
2002
0000
0000
3003
1010
,
0101
1010
0101
0110
0011
1100
0011
1100
,
1000
0100
0010
0001
0100
0010
1000
0100
0010
0001
0100
0010
1000
0100
0010
0001
,
2002
0000
0000
3003
2020
0000
0000
3030
0202
0000
0000
0303
0110
0000
0110
0000
,
1001
0000
2002
0000
0000
3003
2002
0000
0000
3003
1010
0000
1010
0000
1010
0000
,
0022
0000
0000
0033
1001
0000
1100
0000
0101
0000
1010
0000
0011
0000
2002
0000
,
3003
0000
1100
0000
0110
0000
0011
0000
1001
0000
1000
0001
1000
0001
1000
0001
,
2002
0000
0000
3003
0202
0000
0000
0303
2020
0000
0000
3030
0110
0000
0110
0000
,
1001
0000
2002
0000
0000
3003
2002
0000
0000
3003
0101
0000
0101
0000
0101
0000
,
2200
0000
0000
3300
1001
0000
0011
0000
1010
0000
0101
0000
1100
0000
2002
0000
,
3003
0000
0011
0000
0110
0000
1100
0000
1001
0000
0001
1000
0001
1000
0001
1000
,
0011
0100
1010
0100
0101
0010
1100
1100
,
0011
0011
1000
0011
1000
1010
1010
1010
,
1001
0100
0011
0110
0101
1010
1001
0011
,
0100
0000
0110
0000
1100
0000
1001
0000
0011
0000
1000
0100
0010
0001
0100
0010
,
0110
0100
0101
0100
1010
0100
1001
1001
,
0110
0110
0001
0110
1000
0101
0101
0101
,
0011
1000
0110
1100
1010
0101
0011
0110
,
0001
0000
1100
0000
1001
0000
0011
0000
0110
0000
0001
0100
0010
1000
0100
0010
,
2002
0000
0000
3003
2200
0000
0000
0000
0000
0000
3300
0000
0110
0000
0110
0000
,
1010
1010
0011
0011
1100
1100
0101
0101
,
2002
0000
0000
3003
0022
0000
0000
0000
0000
0000
0033
0000
0110
0000
0110
0000
,
0101
0101
1100
1100
0011
0011
1010
1010
,
2000
0000
0000
0000
0200
0000
0000
3300
0001
0010
0001
0000
1001
0000
1001
0000
,
0002
0000
0000
0000
0200
0000
0000
0303
0010
1000
0010
0000
1001
0000
1001
0000
,
1010
0101
0011
1100
1001
0110
1001
0110
,
1000
0100
0010
0001
0100
0010
0100
0010
1000
0010
0100
0001
0010
0100
1000
0100
,
2002
0000
0000
0000
0000
0000
0000
0000
0000
3003
0000
0000
1010
0000
0000
0011
,
0022
0000
0000
0000
0000
0000
0000
0000
0000
0000
0033
0000
1010
0000
0000
1001
,
2002
0000
0000
0000
0000
0000
0000
3003
1010
0000
0110
0000
0011
0000
1100
0000
,
0001
0010
0100
1000
0001
0010
0100
1000
0001
0010
0100
1000
0001
0010
0100
1000
,
2002
0000
0000
0000
0000
0000
0000
0000
0000
3003
0000
0000
0011
0000
0000
1100
,
2200
0000
0000
0000
0000
0000
0000
0000
0000
0000
3300
0000
0101
0000
0000
1001
,
2002
0000
0000
0000
0000
0000
0000
3003
0101
0000
0110
0000
1100
0000
0011
0000
,
1000
0100
0010
0001
1000
0100
0010
0001
1000
0100
0010
0001
1000
0100
0010
0001
,
0022
0000
0000
0000
0000
0000
0000
0000
0000
0033
0000
0000
1010
0000
0000
1001
,
2002
0000
0000
0000
0000
0000
0000
0000
0000
0000
0000
3003
1010
0000
0000
0011
,
0022
0000
0000
0000
0000
0000
0000
0033
1010
0000
1100
0000
1001
0000
0110
0000
,
1000
0100
0010
0001
0100
0010
1000
0100
0010
0001
0100
0010
1000
0100
0010
0001
,
1000
0000
1000
0100
1000
0000
0010
0001
0010
0000
1000
0001
1000
0000
0001
1000
,
0001
0000
1000
0100
0010
0000
0001
0100
0010
0000
0010
1000
0100
0000
0010
0001
,
0100
0010
1000
0010
1000
0100
1000
0100
0010
0001
0010
0001
0100
0001
0100
0001
,
0010
1000
0010
1000
0100
0010
0001
0100
0010
0100
0001
0010
0100
1000
0100
0010
,
1001
0000
0000
1010
0101
0101
0000
0011
,
0000
0011
0000
1100
1100
0011
0000
0110
,
0101
1010
0000
0110
1100
0011
0000
0000
,
1001
0000
0010
0100
0010
0000
1001
0000
0100
0010
0100
0010
1001
0000
1001
0000
,
2000
0000
3002
0000
,
0023
0000
0230
0000
,
1300
0100
0010
0000
1001
0000
0000
0000
2002
0000
0000
0000
0000
0000
3013
0000
,
1000
0001
1000
0000
0001
1000
0001
0000
1000
0001
1000
0000
0010
0100
0010
0100
,
1001
0000
0100
0000
1010
0000
0100
0000
0011
0000
0100
0000
0011
0100
0011
0100
,
0011
0100
0011
0100
1000
0000
1100
0000
0010
0000
1001
0000
1010
0000
1010
0000
,
1001
0100
1010
1100
0101
0011
1001
0110
,
1000
0001
0000
0001
1000
0000
0001
1000
0000
1000
0001
0000
1000
0100
0010
0001
,
1001
0000
0010
0000
0101
0000
0010
0000
1100
0000
0010
0000
1100
0010
1100
0010
,
1100
0010
1100
0010
0100
0000
0011
0000
0100
0000
1001
0000
0101
0000
0101
0000
,
1001
0010
0101
0011
1010
1100
1001
0110
,
0001
1000
0000
1000
0001
0000
1000
0001
0000
0001
1000
0000
0001
0010
0100
1000
,
2002
0000
0000
3003
0022
0000
0000
0000
0000
0000
0000
0033
1100
0000
2200
0000
,
0000
3300
0001
0010
0001
0000
1000
0100
1000
0000
0010
0100
0010
0000
0100
0000
,
2002
0000
0000
3003
2020
0000
0000
0000
0000
0000
0000
3030
0101
0000
0202
0000
,
0000
0303
1000
0010
1000
0000
0001
0100
0001
0000
0100
0010
0100
0000
0010
0000
,
2020
0000
0000
3030
0202
0000
0000
0303
1000
0100
0010
0001
0100
0010
0100
0010
,
0022
0000
0000
0033
2200
0000
0000
3300
0001
0100
0010
1000
0100
0010
0100
0010
,
2002
0000
0000
3003
2200
0000
3300
0000
0011
0000
1100
0000
0011
0000
0110
0000
,
1010
0101
0011
1100
0110
1001
1100
0011
,
1001
0000
0100
0010
0100
0000
1000
0100
0010
0001
0100
0000
0010
0100
0010
0000
,
1000
0100
1000
0100
0010
0001
0010
0001
0100
0001
0100
0010
1000
0010
1000
0100
,
1001
0000
0010
0100
0010
0000
0001
0010
0100
1000
0010
0000
0100
0010
0100
0000
,
0001
0010
0001
0010
0100
1000
0100
1000
0010
1000
0010
0100
0001
0100
0001
0010
,
2002
0000
0000
3003
0022
0000
0000
0033
1000
0100
1000
0000
1001
0000
1001
0000
,
2002
0000
0000
3003
0022
0000
0000
0033
1000
0100
1000
0000
1001
0000
1001
0000
,
1010
0011
1100
0101
1001
1100
0011
1100
,
0110
0011
0110
1100
0101
1010
1001
1001
,
1000
0100
0010
0001
0100
0010
1000
0100
0010
0001
0010
0100
1000
0100
1000
0100
,
0010
0001
0010
0001
0010
0100
1000
0001
0010
0100
1000
0100
0010
0001
1000
0100
,
0010
0001
1000
0100
0010
0001
0100
0010
0100
0010
0001
0010
0100
1000
0100
1000
,
0100
0010
0001
0010
0001
0010
0100
0010
0100
0010
1000
0010
1000
0100
0001
0010
,
0100
1000
0100
0010
0001
0010
0100
1000
0001
0010
0100
1000
0010
0100
0001
0010
,
0100
1000
0010
0100
0001
0010
0100
1000
0100
0010
0001
0100
0010
1000
0100
0010
,
0001
0100
0010
1000
0100
1000
0100
0010
0001
0010
0001
1000
0100
1000
0100
0010
,
0001
0010
0001
1000
0100
0010
0001
0100
0010
0100
0010
0100
0010
1000
0001
1000
,
2002
0000
0000
0000
,
3003
0000
0000
0000
;
