#TITLE:Final Impromptu;
#SUBTITLE:;
#ARTIST:DM Ashura vs. Chopin;
#TITLETRANSLIT:;
#SUBTITLETRANSLIT:;
#ARTISTTRANSLIT:;
#CREDIT:;
#BANNER:finalban.png;
#BACKGROUND:finalbg.png;
#LYRICSPATH:;
#CDTITLE:Catchrothy22cd.PNG;
#MUSIC:Fantasy Impromptu.mp3;
#OFFSET:0.000;
#SAMPLESTART:48.780;
#SAMPLELENGTH:12.000;
#SELECTABLE:YES;
#BPMS:0.000=168.000;
#STOPS:;
#BGCHANGES:;
// cache tags:
#FIRSTBEAT:0.000;
#LASTBEAT:348.500;
#SONGFILENAME:Songs/IzzySM Keyboard Mega Pack/Final Impromptu/Final Impromptu.sm;
#HASMUSIC:1;
#HASBANNER:1;
#MUSICLENGTH:127.378;
// end cache tags

//---------------dance-single - ----------------
#NOTES:
     dance-single:
     :
     Hard:
     11:
     1.000,1.000,0.534,0.016,1.000,1107.000,68.000,2.000,0.000,0.000:  // measure 1
0100
0000
1000
0100
1000
0100
1000
0000
0010
0000
0001
0010
0001
0010
0001
0000
,  // measure 2
1000
0000
0100
0010
0100
0010
0100
0000
0001
0000
1000
0001
1000
0001
1000
0000
,  // measure 3
0100
0000
0001
0010
0001
0010
0001
0000
1000
0000
0100
0010
0100
0010
0100
0000
,  // measure 4
1000
0000
0100
0010
0001
0010
0100
0000
0001
0000
0010
0100
1000
0100
0010
0000
,  // measure 5
0000
0000
0010
0001
1000
0100
0010
0001
1000
0100
0010
0001
1000
0100
0010
0001
,  // measure 6
0000
0000
0001
0010
0100
1000
0001
0010
0100
1000
0001
0010
0100
1000
0001
1000
,  // measure 7
0000
0000
1000
0100
0010
0001
1000
0010
0100
0001
1000
0100
0010
0001
1000
0010
,  // measure 8
0100
0001
1000
0100
0010
0001
1000
0010
0100
0001
0010
0100
1000
0001
0100
0010
,  // measure 9
1000
0001
0010
0100
1000
0100
0010
0001
1000
0100
0010
0001
1000
0010
0100
0001
,  // measure 10
0000
1000
0100
0010
0001
1000
0100
0010
0001
1000
0100
0010
0001
1000
0010
0100
,  // measure 11
0001
1000
0010
0100
0001
1000
0100
0010
0001
1000
0100
0010
0001
1000
0010
0100
,  // measure 12
0001
0010
0100
1000
0001
0100
0010
1000
0100
0010
0001
1000
0010
0100
0001
1000
,  // measure 13
0100
0001
0010
0001
0000
1000
0100
1000
0000
0100
0010
0100
0000
0001
0010
0001
,  // measure 14
0000
1000
0100
0010
0001
1000
0010
0100
0001
1000
0100
0010
0001
1000
0010
0100
,  // measure 15
0001
1000
0100
1000
0000
0100
0010
0100
0000
0001
0010
0001
0000
0100
0010
0100
,  // measure 16
0000
0001
0010
0100
1000
0001
0100
0010
1000
0001
0010
0100
1000
0001
0100
0010
,  // measure 17
1000
0001
0010
0001
0000
1000
0100
1000
0000
0100
0010
0100
0000
1000
0001
1000
,  // measure 18
0000
0010
0100
0001
1000
0100
0010
0001
1000
0010
0100
0001
0010
0100
1000
0001
,  // measure 19
0000
0010
0100
0010
0000
1000
0100
1000
0000
0100
0001
0010
0100
1000
0100
0010
,  // measure 20
0001
1000
0010
0100
0001
1000
0100
0010
0001
0100
0010
1000
0001
0010
0001
1000
,  // measure 21
0100
1000
0100
1000
0010
1000
0010
1000
0001
1000
0001
1000
0010
1000
0010
1000
,  // measure 22
0100
1000
0100
1000
0010
1000
0010
1000
0001
1000
0001
1000
0100
1000
0100
0001
,  // measure 23
0010
0001
0010
0001
1000
0001
1000
0001
0100
0001
0100
0001
0010
0001
0010
0001
,  // measure 24
0100
0001
0100
0001
1000
0001
1000
0001
0100
0001
0100
0001
0010
0001
0010
0001
,  // measure 25
0010
0100
1000
0001
0010
0100
1000
0001
0100
0010
1000
0001
0100
0010
1000
0100
,  // measure 26
0010
0001
1000
0100
0010
0001
1000
0010
0100
0001
1000
0010
0100
0001
1000
0001
,  // measure 27
1000
0100
0010
0001
1000
0001
0010
0100
1000
0001
0010
0100
1000
0001
0010
0100
,  // measure 28
1000
0001
0010
0100
1000
0100
0010
1000
0100
0010
0001
1000
0010
0100
0001
1000
,  // measure 29
0100
0010
0001
1000
0100
0010
0001
1000
0010
0100
0001
1000
0001
0100
0010
1000
,  // measure 30
0001
0010
0100
1000
0001
0100
0010
1000
0100
0010
0001
1000
0010
0100
0001
1000
,  // measure 31
0001
0010
0100
1000
0001
1000
0100
0010
0001
1000
0010
0100
0001
1000
0100
0010
,  // measure 32
0001
1000
0100
1000
0010
0001
0010
0100
0010
0100
1000
0100
0010
0001
1000
0100
,  // measure 33
0010
0001
1000
0010
0100
0001
1000
0010
0100
0001
0010
0100
1000
0001
0100
0010
,  // measure 34
1000
0001
1000
0100
0010
0001
1000
0001
0010
0100
1000
0001
0010
0100
1000
0001
,  // measure 35
0100
0010
1000
0001
0100
0010
1000
0100
0010
0001
1000
0010
0100
0001
1000
0001
,  // measure 36
1000
0100
0010
0001
1000
0010
0100
0001
1000
0001
0010
0100
1000
0001
0010
0001
,  // measure 37
1000
0100
1000
0000
0010
0000
0100
0010
0001
0010
0100
1000
0001
0010
0100
1000
,  // measure 38
0001
0100
0010
1000
0010
0100
0001
1000
0010
0100
0001
1000
0100
0010
0001
1000
,  // measure 39
0001
0010
0100
0001
1000
0010
0100
0001
1000
0010
0100
0001
1000
0001
0010
0100
,  // measure 40
1000
0001
0100
0010
1000
0100
0010
0001
1000
0010
0100
0001
1000
0100
0010
0001
,  // measure 41
1000
0010
0100
0001
1000
0100
1000
0010
1000
0001
1000
0010
1000
0100
1000
0001
,  // measure 42
0010
0001
0100
0001
1000
0001
0100
0001
0010
0001
0100
0001
0100
0010
0100
1000
,  // measure 43
0110
0000
0000
0000
0000
1001
0000
0000
0000
0110
0000
0000
0000
1000
0000
0100
,  // measure 44
0000
0010
0000
0000
0000
0110
0000
0000
0000
1001
0000
0000
0000
0110
0000
0000
,  // measure 45
0000
1100
0000
0000
0000
0011
0000
0000
0000
1100
0000
0000
0000
0011
0000
0000
,  // measure 46
0000
0110
0000
0000
0000
0100
0000
0010
0000
0100
0000
0000
0000
0110
0000
0000
,  // measure 47
0000
1001
0000
0000
0000
0010
0000
0100
0000
0010
0000
0100
0000
0000
0000
0011
,  // measure 48
0000
1100
0000
0000
0000
1100
0000
0000
0000
0011
0000
0000
0000
0110
0000
0000
,  // measure 49
0000
1100
0000
0000
0000
0011
0000
0000
0000
1100
0000
0000
0000
0110
0000
0000
,  // measure 50
0000
0011
0000
0000
0000
0110
0000
0000
1001
0000
0000
0000
0110
0000
0000
0000
,  // measure 51
1001
0000
1000
0100
1000
0000
1100
0000
,  // measure 52
0001
0010
0001
0000
0011
0000
0100
0010
,  // measure 53
0100
0000
0110
0000
1000
0100
1000
0000
,  // measure 54
0011
0000
0100
0010
0100
0000
1100
0000
,  // measure 55
0001
0010
0001
0000
0110
0000
1000
0000
,  // measure 56
1001
1100
0110
0011
,  // measure 57
0110
1100
1010
1010
,  // measure 58
0110
1001
0110
1001
,  // measure 59
1000
0100
0010
0001
1000
0100
0010
0001
1000
0010
0100
0001
1000
0010
0100
0001
,  // measure 60
1000
0100
0010
0001
1000
0100
0010
0001
1000
0010
0100
0001
1000
0010
0100
0001
,  // measure 61
1000
0100
0010
0001
1000
0010
0100
0001
1000
0001
0010
0100
1000
0001
0100
0010
,  // measure 62
1000
0001
0100
0010
1000
0100
0010
0001
1000
0010
0100
0001
1000
0100
0010
0001
,  // measure 63
1000
0100
0010
0001
1000
0100
0010
0001
1000
0100
0010
0001
1000
0100
0010
0000
,  // measure 64
0001
0010
0100
1000
0001
0010
0100
1000
0001
0010
0100
1000
0001
0010
0000
1000
,  // measure 65
0100
0010
0001
1000
0010
0100
0001
1000
0001
0100
0010
1000
0001
0010
0100
1000
,  // measure 66
0100
0010
0001
0010
0100
0001
1000
0100
0010
0001
1000
0010
0100
0001
0010
0100
,  // measure 67
1000
0001
0010
0100
1000
0001
0010
0100
1000
0001
0100
0010
0100
0001
1000
0100
,  // measure 68
0010
0001
1000
0010
0100
0001
1000
0010
0100
0001
1000
0001
0010
0100
1000
0010
,  // measure 69
0001
0100
0010
1000
0001
0100
0010
1000
0001
0100
0010
1000
0100
0010
0001
1000
,  // measure 70
0010
0100
0001
1000
0010
0100
0001
0010
0100
1000
0100
0010
0001
0010
0100
1000
,  // measure 71
0100
0010
0001
1000
0100
0010
0001
1000
0010
0100
0001
1000
0100
0010
0001
1000
,  // measure 72
0010
0100
0001
1000
0100
0010
0001
1000
0010
0100
0001
1000
0001
0010
0100
1000
,  // measure 73
0001
0100
0010
1000
0001
0010
0100
1000
0001
0100
0010
1000
0100
0010
0001
1000
,  // measure 74
0010
0000
0000
0110
0000
0000
0000
0000
0110
0000
0000
0000
1001
0000
0000
0000
,  // measure 75
0110
1100
0011
1100
,  // measure 76
0110
0000
0011
1100
0011
0110
1001
1100
,  // measure 77
0011
1100
0110
0011
1100
0110
0011
1001
,  // measure 78
1000
0100
0010
0001
1000
0010
0100
0001
1000
0100
0010
0001
1000
0010
0100
0001
,  // measure 79
0010
0100
1000
0001
0100
0010
1000
0001
0100
0010
1000
0001
0100
0010
1000
0100
,  // measure 80
0010
0001
1000
0010
0100
0001
1000
0001
1000
0100
0010
0001
1000
0010
0100
0001
,  // measure 81
1000
0100
0010
0001
1000
0010
0100
0001
1000
0001
0010
0100
1000
0001
0100
0010
,  // measure 82
1000
0100
1000
0010
0001
1000
0100
0010
0001
1000
0010
0100
0001
1000
0100
0010
,  // measure 83
0001
1000
0010
0100
0001
1000
0010
0001
0010
0100
1000
0001
0100
0010
1000
0001
,  // measure 84
0100
0010
1000
0100
0010
0001
1000
0010
0100
0001
1000
0001
0010
0100
1000
0001
,  // measure 85
0100
0010
1000
0100
0010
0001
1000
0010
0100
0001
1000
0010
0100
0001
0010
0100
,  // measure 86
1000
0100
0010
0001
0010
0100
0001
0100
0001
1000
0010
2002
0000
0000
0000
0000
,  // measure 87
0000
0000
0000
0000
,  // measure 88
0000
3003
0000
0000
0000
0000
0000
0000
;
