#TITLE:I'm Coming;
#SUBTITLE:;
#ARTIST:Rain;
#TITLETRANSLIT:;
#SUBTITLETRANSLIT:;
#ARTISTTRANSLIT:;
#CREDIT:Arch0wl;
#BANNER:imcoming-bn.png;
#BACKGROUND:imcoming-bg.png;
#LYRICSPATH:;
#CDTITLE:!arch0wltitle.png;
#MUSIC:imcoming2.ogg;
#OFFSET:9.288;
#SAMPLESTART:61.477;
#SAMPLELENGTH:14.436;
#SELECTABLE:YES;
#BPMS:0.000=125.500;
#STOPS:;
#BGCHANGES:0.000=imcoming-bg.png=1.000=0=0=1,
4.500=imcoming.avi=1.000=0=0=1,
99999=-nosongbg-=1.000=0=0=0 // don't automatically add -songbackground-
;
// cache tags:
#FIRSTBEAT:20.000;
#LASTBEAT:544.000;
#SONGFILENAME:Songs/Archmage and Dark0wl Hammer of Thor UltraHyperMegaPack/I'm Coming/imcomingedit.sm;
#HASMUSIC:1;
#HASBANNER:1;
#MUSICLENGTH:105.000;
// end cache tags

//---------------dance-single - Arch0wl----------------
#NOTES:
     dance-single:
     Arch0wl:
     Hard:
     9:
     1.000,1.000,1.000,0.238,0.657,726.000,214.000,25.000,0.000,10.000:
0000
0000
0000
0000
,
0000
0000
0000
0000
,
0000
0000
0000
0000
,
0000
0000
0000
0000
,
0000
0000
0000
0000
,
0001
0100
0100
1000
0000
0000
0000
0000
,
0001
0010
0010
1000
0000
0000
0000
0000
,
1000
0100
0100
0001
0000
0000
0000
0000
,
1000
0010
0010
0001
0000
0000
0000
0000
,
1000
0001
0001
0100
0010
0100
0001
0010
,
0100
1000
1000
0100
0010
0100
1000
0001
,
1001
0000
1001
0000
,
1001
1001
1001
1001
,
1000
0001
1000
0100
0100
0010
0001
0001
,
1002
0000
0000
0100
0003
0000
0010
0000
1000
0000
1000
0000
0101
0000
1100
0000
,
1000
0010
0010
1000
0001
0001
1000
1000
,
0101
0000
1000
0101
0000
1000
0101
0000
1000
0000
1000
0000
0011
0000
1100
0000
,
0001
0100
0100
1000
0100
0100
0001
0001
,
1000
0000
0010
0001
0000
0010
1000
0000
0001
0000
0001
0000
1000
0000
1000
0000
,
0001
0100
0001
1000
1000
0100
1000
1000
,
0001
0010
0100
1000
0100
0010
0001
0100
0010
1000
0010
0100
0001
0010
0001
0100
,
0010
0000
1000
0100
1000
0000
0001
0000
0100
0000
0000
0000
0100
0000
0001
0000
,
1000
1000
0100
0001
0000
0100
1000
1000
,
0101
0000
1000
0010
0101
0000
1000
1000
,
0010
0000
0010
0000
0100
0000
0001
0000
0000
0000
1000
0010
0001
0000
0100
0000
,
1001
0000
0000
0000
0100
0000
1001
0000
0000
0000
0001
0010
1000
0010
0100
0000
,
1001
0000
0100
1001
0000
1000
0010
0010
,
1001
0000
0100
0010
1001
0000
0010
0100
,
1001
0000
0100
1001
0000
0100
1001
0110
,
1000
0000
0001
0100
1000
0000
0100
0000
0001
0000
0100
0000
1100
0000
0000
0000
,
0101
0000
0001
0010
1000
0000
0010
0000
0001
0000
0010
0000
1010
0000
0000
0000
,
0011
0000
0001
1000
0100
0000
1000
0000
0010
0000
0100
0000
0101
0000
0000
0000
,
1010
2000
3101
2000
3101
2000
3101
1010
,
1000
0000
0001
0100
1000
0000
0100
0000
0001
0000
0100
0000
1100
0000
0000
0000
,
0011
0000
0010
1000
0001
0000
0010
0000
1000
0000
0010
0000
0011
0000
0000
0000
,
1100
0000
1000
0100
0001
0000
1000
0000
0010
0000
0001
0000
1000
0000
0100
0000
,
0001
0000
0100
0000
1000
0000
0001
0100
1000
0000
0100
0000
1001
0000
1001
0000
,
1000
0100
0010
0100
0001
0000
0100
1000
,
1100
0000
1100
0000
1000
0100
0010
0100
,
0110
0000
0110
0000
0010
0100
0001
0100
,
1100
0000
1100
0000
0100
0000
1100
0001
0010
0000
0011
0000
1010
0000
0101
0000
,
1001
0100
0001
0100
1100
0000
0120
1000
,
0031
0000
1100
0000
0001
0010
1000
1010
,
0021
0000
1030
0000
1001
0100
0010
0010
,
1001
0000
1001
0000
0000
1000
0010
0010
,
0100
0000
0000
0000
0100
0000
0000
0000
1010
0000
0000
0000
0000
0000
0000
0000
0101
0000
0000
0000
0000
0000
0000
0100
0001
0000
0000
0000
0000
1000
0010
0000
,
0000
0100
0010
0000
1000
0100
0110
0110
,
0001
0000
1000
0100
0001
0000
0100
1100
,
0000
1000
1100
0000
1000
0010
0100
0100
,
0001
0010
0220
0000
1330
0000
1000
0101
,
0000
0100
0220
0000
0331
0000
1000
0011
,
0000
0010
0220
0000
0331
0000
1000
1000
,
1000
0000
1001
1001
2002
0000
0000
3003
,
0000
0000
1000
0100
0010
0001
1000
0000
0010
0000
0001
0000
1010
0000
0000
0000
,
0011
0000
0000
0000
1000
0100
1000
0000
1000
0000
0011
0000
1200
0000
0000
0000
,
0301
0000
0000
0000
1000
0010
0000
0000
0001
0020
0000
0000
1130
0000
0000
0000
,
0101
0000
1000
0000
0001
0100
0001
0000
1100
0000
0000
1100
0000
0000
0000
0000
,
0000
0000
1000
0000
0010
0001
1000
0000
0100
0000
0001
0000
0101
0000
0000
0000
,
1010
0000
1000
1000
1000
0000
1001
0000
,
0110
1000
0001
0010
0001
0100
1000
0001
,
0010
1000
0001
0100
1000
0001
1100
0000
,
0100
0001
1000
0100
1001
0000
1000
0010
,
0110
0000
1001
0000
0001
1000
0100
0010
,
0110
0000
1001
0000
0001
0100
0010
1000
,
1200
0000
1000
0010
0000
0010
0311
1100
,
0001
0100
1000
0100
0001
0000
1000
0001
,
1010
0000
0101
0000
1000
0100
0010
0100
,
1100
0000
0101
0000
0010
0001
0100
1000
,
1100
0000
0102
0000
0000
0000
1000
1003
,
1200
0000
0000
0301
0000
0000
1000
0000
,
1001
0000
0000
1001
0000
0000
1001
0000
0000
0000
0100
0000
1001
0000
1001
0000
,
0210
0000
0000
1300
0000
0000
1001
0000
,
0011
0000
0000
1010
0000
0000
0011
0000
0000
0000
0100
0000
0101
0000
1010
0000
,
1001
0100
0100
1001
0100
0000
1001
0000
,
0110
0000
0000
0110
0000
0000
0110
0000
0000
0000
0000
0000
1001
0000
0110
0000
,
0101
0010
0010
0011
1000
0000
1001
0000
,
1001
0000
0000
0110
0000
0000
1001
0000
0000
0000
0000
0000
0000
0000
0000
0000
,
0000
0000
0000
0000
,
0000
0000
0000
0000
,
0000
0000
0000
0001
0000
0000
0000
0000
0000
0000
0000
0000
0000
0000
0000
0000
0000
0000
0000
0000
0000
0000
0000
0000
0000
0000
0000
0000
0000
0000
0000
0000
0001
0000
0000
0000
0000
0000
0000
0000
0000
0000
0000
0000
0000
0000
0000
0000
,
0000
0000
0000
0000
0000
0000
0000
0000
0000
0001
0000
0000
0000
0000
0000
0000
0000
0000
0000
0000
0000
0000
0000
0000
0000
0000
0000
0000
0001
0000
0000
0000
,
0000
0000
0000
0000
0000
0000
0000
1010
0000
0000
0000
0000
0011
0000
0000
0000
,
0000
0000
0000
0000
0000
0000
0000
0000
1000
0000
0000
0000
0000
0000
0000
0000
0000
0000
0000
0000
0000
0000
0000
0000
0010
0000
0000
0000
0000
0000
0000
0000
0000
0000
0000
0000
0000
0000
0000
0000
0000
0000
0000
0000
0000
0000
0000
0000
0000
0000
0000
0011
0000
0000
0000
0000
0000
0000
0000
0000
0000
0000
0000
0000
0000
0000
0000
0000
0000
0000
0000
0000
0000
0000
0000
0000
0000
0000
1010
0000
0000
0000
0000
0000
0000
0000
0000
0000
0000
0000
0000
0000
0000
0000
0000
0000
0000
0000
0000
0000
0000
0000
0000
0000
0001
0000
0000
0000
0000
0000
0000
0000
0000
0000
0000
0000
0000
0000
0000
0000
0010
0000
0000
0000
0000
0000
0000
0000
0000
0000
0000
0000
0000
0000
0000
0000
0000
0000
0000
0000
0000
0000
0000
0000
0000
0000
0000
0000
0000
0000
1010
0000
0000
0000
0000
0000
0000
0000
0000
0000
0000
0000
0000
0000
0000
0000
0000
0000
0000
0000
0000
0000
0000
0000
0000
0000
0000
0011
0000
0000
0000
0000
0000
0000
0000
0000
0000
0000
0000
0000
0000
0000
,
0000
0000
0000
0000
0000
0000
0000
0000
0000
0000
0000
0000
1000
0000
0000
0000
0000
0000
0000
0000
0000
0001
0000
0000
0000
0000
0010
0000
0000
0000
0000
0000
0000
0000
1010
0000
0000
0000
0000
0000
0000
0000
0000
0000
0011
0000
0000
0000
0000
1000
0000
0000
0000
0000
0000
0000
0000
0001
0000
0000
0000
0000
0000
0000
,
0000
0000
0000
1001
0000
0000
0000
0000
,
0000
0000
0000
0000
0000
0000
0000
0000
0000
0000
0000
0000
0000
0000
0000
0000
0000
0000
0000
0000
0000
0000
0000
0000
0000
0000
0000
0000
0000
0000
0000
0000
0000
0000
0000
0000
0000
0000
0000
0000
0000
0000
0000
0000
0000
0000
0000
0000
0000
0001
0000
0000
0000
0000
0000
0000
0000
0000
0000
0000
0000
0000
0000
0000
,
0000
0000
0000
0000
0000
0000
0001
0000
0000
0000
0000
0000
0000
0000
0000
0001
,
0000
0000
0000
0000
0000
0000
0000
0000
0000
0000
0000
0000
0000
0000
0000
0000
0000
0001
0000
0000
0000
0000
0000
0000
0000
0000
0000
0000
0000
0000
0000
0000
,
0000
0000
0000
0000
0000
0000
0000
0000
0001
0000
0000
0000
0000
0000
0000
0000
0000
0000
0000
0000
0000
0000
0000
0000
0000
0000
0000
0000
0000
0000
0000
0000
0000
0000
0000
0000
0000
0000
0000
0000
0000
0000
0000
0000
0000
1000
0000
0000
0000
0000
0001
0000
0000
0000
0000
0000
0000
0000
0000
1000
0000
0000
0000
0000
,
0001
0000
0000
0000
0000
0000
0000
0000
0000
1000
0000
0000
0000
0000
0001
0000
0000
0000
0000
0000
0000
0000
0000
1000
0000
0000
0000
0000
0001
0000
0000
0000
0000
0000
0000
0000
0000
1000
0000
0000
0000
0000
0000
0000
0000
0000
0001
0000
0000
0000
0000
0000
0000
0000
0000
1000
0000
0000
0000
0000
0001
0000
0000
0000
,
0000
0000
0000
0000
0000
1000
0000
0000
0000
0000
0001
0000
0000
0000
0000
0000
0000
0000
0000
1000
0000
0000
0000
0000
0001
0000
0000
0000
0000
0000
0000
0000
0000
1000
0000
0000
0000
0000
0001
0000
0000
0000
0000
0000
0000
0000
0000
1000
0000
0000
0000
0000
0000
0000
0000
0000
0001
0000
0000
0000
0000
0000
0000
0000
,
0000
0000
0000
1000
0000
0000
0000
0000
0000
0000
0000
0000
0000
0000
0000
0000
0000
0000
0000
0000
0000
0000
0000
0000
0000
0000
0000
0000
0000
0000
0000
0000
0000
0000
0000
0000
0000
0000
0000
0000
0000
0000
0000
0000
0000
0000
0000
0000
0000
0000
0000
0000
0000
0000
0000
0000
0000
0000
0000
0000
0000
0000
0000
0000
,
0000
1001
0000
0000
,
0000
0000
0000
0000
0001
0000
0000
0000
0000
0000
0000
0001
0000
0000
0000
0000
0000
0000
0001
0000
0000
0000
0000
0000
,
0000
0000
0000
0001
0000
0000
0000
0000
0000
0000
0000
0000
0000
0000
0000
0000
0000
0000
0001
0000
0000
0000
0000
0000
0000
0000
0000
0000
0000
0000
0000
0000
0001
0000
0000
0000
0000
0000
0000
0000
0000
0000
0000
0000
0000
0000
0000
0001
,
0000
0000
0000
0000
0000
0000
0000
0000
0000
0000
0000
0000
0000
0000
0000
0000
0000
0000
0001
0000
0000
0000
0000
0000
0000
0000
0000
0000
0000
0000
0000
0000
0000
0000
0000
0000
0001
0000
0000
0000
0000
0000
0000
0000
0000
0000
0000
0000
0000
0000
0000
0000
0000
0000
0000
0001
0000
0000
0000
0000
0000
0000
0000
0000
,
0000
0000
0000
0000
0000
0001
0000
0000
0000
0000
0000
0000
0000
0000
0000
0001
0000
0000
0000
0000
0000
0000
0000
0000
0000
1000
0000
0000
0000
1000
0000
0000
,
0000
0000
0000
0000
1000
0000
0000
0000
0000
1000
0000
0000
0000
0000
0000
0000
0000
0000
1000
0000
0000
0000
0000
1000
0000
0000
0000
0000
0000
0000
0000
0000
0000
1000
0000
0000
0000
0000
0000
0000
0000
0000
1000
0000
0000
0000
0000
0000
0000
0000
0000
0000
0000
0000
0000
0000
0000
0000
0000
0000
0000
0000
0001
0000
,
0000
0000
0000
0000
0000
0000
0000
0000
0001
0000
0000
0000
0000
0000
0000
0000
0000
0001
0000
0000
0000
0000
0001
0000
0000
0000
0000
0000
0000
0000
0000
0001
0000
0000
0000
0000
0001
0000
0000
0000
0000
0000
0000
0000
0000
0000
0000
0001
0000
0000
0000
0000
0000
0000
0000
0000
0001
0000
0000
0000
0000
0000
0000
0000
,
0000
0000
0000
1010
0000
0000
0000
0000
0000
0000
0000
0000
0000
0000
0000
0000
,
0000
0000
0000
0000
0000
0000
1001
0000
0000
0000
0000
0000
0000
0000
0000
0000
0110
0000
0000
0000
0000
0000
0000
0000
0000
1001
0000
0000
0000
0000
0000
0000
0000
0000
0000
0000
0000
0000
0000
0000
0000
0000
0000
0000
0000
0000
0000
0000
0000
0000
0000
0000
0000
0000
0000
0000
0000
0000
0000
0000
0000
0000
0000
0000
,
0000
0000
0000
0000
0000
0000
0000
0000
0000
0000
0000
0000
0000
0000
0000
0000
0000
0000
0000
1001
0000
0000
0000
0000
0000
0000
0000
0000
0000
0000
0110
0000
0000
0000
0000
0000
0000
0000
0000
1001
0000
0000
0000
0000
0000
0000
0000
0000
0000
0000
0000
0000
0000
0000
0000
0000
0000
0000
0000
0000
0000
0000
0000
0000
,
0000
0000
1001
0000
0000
0000
0000
0110
0000
0000
0000
0000
0000
0000
0000
0000
0000
0000
0000
0000
0000
0000
0000
0000
0000
0000
1000
0000
0000
0000
0000
0000
,
0000
0000
0000
0000
0000
0000
0100
0000
0000
0000
0000
0000
0000
0000
0000
0000
0000
0000
0000
0000
0000
0000
0000
0000
0000
0000
0000
0001
0000
0000
0000
0000
0000
0000
0000
0000
0000
0000
0000
0000
0000
0000
0000
0000
0000
0000
0010
0000
0000
0000
0000
0000
0000
0000
0000
0000
0000
0000
0000
0000
0000
0000
0000
0000
,
0000
0000
0000
0000
0000
0000
0000
0000
0000
0000
0000
0000
0000
0000
0000
0000
0000
0000
0000
0000
0000
0000
0000
0000
0000
0000
0000
0000
0000
0000
0000
0000
0000
0000
0000
0000
0000
0000
0000
0110
0000
0000
0000
0000
0110
0000
0000
0000
,
0000
0000
0000
0000
0110
0000
0000
0000
0000
0000
0000
0000
0000
0000
0000
0000
0000
0000
0000
0000
0000
0000
0000
0000
0000
0000
0000
0000
0000
0000
0000
0000
0000
0000
0000
0000
0000
0000
0000
0000
0000
0000
0000
0000
0000
0000
0000
0000
0110
0000
0000
0000
0000
0000
0000
0000
0000
0000
0000
0000
0000
0000
0000
0000
0000
0000
0000
0000
0110
0000
0000
0000
0000
0000
0000
0000
0000
0000
0000
0000
0000
0000
0000
0000
0000
0000
0000
0000
0110
0000
0000
0000
0000
0000
0000
0000
0000
0000
0000
0000
0000
0000
0000
0000
0000
0000
0000
0000
0110
0000
0000
0000
0000
0000
0000
0000
0000
0000
0000
0000
0000
0000
0000
0000
0000
0000
0000
0000
0000
0000
0000
0000
0000
0000
0000
0000
0000
0000
0000
0000
0000
0000
0000
0000
0000
0000
0000
0000
0110
0000
0000
0000
0000
0000
0000
0000
0000
0000
0000
0000
0000
0000
0000
0000
0000
0000
0000
0000
0110
0000
0000
0000
0000
0000
0000
0000
0000
0000
0000
0000
0000
0000
0000
0000
0000
0000
0000
0000
0000
0110
0000
0000
,
0000
0000
0000
0000
0000
0000
0000
0000
0000
0000
0000
0000
0000
0000
0000
0000
0000
0000
0000
0000
0110
0000
0000
0000
0000
0000
0000
0000
0000
0000
0000
0000
0000
0000
0000
0000
0000
0000
0000
0000
0000
0000
0110
0000
0000
0000
0000
0000
0000
0000
0000
0000
0000
0000
0000
0000
0000
0000
0000
0000
0000
0000
0000
0000
0000
0000
0000
0000
0110
0000
0000
0000
0000
0000
0000
0000
0000
0000
0000
0000
0000
0000
0000
0000
0000
0000
0000
0000
0000
0000
0000
0000
0000
0000
0000
0000
0020
0000
0000
0000
0000
0000
0000
0000
0000
0000
0000
0000
0000
0000
0000
0000
0000
0000
0000
0000
0000
0000
0000
0000
0000
0000
0000
0000
0000
0000
0000
0000
0000
0000
0000
0000
0000
0000
0000
0000
0000
0000
0000
0000
0000
0000
0000
0000
0000
0000
0000
0000
0000
0000
0000
0000
0000
0000
0000
0000
0000
0000
0000
0000
0000
0000
0000
0000
0000
0000
0000
0000
0000
0000
0000
0000
0000
0000
0000
0000
0000
0000
0000
0000
0000
0000
0000
0000
0000
0000
0000
0000
0000
0000
0000
0000
,
0000
0000
0000
0000
0000
0000
0000
0000
0000
0000
0000
0000
0000
0000
0000
0000
0000
0000
0000
1131
0000
0000
0000
0000
0000
0000
0000
0000
0000
0000
0000
0000
0000
0000
0000
0000
0000
0000
0000
0000
0000
0000
0000
0000
0000
0000
0000
0000
,
0000
0000
0000
0000
,
0000
0000
0000
0000
,
0000
0000
0000
0000
,
0000
0000
0000
0000
,
1000
0100
0001
0100
0011
0000
0001
0010
,
1010
0000
0101
0000
0100
1000
0010
0001
,
1100
0000
0011
0000
0010
0100
0001
0010
,
1010
0000
0101
0000
0000
0000
1000
1000
,
0001
0100
0010
0001
1000
0000
1000
0100
,
0101
0000
1100
0000
0001
0010
1000
0001
,
0101
0000
1100
0000
1000
0010
0001
0100
,
0101
0000
1100
0010
0101
1100
0101
1100
,
0101
0001
0101
1100
1000
0000
1000
0100
,
0001
0000
1001
0000
0010
0001
1000
0010
,
0001
0000
1001
0000
0001
0100
0010
0001
,
1000
0100
0010
0001
0010
1000
0100
0001
,
1100
0100
0010
1000
1010
0000
0011
0100
,
1001
0000
0110
0000
1100
0010
0001
0100
,
1000
0100
0010
0000
1000
0100
0010
1000
,
0001
0000
0000
0000
0100
0000
0000
0000
1000
0000
0010
0000
0100
1000
0100
0000
,
1200
0000
0000
0311
0000
0000
1001
0000
,
0110
0000
0000
1001
0000
0000
0110
0000
0000
0000
1000
0000
0011
0000
1100
0000
,
0021
0000
0000
1030
0000
0000
1001
0000
,
1010
0000
0000
0101
0000
0000
1010
0000
0000
0000
0100
0000
1001
0000
0101
0000
,
1200
0000
0000
0301
0000
0000
1100
0000
,
1010
0000
0000
0010
0000
0000
0011
0000
0000
0000
1000
0000
1001
0000
1100
0000
,
0201
0000
0000
1300
0000
0000
1001
0000
,
1000
0100
0010
0001
0100
0010
1000
0010
0100
0001
0010
0100
1000
0100
0010
0100
,
1001
0000
0000
0000
;

//---------------dance-single - Arch0wl----------------
#NOTES:
     dance-single:
     Arch0wl:
     Challenge:
     19:
     1.000,1.000,1.000,1.000,1.000,2170.000,226.000,168.000,0.000,13.000:
0000
0000
0000
0000
,
0000
0000
0000
0000
,
0000
0000
0000
0000
,
0000
0000
0000
0000
,
0000
0000
0000
0000
,
2010
0100
0010
0100
3010
0100
0012
0100
0010
0103
0000
0000
0000
0000
0000
0000
,
2001
0010
3010
2001
0010
3010
2001
0010
3100
0010
0000
0000
0000
0000
0000
0000
,
0102
0010
0100
0010
0103
0010
2100
0010
0100
0010
3000
0000
0000
0000
0000
0000
,
0210
0001
0301
0210
0001
0301
0210
0001
1000
0301
1000
0100
0010
0001
0100
0010
,
2020
0130
0001
0100
3001
0100
2020
0130
0001
0100
3020
0130
0002
0003
0020
0030
,
2002
3100
0103
1002
0100
0103
2002
3010
0100
0013
2000
3000
0200
0300
2000
3000
,
0012
1000
0100
1000
0100
1000
0100
1003
0012
0000
0200
0300
2000
3000
0203
0300
,
0012
1000
1000
1003
0021
0100
0100
0130
1100
1100
0110
0011
1001
0000
0000
0000
,
2001
0010
0100
0010
0001
3010
1002
0100
0010
0100
1000
0100
1013
0000
0000
0000
,
2001
0100
3100
2001
0100
3100
2001
0100
0100
0100
0100
3100
0011
0000
0011
0000
,
2010
0100
0001
0100
0010
3100
0012
1000
0100
1000
0010
1003
0110
0000
0000
0000
,
0210
0001
0301
0210
0001
0301
0210
0001
0001
0001
0001
0301
1100
0000
1100
0000
,
2001
0100
0010
0001
0100
3010
1002
0100
0010
1000
0100
0013
1100
0000
0000
0000
,
2001
0010
3100
2001
0010
3100
2001
0010
0100
0001
0010
3100
1010
0000
1010
0000
,
2001
0100
0010
0100
0001
3010
1002
0100
0010
0100
1000
0013
1100
0000
0000
0000
,
2010
0001
3100
0012
1000
0103
2010
0001
3100
0010
1000
0100
1001
0000
1001
0000
,
2010
0000
0000
0000
0001
0000
0001
0000
0010
0100
0000
0000
0100
0010
0000
0000
0100
0001
0000
0000
0000
0000
0000
0000
0001
0001
0000
0000
0010
0010
0000
0000
,
0100
0100
0000
0000
0010
0010
0000
0000
0001
0001
0000
0000
0010
0010
0000
0000
0000
0000
0000
0000
3001
0010
0100
1000
0012
0100
0000
0000
1000
0100
0000
0000
,
0010
1000
0000
0000
0000
0000
0000
0000
0010
1000
0000
0000
0010
0100
0000
0000
1000
0010
0000
0000
0000
0000
0000
0000
0100
0100
0000
0000
1000
1000
0000
0000
,
0100
0100
0000
0000
0010
0010
0000
0000
0100
0100
0000
0000
1003
1000
0000
0000
0000
0000
0000
0000
0001
0000
0001
0000
0110
0000
0000
0000
0110
0000
0000
0000
,
2001
0001
0001
3001
0100
0000
2001
0000
0000
3000
2100
0010
0001
0010
3100
0000
,
2001
0000
0001
0000
3001
0000
2001
0000
0100
0000
3000
0000
2001
0000
0000
0000
0000
0000
0000
0000
3100
0000
0000
0000
0011
0100
1000
0100
0011
0000
0000
0000
,
1100
0000
0000
0000
0001
0010
0100
1000
0011
0000
0000
0000
0001
0000
0000
0000
1100
0000
0000
0000
0001
0010
0100
1000
0011
0000
0000
0000
0010
0000
0000
0000
,
1001
0000
0000
0000
0010
0000
1001
0000
0000
0000
0010
0001
1100
0010
0101
0010
,
1000
0000
0000
0000
1002
0000
1000
0000
0100
0000
0100
0000
1000
0000
1000
0000
0100
0000
0100
0000
1000
0000
1003
0000
0001
0010
0001
0010
0001
0010
0001
0010
,
0100
0000
0000
0000
2001
0000
0001
0000
0010
0000
0010
0000
0001
0000
0001
0000
0010
0000
0010
0000
0001
0000
3001
0000
1000
0100
1000
0100
1000
0100
1000
0100
,
0010
0000
0000
0000
1020
0000
1000
0000
0100
0000
0100
0000
1000
0000
1000
0000
0100
0000
0100
0000
1000
0000
1030
0000
0010
0001
0010
0001
0010
0001
0010
0001
,
1000
0000
0000
0000
1000
0100
0010
0100
1000
0100
0010
0100
1000
0100
0010
0100
1000
0001
0010
0001
1000
0001
0010
0001
1000
0000
0000
0000
0000
0000
0000
0000
,
1000
0000
0000
0000
0210
0000
0010
0000
0001
0000
0001
0000
1000
0000
1000
0000
0001
0000
0001
0000
0010
0000
0310
0000
1000
0100
1000
0100
1000
0100
1000
0100
,
0010
0000
0000
0000
1002
0000
1000
0000
0010
0000
0010
0000
0100
0000
0100
0000
0010
0000
0010
0000
1000
0000
1003
0000
0001
0010
0001
0010
0001
0010
0001
0010
,
0100
0000
0000
0000
2001
0000
0001
0000
0010
0000
0010
0000
0001
0000
0001
0000
0010
0000
0010
0000
0001
0000
0001
0000
0010
0000
3010
0000
0001
1000
0001
0100
,
0010
1000
0010
0100
0001
0010
0001
1000
0010
0100
0010
1000
0001
0010
0100
1000
0010
0100
0001
0010
0100
1000
0010
0100
1001
0000
0000
0000
1001
0000
0000
0000
,
1000
0100
0010
0001
1000
0010
0100
0001
1000
0100
0010
0001
1000
0010
0100
0001
1000
0010
1000
0010
1000
0010
1000
0010
0100
0001
0100
0010
1000
0100
1000
0010
,
0201
0000
0001
0000
0001
0000
0301
0000
1200
0000
1000
0000
1000
0000
1300
0000
0010
0001
0100
0010
1000
0010
0100
0001
0010
0001
0100
0010
1000
0010
0100
0001
,
1200
0000
1000
0000
1000
0000
1300
0000
0012
0000
0010
0000
0010
0000
0013
0000
1000
0010
1000
0001
0100
0010
0100
0001
1000
0010
1000
0001
0100
0010
0100
0001
,
2100
0000
0001
0000
0000
0000
0001
0010
0100
0000
3100
0000
1001
0100
1001
0000
,
1000
0010
0100
0001
1000
0100
0010
0001
1000
0010
0100
0001
1000
0100
0010
0001
1000
0100
1000
0100
1000
0100
1000
0100
0010
0001
0100
0010
1000
0010
0100
0001
,
1000
0010
0100
0010
1000
0010
0100
0010
1000
0100
0010
0100
1000
0100
0010
0100
1000
0001
0010
0001
0100
0010
1000
0010
0100
0001
0010
0001
0100
0010
1000
0010
,
0100
0001
0010
0001
0100
0001
0010
0001
1000
0010
0100
0010
1000
0010
0100
0010
1000
0001
0100
0010
1000
0100
0010
0001
1000
0010
0100
0001
1000
0100
0010
0001
,
1000
0100
0010
0100
1000
0100
0010
0100
1000
0001
0010
0001
1000
0001
0010
0001
1000
0001
0010
0001
1100
0000
0010
0000
1100
0000
0010
0000
1100
0000
0010
0000
,
2100
0001
0000
0000
0100
0001
0000
0000
0100
0010
0000
0000
0001
0000
0000
0000
0100
0001
0000
0000
0000
0000
0000
0000
3012
1000
0000
0000
0010
0100
0000
0000
,
0100
0000
0000
0000
0010
0100
0000
0000
0010
0100
0000
0000
0100
0000
0000
0000
0010
0000
0000
0000
0010
0100
0000
0000
0010
1000
0000
0000
0013
1000
0000
0000
,
0210
0000
0000
0000
0000
0000
0000
0000
0010
0001
0000
0000
0010
0001
0000
0000
0301
0010
0000
0000
0000
0000
0000
0000
0012
0100
0000
0000
1000
0010
0000
0000
,
0003
0000
0000
0000
2010
0001
0000
0000
0100
0010
0000
0000
3000
0000
0000
0000
2000
0100
0010
3000
2000
0100
0010
3000
0200
0010
0001
0300
0200
0010
0001
0300
,
1000
0000
0000
0000
0000
0000
0010
0000
0000
0000
0000
0000
0100
0000
0000
0000
0000
0000
0001
0000
0000
0000
0000
0000
1000
0000
0000
0000
0000
0000
0000
0000
0000
0000
0000
0000
0000
0000
0000
0000
0000
0000
0000
0000
0000
0000
0000
0000
2001
0000
0000
0000
0000
0000
0000
0000
0001
0000
0000
0000
0000
0000
0000
0000
0001
0000
0000
0000
0000
0000
0000
0000
0001
0000
0000
0000
0000
0000
0000
0000
0001
0000
0000
0000
0000
0000
0000
0000
0001
0000
0000
0000
0000
0000
0000
0000
3101
0000
0000
0000
0000
0000
0000
0000
0000
0000
0000
0000
0000
0000
0000
0000
0000
0000
0000
0000
0000
0000
0000
0000
0000
0000
0000
0000
0000
0000
0000
0000
0000
0000
0000
0000
0000
0000
0000
0000
0000
0000
0000
0000
0000
0000
0000
0000
0001
0000
0000
0000
0000
0000
0010
0000
0000
0000
0000
0000
0100
0000
0000
0000
0000
0000
1000
0000
0000
0000
0000
0000
0001
0000
0000
0000
0000
0000
0000
0000
0000
0000
0000
0000
0000
0000
0000
0000
0000
0000
0000
0000
0000
0000
0000
0000
,
0000
0000
0000
0000
0000
0000
0000
0000
0000
0000
0000
0000
0000
0000
0000
0000
0000
0000
0000
0000
0000
0000
0000
0000
1000
0000
0000
0000
0000
0000
0000
0000
0000
0000
0000
0000
0000
0000
0000
0000
0000
0000
0000
0000
0000
0000
0000
0000
2001
0000
0000
0000
0000
0000
0000
0000
0001
0000
0000
0000
0000
0000
0000
0000
0001
0000
0000
0000
0000
0000
0000
0000
0001
0000
0000
0000
0000
0000
0000
0000
0001
0000
0000
0000
0000
0000
0000
0000
0001
0000
0000
0000
0000
0000
0000
0000
3101
0000
0000
0000
0000
0000
0000
0000
0000
0000
0000
0000
0000
0000
0000
0000
0000
0000
0000
0000
0000
0000
0000
0000
0000
0000
0000
0000
0000
0000
0000
0000
0000
0000
0000
0000
0000
0000
0000
0000
0000
0000
0000
0000
0000
0000
0000
0000
0001
0000
0000
0000
0000
0000
0100
0000
0000
0000
0000
0000
0010
0000
0000
0000
0000
0000
1000
0000
0000
0000
0000
0000
0001
0000
0000
0000
0000
0000
0000
0000
0000
0000
0000
0000
0000
0000
0000
0000
0000
0000
0000
0000
0000
0000
0000
0000
,
0000
0000
0000
1000
0000
0000
2001
0001
0001
0001
0001
0001
3101
0000
0000
0000
0000
0000
0011
0000
0000
0011
0000
0000
,
1100
0000
0000
0000
0000
0000
0000
0000
1001
0000
0000
0000
1001
0000
0000
0000
0100
0010
0100
0010
0100
0010
0100
0010
0100
0010
0100
0010
0100
0010
0100
0010
,
0100
0000
0000
0000
2001
0000
0001
0000
0010
0000
0010
0000
0001
0000
0001
0000
0010
0000
0010
0000
0001
0000
0001
0000
3100
1000
0100
1000
0100
1000
0100
1000
,
0001
0000
0000
0000
1000
0000
0000
0000
2001
0000
3001
0000
2010
0000
3010
0000
2001
0000
0001
0000
3010
0100
0010
0100
0001
0010
0001
0010
0001
0010
0001
0010
,
0100
0000
0000
0000
0000
0000
0000
0000
0120
1000
0130
0000
0010
0000
0010
0000
0120
0001
0130
0000
1000
0000
1000
0000
0100
1000
0100
1000
0100
1000
0100
1000
,
0001
0000
0000
0000
1000
0100
0010
0100
1000
0100
0010
0100
1000
0100
0010
0100
1000
0001
0010
0001
1000
0001
0010
0001
1000
0001
0010
0001
1000
0001
0010
0001
,
2100
0000
0000
0000
3201
0000
0001
0000
0010
0000
0010
0000
0001
0000
0001
0000
0010
0000
0010
0000
0001
0000
0301
0000
1000
0100
1000
0100
1000
0100
1000
0100
,
0010
0000
0000
0000
0001
0000
0000
0000
1020
0000
1000
0000
0100
0000
0100
0000
1000
0000
1000
0000
0100
0000
0100
0000
0031
0010
0001
0010
0001
0010
0001
0010
,
0100
0000
1020
1030
1020
1030
1020
1030
0201
0301
0201
0301
0201
0301
0110
1001
,
1001
0000
0000
1001
0000
0000
1001
0000
0000
1001
0000
0000
0110
0000
0000
1001
0000
0000
1001
0000
0000
1001
0000
0000
1001
0000
0000
1001
0000
0000
0110
0000
0000
1001
0000
0000
0001
0010
0100
1000
0000
0000
0000
0000
0000
0000
0000
0000
,
0001
0010
0100
1000
0001
0100
0010
1000
0001
0010
0100
1000
0001
0100
0010
1000
0001
0100
0001
0100
0001
0100
0001
0100
0010
1000
0010
0100
0001
0010
0001
0100
,
1020
0000
1000
0000
1000
0000
1030
0000
0021
0000
0001
0000
0001
0000
0031
0000
0100
1000
0010
0100
0001
0100
0010
1000
0100
1000
0010
0100
0001
0100
0010
1000
,
0021
0000
0001
0000
0001
0000
0031
0000
2100
0000
0100
0000
0100
0000
3100
0000
0001
0100
0001
1000
0010
0100
0010
1000
0001
0100
0001
1000
0010
0100
0010
1000
,
0021
0001
0001
0031
2100
3100
0021
0001
0001
0001
0001
0031
1001
0100
1001
0000
,
0001
0100
0010
1000
0001
0010
0100
1000
0001
0100
0010
1000
0001
0010
0100
1000
0001
0010
0001
0010
0001
0010
0001
0010
0100
1000
0010
0100
0001
0100
0010
1000
,
0001
0100
0010
0100
0001
0100
0010
0100
0001
0010
0100
0010
0001
0010
0100
0010
0001
1000
0100
1000
0010
0100
0001
0100
0010
1000
0100
1000
0010
0100
0001
0100
,
0010
1000
0100
1000
0010
1000
0100
1000
0001
0100
0010
0100
0001
0100
0010
0100
0001
1000
0010
0100
0001
0010
0100
1000
0001
0100
0010
1000
0001
0010
0100
1000
,
0001
0010
0100
0010
0001
0010
0100
0010
0001
1000
0100
1000
0001
1000
0100
1000
0001
1000
0100
1000
0001
1000
0100
1000
0001
1000
0100
1000
0001
1000
0100
1000
,
0001
0100
0010
1000
0000
0000
0100
1000
0000
0000
0000
0000
1000
0100
0010
0001
0000
0000
0001
0100
0010
1000
0000
0000
0100
1000
0000
0000
0000
0000
0000
0000
0000
0000
0000
0000
1000
0100
0010
0001
0000
0000
0000
0000
0000
0000
0000
0000
,
0001
0100
0010
1000
0000
0000
0000
0000
0000
0001
0100
0010
1000
0000
0000
0000
0000
0000
0001
0100
0010
1000
0000
0000
0000
0000
0000
0000
0000
0000
0100
1000
0000
0000
0000
0000
1000
0100
0010
0001
0000
0000
1000
0100
0010
0001
0000
0000
,
0001
0100
0010
1000
0000
0000
0100
1000
0000
0000
0000
0000
1000
0100
0010
0001
0000
0000
0001
0100
0010
1000
0000
0000
0100
1000
0000
0000
0000
0000
0000
0000
0000
0000
0000
0000
1000
0100
0010
0001
0000
0000
0000
0000
0000
0000
0000
0000
,
0001
0100
0010
1000
0000
0000
0000
0000
0000
0001
0100
0010
1000
0000
0000
0000
0000
0000
0001
0100
0010
1000
0000
0000
0000
0000
0000
0000
0000
0000
0100
1000
0000
0000
0000
0000
1000
0100
0010
0001
0000
0000
1000
0100
0010
0001
0000
0000
,
0001
0100
0010
1000
0000
0000
0100
1000
0000
0000
0000
0000
1000
0100
0010
0001
0000
0000
0001
0100
0010
1000
0000
0000
0100
1000
0000
0000
0000
0000
0000
0000
0000
0000
0000
0000
1000
0100
0010
0001
0000
0000
0000
0000
0000
0000
0000
0000
,
0001
0100
0010
1000
0000
0000
0000
0000
0000
0001
0100
0010
1000
0000
0000
0000
0000
0000
0001
0100
0010
1000
0000
0000
0000
0000
0000
0000
0000
0000
0100
1000
0000
0000
0000
0000
1000
0100
0010
0001
0000
0000
1000
0100
0010
0001
0000
0000
,
0001
0100
0010
1000
0000
0000
0100
1000
0000
0000
0000
0000
1000
0100
0010
0001
0000
0000
0001
0100
0010
1000
0000
0000
0100
1000
0000
0000
0000
0000
0000
0000
0000
0000
0000
0000
1000
0100
0010
0001
0000
0000
0000
0000
0000
0000
0000
0000
,
0001
0100
0010
1000
0000
0000
0000
0000
0000
0001
0100
0010
1000
0000
0000
0000
0000
0000
0001
0100
0010
2000
0000
0000
0000
0000
0000
0000
0000
0000
0000
0000
0000
0000
0000
0000
0000
0000
0000
0000
0000
0000
0000
0000
0000
0000
0000
0000
,
0000
0000
0000
0000
,
0000
0000
0000
0000
,
0000
0000
0000
0000
3001
0010
0100
1000
0000
0000
0000
0000
0000
0000
0000
0000
0000
0000
0000
0000
0000
0000
0000
0000
0000
0000
0000
0000
0000
0000
0000
0000
0000
0000
0000
0000
0000
0000
0000
0000
0000
0000
0000
0001
0010
0100
1000
0000
0000
0000
0000
0000
0000
0000
0000
0000
0000
0000
0000
0000
0000
0000
0000
0000
,
0000
0000
0000
0000
0000
0000
0000
0000
0000
0000
0000
0000
0000
0000
0000
0000
0000
0000
0000
0000
0000
0000
0000
0000
0000
0000
0000
0000
0000
0000
0000
0000
0000
0000
0000
0000
0000
0000
0000
0000
0000
0000
0000
0000
0000
0000
0000
0000
0000
0000
0000
0000
0000
0000
0001
0000
0010
0000
0000
0000
0100
0000
0000
0000
1000
0000
0000
0000
0000
0000
0000
0000
0000
0000
0000
0000
0000
0000
0000
0000
0000
0000
0000
0000
0000
0000
0000
0000
0000
0000
0000
0000
0000
0000
0000
0000
0000
0000
0000
0000
0000
0000
0000
0000
0000
0000
0000
0000
0000
0000
0000
0000
0000
0000
0000
0000
0000
0000
0000
0000
0000
0000
0000
0000
0000
0000
0000
0000
0000
0000
0000
0000
0000
0000
0000
0000
0000
0000
0000
0000
0000
0000
0000
0000
0000
0000
0000
0000
0000
0000
0000
0000
0000
0000
0000
0000
0000
0000
0000
0000
0000
0000
0000
0000
0000
0000
0000
0000
0001
0000
0000
0000
0010
0000
0000
0000
0100
0000
0000
0000
2000
0000
0000
0000
0000
0000
0000
0000
0000
0000
0000
0000
,
0000
0000
0000
0000
0000
0000
0000
0000
0000
0000
0000
0000
0000
0001
0010
0000
0000
0000
0000
0000
0000
0000
0000
0010
0100
0000
0000
0000
0000
0000
0000
0000
,
0000
0000
0001
0000
0010
0000
0000
0000
0100
0000
0010
0000
0000
0000
0000
0000
0000
0001
0000
0100
0000
0000
0000
0000
0000
0000
0001
0000
0100
0000
0000
0000
0000
0000
0010
0000
0001
0000
0000
0000
0100
0000
0001
0000
0000
0000
0000
0000
0000
0000
0100
0000
0001
0000
0000
0000
0000
0000
0000
0010
0000
0001
0000
0000
,
0000
0000
0000
0000
0000
0000
0000
0000
0000
0000
0100
0000
0001
0000
0000
0000
0000
0000
0000
0001
0000
0010
0000
0000
0100
0000
0010
0000
0000
0000
0000
0000
0001
0000
0010
0000
0000
0000
0000
0000
0000
0000
0100
0000
0010
0000
0000
0001
0000
0010
0000
0000
0000
0000
0000
0100
0000
0010
0000
0000
0000
0000
0000
0000
,
0000
0000
0000
3012
0000
0000
0000
0000
,
0000
0000
0000
0000
0000
0000
0000
0000
0000
0000
0000
0000
0000
0000
0000
0000
0000
0000
0000
0000
0000
0000
0000
0000
0000
0000
0000
0000
0000
0000
0000
0000
0000
0000
0000
0000
0000
0000
0000
0000
0000
0000
0000
0000
0000
0000
0000
0000
0000
1003
0100
0010
0001
0000
0000
0000
0000
0000
0000
0000
0000
0000
0000
0000
,
0000
0000
0000
0000
0000
0000
0000
0000
0000
0000
0000
0000
0000
0000
0000
0000
0000
0000
0000
0000
0000
0000
0000
0000
1000
0100
0010
0001
0000
0000
0000
0000
0000
0000
0000
0000
0000
0000
0000
0000
0000
0000
0000
0000
0000
0000
0000
0000
0000
0000
0000
0000
0000
0000
0000
0000
0000
0000
0000
0000
1000
0100
0010
0001
,
0000
0000
0000
0000
0000
0000
0000
0000
0000
0000
0000
0000
0000
0000
0000
0000
0000
0000
0000
0000
0000
0000
0000
0000
0000
0000
0000
0000
0000
0000
0000
0000
0000
0000
1000
0100
0010
0001
0000
0000
0000
0000
0000
0000
0000
0000
0000
0000
0000
0000
0000
0000
0000
0000
0000
0000
0000
0000
0000
0000
0000
0000
0000
0000
,
0000
0000
0000
0000
0000
0000
0000
0000
1000
0100
0010
0002
0000
0000
0000
0000
0000
0000
0000
0000
0000
0000
0000
0000
0000
0000
0000
0000
0000
0000
0000
0000
0000
0000
0000
0000
0000
0000
0000
0000
0000
0000
0000
0000
1000
0100
0000
0000
0000
0010
0100
0000
0000
0000
0000
0000
0000
0000
1000
0100
0000
0000
0000
0010
,
1000
0000
0000
0000
0000
0000
0000
0000
1000
0100
0000
0000
0000
0010
0100
0000
0000
0000
0000
0000
0000
0000
1000
0100
0000
0000
0000
0010
0100
0000
0000
0000
0000
0000
0000
0000
0010
1000
0000
0000
0000
0000
0000
0000
0000
0010
0100
0000
0000
0000
0000
0000
0000
0000
1000
0100
0000
0000
0000
0010
0100
0000
0000
0000
,
0000
0000
0000
0000
1000
0100
0000
0000
0000
0010
1000
0000
0000
0000
0000
0000
0000
0000
1000
0100
0000
0000
0000
0010
0100
0000
0000
0000
0000
0000
0000
0000
1000
0100
0000
0000
0000
0010
0100
0000
0000
0000
0000
0000
0000
0000
0010
1000
0000
0000
0000
0000
0000
0000
0000
0010
1000
0000
0000
0000
0000
0000
0000
0000
,
0000
0000
0000
1103
0000
0000
0000
0000
0000
0000
0000
0000
0000
0000
0000
0000
0000
0000
0000
0000
0000
0000
0000
0000
0000
0000
0000
0000
0000
0000
0000
0000
0000
0000
0000
0000
0000
0000
0000
0000
0000
0000
0000
0000
0000
0000
0000
0000
0000
0000
0000
0000
0000
0000
0000
0000
0000
0000
0000
0000
0000
0000
0000
0000
,
0000
1002
0000
0000
,
0000
0000
0000
0000
0000
0000
0000
0100
1000
0000
0000
0000
0000
0000
0000
0000
0000
0000
0000
0000
0000
0100
1000
0000
0000
0000
0000
0000
0000
0000
0000
0000
0000
0000
0000
0100
1000
0000
0000
0000
0000
0000
0000
0000
0000
0000
0000
0000
,
0000
0000
0000
0000
0000
0000
0000
0000
0100
0000
0000
0000
2000
0000
0000
0000
0000
0000
0000
0000
0000
0000
0000
0000
0000
0000
0000
0000
0000
0000
0000
0000
0000
0000
0000
0000
0000
0000
0000
0000
0003
0000
0001
0000
0000
0000
0000
0000
0010
0000
0000
0000
0000
0000
0000
0000
0000
0000
0000
0000
0000
0000
0000
0010
3000
0000
0000
0000
0100
0002
0000
0000
1000
0000
0000
0000
0000
0000
0000
0000
0000
0000
0000
0000
0000
0000
0000
0000
0000
0000
0000
0000
0000
0000
0000
0000
0000
0000
0000
0000
0000
0000
0000
0000
0000
0000
0000
0000
0000
0000
0000
0000
0000
0000
0000
0000
0000
0000
0000
0000
0000
0000
0000
0000
0100
0000
0000
0000
1000
0000
0000
0000
0000
0000
0000
0000
0000
0000
0000
0000
0000
0000
0000
0000
0000
0000
0000
0000
0000
0000
0000
0000
0000
0000
0000
0000
0000
0000
0000
0000
0000
0000
0000
0000
0000
0000
0000
0000
0000
0000
0000
0000
0000
0000
0000
0000
0000
0000
0000
0000
0000
0000
0000
0000
0100
0000
0000
0000
1000
0000
0000
0000
,
0000
0000
0000
0000
0000
0000
0000
0000
0000
0000
0000
0000
0000
0000
0000
0000
0000
0000
0000
0000
0000
0000
0000
0000
0000
0000
0000
0000
0000
0000
0000
0000
0000
0000
0000
0000
0000
0000
0000
0000
0000
0000
0000
0000
0000
0000
0000
0000
0000
0000
0000
0000
0100
0000
1000
0000
0000
0000
0000
0000
0000
0000
0000
0000
0000
0000
0000
0000
0000
0000
0000
0000
0000
0000
0000
0000
0000
0000
0000
0000
0003
0000
0000
0000
0001
0000
0000
0000
0000
0000
0010
0000
0000
0000
0000
0000
0000
0000
0000
0000
0000
0000
0000
0000
0100
0010
0000
0000
1000
0000
0000
0002
0000
0000
0000
0000
0000
0000
0000
0000
0000
0000
0000
0000
0000
0000
0000
0000
0000
0000
0000
0000
0000
0000
0000
0000
0000
0000
0000
0000
0000
0000
0000
0000
0000
0000
0000
0000
0000
0000
0000
0000
0000
0000
0000
0000
0000
0000
0000
0000
0100
0000
0000
0000
1000
0000
0000
0000
0000
0000
0000
0000
0000
0000
0000
0000
0000
0000
0000
0000
0000
0000
0000
0000
0000
0000
0000
0000
0000
0000
0000
0000
,
0000
0000
0000
0000
0000
0000
0000
0000
0000
0000
0000
0000
0000
0000
0000
0000
0000
0000
0000
0000
0000
0000
0000
0000
0100
0000
0000
0000
1000
0000
0000
0000
0000
0000
0000
0000
0000
0000
0000
0000
0000
0000
0000
0000
0000
0000
0000
0000
0000
0000
0000
0000
0000
0000
0000
0000
0000
0000
0000
0000
0000
0000
0000
0000
0000
0000
0000
0000
0000
0000
0000
0000
0000
0000
0000
0000
0000
0000
0000
0000
0000
0000
0000
0000
0100
0000
0000
0000
1000
0000
0000
0000
0000
0000
0000
0000
0000
0000
0000
0000
0000
0000
0000
0000
0000
0000
0000
0000
0000
0000
0000
0003
0000
0000
0000
0000
0000
0000
0000
0000
0002
0000
0000
0000
0000
0000
0000
0000
0000
0000
0000
0000
0000
0000
0000
0000
0000
0000
0000
0000
0000
0000
0000
0000
0000
0000
0000
0000
0000
0000
1000
0000
0000
0000
0000
0000
0100
0000
0000
0000
0000
0000
0000
0000
0000
0000
0000
0000
0000
0000
0000
0000
0000
0000
0010
0000
0000
0000
0000
0000
0100
0000
0000
0000
0000
0000
0000
0000
0000
0000
0000
0000
,
0000
0000
0000
0000
1000
0000
0100
0000
0000
0010
0000
0100
0000
0000
0000
0000
0000
0000
1000
0000
0100
0000
0000
0010
0000
0100
0000
0000
0000
0000
0000
0000
0000
1000
0000
0100
0000
0000
0000
0000
0000
0000
0010
0000
0100
0000
0000
0000
0000
0000
0000
0000
2003
0000
0000
0000
0000
0000
0000
0000
0000
0000
0001
0000
,
0100
0000
0000
0000
0000
0000
0000
0000
0010
0000
0100
0000
0000
0000
0000
0000
0000
0001
0000
0100
0000
0000
0010
0000
0100
0000
0000
0000
0000
0000
0000
0001
0000
0100
0000
0000
0010
0000
0100
0000
0000
0000
0000
0000
0000
0000
0000
0001
0000
0100
0000
0000
0000
0000
0000
0000
0010
0000
0100
0000
0000
0000
0000
0000
,
3000
0000
0000
1001
0000
0000
0000
0000
0000
0000
0000
0000
0000
0000
0000
0000
,
0000
0000
0000
0000
0000
0000
1001
0000
0110
0000
0000
0000
0000
0000
0110
0000
1001
0000
0000
0000
0000
0000
0000
0000
0000
1001
0000
0110
0000
0000
0000
0000
0000
0000
0000
0000
0000
0000
0000
0000
0000
0000
0000
0000
0000
0000
0000
0000
0000
0000
0000
0000
0000
0000
0000
0000
0000
0000
0000
0000
0000
0000
0000
0000
,
0000
0000
0000
0000
0000
0000
0000
0000
0000
0000
0000
0000
0000
0000
0000
0000
0000
0110
0000
1001
0000
0000
0000
0000
0000
0000
0000
0000
0000
0000
1001
0000
0110
0000
0000
0000
0000
0000
0000
0110
0000
1001
0000
0000
0000
0000
0000
0000
0000
0000
0000
0000
0000
0000
0000
0000
0000
0000
0000
0000
0000
0000
0000
0000
,
0000
0000
0000
0000
0000
0000
0000
0000
0000
0000
0000
0000
1001
0000
0000
0000
0000
0000
0110
0000
0000
0000
0000
0000
0000
0000
0000
0000
0000
0000
0000
0000
0000
0000
0000
0000
0110
0000
0000
0000
0000
0000
1001
0000
0000
0000
0000
0000
0000
0000
0000
0000
0000
0000
0000
0000
0000
0000
0000
0000
0000
0000
0000
0000
0000
0000
0000
0000
0000
0000
0000
0000
0000
0000
0000
0000
0000
0000
0000
0000
0000
0000
0000
0000
0000
0000
0000
0000
0000
0000
0000
0000
0000
0000
0000
0000
0000
0000
0000
0000
0000
0000
0000
0000
0000
0000
0000
0000
0000
0000
0000
0000
0000
0000
0000
0000
0000
0000
0000
0000
0000
0000
0000
0000
0000
0000
0000
0000
0000
0000
0000
0000
0000
0000
0000
0000
0000
0000
0000
0000
0000
0000
0000
0000
0000
0000
0000
0000
0000
0000
0000
0000
0000
0000
0000
0000
0210
0000
0000
0000
0000
0000
2300
0000
0001
0000
0000
0000
3100
0000
0000
0000
0000
0000
0000
0000
0000
0000
0000
0000
0000
0000
0000
0000
0000
0000
0000
0000
0000
0000
0000
0000
,
0000
0000
0000
0000
0000
0000
0000
0000
0000
0000
0000
0000
0210
0000
0000
0000
0000
0000
2300
0000
0001
0000
0000
0000
3100
0000
0000
0000
0000
0000
0000
0000
0000
0000
0000
0000
0000
0000
0000
0000
0000
0000
0000
0000
0000
0000
0000
0000
0000
0000
0000
0000
0000
0000
0000
0000
0000
0000
0000
0000
0000
0000
0000
0000
0000
0000
0000
0000
0000
0000
0000
0000
0000
0000
0000
0210
0000
0000
0000
0000
0001
2300
0000
0000
0100
0000
0000
3000
0000
0000
0000
0000
0000
0000
0000
0000
0000
0000
0000
0000
0000
0000
0000
0000
0000
0000
0000
0000
0000
0000
0000
0000
0000
0000
0000
0000
0000
0000
0000
0000
0000
0000
0000
0000
0000
0000
0000
0000
0000
0000
0000
0000
0000
0000
0000
0000
0000
0000
0000
0000
0012
0000
0000
0000
0000
0000
0000
0000
0000
0000
0000
0000
0000
0000
0000
0000
0010
0000
0000
0000
0000
0000
0000
0000
0000
0000
0000
0000
0000
0000
0000
0000
0010
0000
0000
0000
0000
0000
0000
0000
0000
0000
0000
0000
0000
0000
0000
0000
0010
0000
0000
0000
,
0000
0000
0000
0000
0000
0000
0000
0000
0000
0000
0000
0000
0010
0000
0000
0000
0000
0000
0000
0000
0000
0000
0000
0000
0000
0000
0000
0000
0010
0000
0000
0000
0000
0000
0000
0000
0000
0000
0000
0000
0000
0000
0000
0000
0010
0000
0000
0000
0000
0000
0000
0000
0000
0000
0000
0000
0000
0000
0000
0000
0010
0000
0000
0000
0000
0000
0000
0000
0000
0000
0000
0000
0000
0000
0000
0000
0010
0000
0000
0000
0000
0000
0000
0000
0000
0000
0000
0000
0000
0000
0000
0000
0010
0000
0000
0000
0000
0000
0000
0000
0000
0000
0000
0000
0000
0000
0000
0000
0010
0000
0000
0000
0000
0000
0000
0000
0000
0000
0000
0000
0000
0000
0000
0000
0010
0000
0000
0000
0000
0000
0000
0000
0000
0000
0000
0000
0000
0000
0000
0000
0013
0000
0000
0000
0000
0000
0000
0000
0000
0000
0000
0000
0000
0000
0000
0000
1010
0000
0000
0100
0000
0000
0001
0000
0000
0000
0000
0000
0000
0000
0000
0000
0010
0000
0001
0000
0000
0100
0000
0000
1000
0000
0000
0000
0000
0000
0000
0000
0010
0000
0000
0000
,
0000
0000
0000
1000
0000
0000
0100
0000
0000
0001
0000
0000
0010
0000
0000
0000
0000
0000
0000
0000
0000
0000
0000
0000
0000
0000
0000
0000
0010
0000
0000
0000
0000
0000
0000
0000
0000
0000
0000
0000
0000
0000
0000
0000
0010
0000
0000
0000
1000
0000
0000
0100
0000
0000
0001
0000
0000
0000
0000
0000
0010
0000
0000
0000
0000
0000
0001
0000
0000
0100
0000
0000
1000
0000
0000
0000
0010
0000
0000
0000
0000
0000
0000
0000
0000
0000
0000
1000
0000
0000
0100
0000
0010
0001
0000
0000
0000
0000
0000
0000
0000
0000
0000
0000
0000
0000
0000
0000
0011
0000
0000
0100
0000
0000
1000
0000
0000
0000
0000
0000
0000
0000
0000
0000
0010
0000
0000
0000
0000
0000
0000
0000
0000
0000
0000
0000
0000
0000
0000
0000
0010
0000
0000
0000
0000
0000
0000
1000
0000
0000
0100
0000
0000
0001
0000
0000
0010
0000
0000
0000
0000
0000
0000
0000
0000
0000
0000
0000
0001
0000
0000
0100
0010
0000
1000
0000
0000
0000
0000
0000
0000
0000
0000
0000
0000
0000
0000
0000
0010
1000
0000
0000
,
0100
0000
0000
0001
0000
0000
0000
0000
0000
0000
0000
0000
0010
0000
0000
0000
0000
0000
0001
0000
0000
0100
0000
0000
1000
0000
0000
0000
0010
0000
0000
0000
0000
0000
0000
0000
0000
0000
0000
0000
0000
0000
1000
0000
0010
0100
0000
0000
0001
0000
0000
0000
0000
0000
0000
0000
0000
0000
0000
0000
0010
0000
0000
0000
0000
0000
0001
0000
0000
0100
0000
0000
1000
0000
0000
0000
0010
0000
0000
0000
0000
0000
0000
0000
0000
0000
0000
0000
0000
0000
0000
0000
0010
0000
0000
0000
2000
0000
0000
0100
0000
0000
0002
0000
0000
0000
0000
0000
0000
0000
0000
0000
0000
0000
0000
0000
0000
0000
0000
0000
0000
0000
0000
0000
0000
0000
0000
0000
0000
0000
0000
0000
0000
0000
0000
0000
0000
0000
0000
0000
0000
0000
0000
0000
0000
0000
0000
0000
0000
0000
0000
0000
0000
0000
0000
0000
0000
0000
0000
0000
0000
0000
0000
0000
0000
0000
0000
0000
0000
0000
0000
0000
0000
0000
0000
0000
0000
0000
0000
0000
0000
0000
0000
0000
0000
0000
0000
0000
0000
0000
0000
0000
,
0000
0000
0000
0000
0000
0000
0000
0000
0000
0000
0000
0000
0000
0000
0000
0000
0000
0000
0000
3223
0000
0000
0000
0000
0000
0000
0000
0000
0000
0000
0000
0000
0000
0000
0000
0000
0000
0000
0000
0000
0000
0000
0000
0000
0000
0000
0000
0000
,
0000
0000
0000
0000
,
0000
0000
0000
0000
0000
0000
0000
0000
0000
0000
0000
0000
0000
0000
0000
0000
0000
0030
0000
0000
0000
0000
0000
0000
,
0000
0000
0000
0000
,
0000
0000
0000
0000
,
0301
0010
0100
1000
0001
0100
0010
1000
0001
0010
0100
1000
0001
0100
0010
1000
0001
0100
0001
0100
0001
0100
0001
0100
0010
1000
0010
0100
0001
0010
0001
0100
,
1020
0000
1000
0000
1000
0000
1030
0000
0021
0000
0001
0000
0001
0000
0031
0000
0100
1000
0010
0100
0001
0100
0010
1000
0100
1000
0010
0100
0001
0100
0010
1000
,
0021
0000
0001
0000
0001
0000
0031
0000
2100
0000
0100
0000
0100
0000
3100
0000
0001
0100
0001
1000
0010
0100
0010
1000
0001
0100
0001
1000
0010
0100
0010
1000
,
0021
0001
0001
0031
2100
0100
0100
0100
0100
0100
0100
3100
1001
0100
1001
0000
,
0001
0100
0010
1000
0001
0010
0100
1000
0001
0100
0010
1000
0001
0010
0100
1000
0001
0010
0001
0010
0001
0010
0001
0010
0100
1000
0010
0100
0001
0100
0010
1000
,
0001
0100
0010
0100
0001
0100
0010
0100
0001
0010
0100
0010
0001
0010
0100
0010
0001
1000
0100
1000
0010
0100
0001
0100
0010
1000
0100
1000
0010
0100
0001
0100
,
0010
1000
0100
1000
0010
1000
0100
1000
0001
0100
0010
0100
0001
0100
0010
0100
0001
1000
0010
0100
0001
0010
0100
1000
0001
0100
0010
1000
0001
0010
0100
1000
,
0001
0010
0100
0010
0001
0010
0100
0010
0001
1000
0100
1000
0001
1000
0100
1000
0001
1000
0100
1000
0001
1000
0100
1000
0001
1000
0100
1000
0001
1000
0100
1000
,
0001
0010
0100
1000
0001
0100
0010
1000
0001
0010
0100
1000
0001
0100
0010
1000
0001
0100
0001
0100
0001
0100
0001
0100
0010
1000
0010
0100
0001
0010
0001
0100
,
1020
0000
1000
0000
1000
0000
1030
0000
0021
0000
0001
0000
0001
0000
0031
0000
0100
1000
0010
0100
0001
0100
0010
1000
0100
1000
0010
0100
0001
0100
0010
1000
,
0021
0000
0001
0000
0001
0000
0031
0000
2100
0000
0100
0000
0100
0000
3100
0000
0001
0100
0001
1000
0010
0100
0010
1000
0001
0100
0001
1000
0010
0100
0010
1000
,
0021
0031
0210
0310
2001
3001
0210
0310
0201
0301
0210
0310
1001
0100
1001
0000
,
0001
0100
0010
1000
0001
0010
0100
1000
0001
0100
0010
1000
0001
0010
0100
1000
0001
0010
0001
0010
0001
0010
0001
0010
0100
1000
0010
0100
0001
0100
0010
1000
,
0001
0100
0010
0100
0001
0100
0010
0100
0001
0010
0100
0010
0001
0010
0100
0010
0001
1000
0100
1000
0010
0100
0001
0100
0010
1000
0100
1000
0010
0100
0001
0100
,
0010
1000
0100
1000
0010
1000
0100
1000
0001
0100
0010
0100
0001
0100
0010
0100
0001
1000
0010
0100
0001
0010
0100
1000
0001
0100
0010
1000
0001
0010
0100
1000
,
0001
0010
0100
0010
0001
0010
0100
0010
0001
1000
0100
1000
0001
1000
0100
1000
0001
1000
0100
1000
0001
1000
0100
1000
0001
1000
0100
1000
0001
1000
0100
1000
,
0021
0100
0100
0100
0100
0130
0021
0100
0100
0100
0100
0130
1001
0000
0000
0000
,
2001
0010
3010
2001
0010
3010
2001
0010
0010
0010
0010
3010
2001
3100
2001
3100
,
0201
0010
0010
0010
0010
0310
0201
0010
0010
0010
0010
0310
0110
0000
0000
0000
,
0210
0001
0301
0210
0001
0301
0210
0001
0001
0001
0001
0301
2010
3100
2010
3100
,
2010
0100
0100
0100
0100
3100
2010
0100
0100
0100
0100
3100
0110
0000
0000
0000
,
0120
1000
1030
0120
1000
1030
0120
1000
1000
1000
1000
1030
0120
0001
0100
0031
,
0021
1000
1000
1000
1000
1030
0021
1000
1000
1000
1000
1030
1001
0000
0000
0000
,
2001
0100
3100
2001
0100
3100
2001
0100
0100
0100
0100
3100
2001
0100
0001
3100
,
1001
0000
0000
0000
;
