#TITLE:Turbo Spirit;
#SUBTITLE:;
#ARTIST:Sabrepulse;
#TITLETRANSLIT:;
#SUBTITLETRANSLIT:;
#ARTISTTRANSLIT:;
#CREDIT:;
#BANNER:turbospirit-bn.png;
#BACKGROUND:turbospirit-bg.png;
#LYRICSPATH:;
#CDTITLE:mootz cdtitle 2.png;
#MUSIC:Sabrepulse - Turbo Spirit.ogg;
#OFFSET:0.005;
#SAMPLESTART:24.000;
#SAMPLELENGTH:12.000;
#SELECTABLE:YES;
#BPMS:0.000=80.000,32.000=160.000;
#STOPS:;
#BGCHANGES:;
// cache tags:
#FIRSTBEAT:16.000;
#LASTBEAT:227.500;
#SONGFILENAME:Songs/SSSC Pack 2/Turbo Spirit - [Mootz]/Sabrepulse - Turbo Spirit.sm;
#HASMUSIC:1;
#HASBANNER:1;
#MUSICLENGTH:99.012;
// end cache tags

//---------------dance-single - Mootz----------------
#NOTES:
     dance-single:
     Mootz:
     Challenge:
     12:
     0.913,0.948,0.121,0.313,1.000,590.000,12.000,31.000,37.000,0.000:





0000
0000
0000
0000
,
0000
0000
0000
0000
,
0000
0000
0000
0000
,
0000
0000
0000
0000
,
1002
0000
0000
0010
0000
0000
0100
0000
2003
0000
0000
0100
0000
0000
0000
0000
,
3020
0000
1000
0000
0001
0000
0100
0000
0230
0000
0000
1000
0000
0000
0001
0300
,
0102
0000
0000
0010
0000
0000
0100
0003
2001
0000
0000
0100
0000
0001
0000
3001
,
0021
0000
0001
0000
0230
1000
1000
M3MM
,
1000
0100
0010
0100
1000
0001
1000
0001
1000
0010
0100
0010
1000
0001
1000
0001
,
0010
0100
1000
0100
0010
0001
0010
0001
0100
0010
1000
0010
0100
0001
0100
0001
,
1000
0010
1000
0001
0010
0100
0010
0100
1000
0001
0010
0001
1000
0100
1000
0100
,
0010
0001
0010
0100
1000
0001
1000
0001
0100
0010
1000
0010
0100
0001
0100
0001
,
1000
0010
0100
0010
1000
0001
1000
0001
1000
0100
0010
0100
1000
0001
1000
0001
,
0100
0010
1000
0010
0100
0001
0100
0001
0010
0100
1000
0100
0010
0001
0010
0001
,
1000
0100
1000
0001
0100
0010
0100
0010
1000
0001
0100
0001
1000
0010
1000
0010
,
0100
0001
0100
0010
1000
0001
1000
0001
0010
0100
1000
0100
0010
0001
0010
0001
,
1000
0100
1000
0001
0100
0010
1000
0010
0100
0001
1000
0001
0010
0100
1000
0100
,
0010
0001
1000
0001
1000
0010
0100
0010
1000
0010
0100
0001
1000
0100
0010
0001
,
1000
0100
0010
0100
1000
0001
0010
0001
1000
0010
0100
0010
1000
0001
0100
0001
,
1000
0100
0010
0001
1000
0010
0100
0001
1000
0001
0100
0010
1000
0001
0010
0100
,
1000
0010
1000
0001
0010
0100
1000
0100
0010
0001
1000
0001
0100
0010
1000
0010
,
0100
0001
1000
0001
1000
0100
0010
0100
1000
0100
0010
0001
1000
0010
0100
0001
,
1000
0010
0100
MMM1
0000
0100
MMM1
0010
,
M1MM
1000
0100
MM1M
0000
0010
MMM1
0001
,
2MMM
0000
3020
0000
,
0230
0000
0000
0302
,
0203
0320
2030
3200
,
0320
0000
0000
0000
,
0032
0000
0203
0000
,
0320
0000
0000
2030
,
3020
0230
0302
0023
,
0230
0320
0032
0003
,
1MM1
0000
0000
0000
0001
0000
0000
1000
0000
0000
1000
0000
0001
1000
0000
0000
,
11MM
0000
0000
0000
1000
0000
0000
0100
0000
0000
0100
0000
1000
0100
0000
0100
,
M11M
0000
0000
0000
0100
0000
0000
0010
0000
0000
0010
0000
0100
0010
0000
0010
,
MM11
0000
0000
0000
0010
0000
0000
0001
0000
0000
0001
0000
0010
0001
0000
0001
,
1MM1
1000
0010
0100
0M00
0100
0010
1000
,
1001
0001
0010
0100
0M00
0100
0010
0001
,
0101
0100
0010
1000
M000
1000
0010
0100
,
0101
0001
0010
0100
0M00
0100
0020
0000
,
0031
0010
0100
0010
0001
1000
0001
1000
0001
0100
0010
0100
0001
1000
0001
1000
,
0100
0010
0001
0010
0100
1000
0100
1000
0010
0100
0001
0100
0010
1000
0010
1000
,
0001
0100
0001
1000
0100
0010
0100
0010
0001
1000
0100
1000
0001
0010
0001
0010
,
0100
1000
0100
0010
0001
1000
0001
1000
0010
0100
0001
0100
0010
1000
0010
1000
,
0001
0100
0010
0100
0001
1000
0001
1000
0001
0010
0100
0010
0001
1000
0001
1000
,
0010
0100
0001
0100
0010
1000
0010
1000
0100
0010
0001
0010
0100
1000
0100
1000
,
0001
0010
0001
1000
0010
0100
0010
0100
0001
1000
0010
1000
0001
0100
0001
0100
,
0010
1000
0010
0100
0001
1000
0001
1000
0100
0010
0001
0010
0100
1000
0100
1000
,
0001
0010
0001
1000
0010
0100
0001
0100
0010
1000
0001
1000
0100
0010
0001
0010
,
0100
1000
0001
1000
0001
0100
0010
0100
0001
0100
0010
1000
0001
0010
0100
1000
,
0001
0010
0100
0010
0001
1000
0100
1000
0001
0100
0010
0100
0001
1000
0010
1000
,
0001
0010
0100
1000
0001
0100
0010
1000
0001
1000
0010
0100
0001
1000
0100
0010
,
0001
0100
0001
1000
0100
0010
0001
0010
0100
1000
0001
1000
0010
0100
0001
0100
,
0010
1000
0001
1000
0001
0010
0100
0010
0001
0010
0100
1000
0001
0100
0010
1000
,
0001
0010
0100
1000
0001
0010
0100
1000
0001
0100
0010
1000
0001
0100
0010
1000
,
0001
0010
0100
1000
0010
0100
0001
1000
0100
0010
0001
0100
0020
0000
0000
0000
,
2M3M
0000
0000
0000
0000
0000
0000
3000
;
