#TITLE:Chill;
#SUBTITLE:Dr.Mario;
#ARTIST:Nintendo;
#TITLETRANSLIT:;
#SUBTITLETRANSLIT:;
#ARTISTTRANSLIT:;
#CREDIT:;
#BANNER:Chill.png;
#BACKGROUND:Chill-bg.png;
#LYRICSPATH:;
#CDTITLE:!macTitle.png;
#MUSIC:Chill.mp3;
#OFFSET:-0.169;
#SAMPLESTART:99.680;
#SAMPLELENGTH:12.000;
#SELECTABLE:YES;
#BPMS:0.000=135.040,133.000=540.420,134.000=135.060,134.833=270.120,136.500=135.060;
#STOPS:47.000=0.222
,78.500=0.222
,94.000=0.222
,100.500=0.667
,107.000=0.667
,113.500=0.667
,120.000=0.667
,126.500=0.222
,133.000=0.028
,133.250=0.028
,133.500=0.028
,133.750=0.028
,134.833=0.074
,135.167=0.074
,135.500=0.074
,135.833=0.074
,136.167=0.074
,150.000=0.888
,219.500=0.223
,221.000=0.223
,225.500=0.445
,226.500=0.668
,232.000=0.223
,233.500=0.223
,238.000=0.445
,239.000=0.668
;
#BGCHANGES:;
// cache tags:
#FIRSTBEAT:0.000;
#LASTBEAT:239.500;
#SONGFILENAME:Songs/VGMP 2/Chill (MacGravel)/Chill.sm;
#HASMUSIC:1;
#HASBANNER:1;
#MUSICLENGTH:120.920;
// end cache tags

//---------------dance-single - ----------------
#NOTES:
     dance-single:
     :
     Hard:
     10:
     1.000,1.000,1.000,1.000,0.562,563.000,228.000,134.000,0.000,0.000:

1000
0000
0100
0000
1010
0000
0001
0000
0010
0010
0010
0000
0101
0000
1000
0000
,
0010
0100
1001
0100
0010
1001
1001
0000
,
0000
0000
0001
0000
1010
0000
0100
0000
1000
1000
1000
0000
0101
0000
1000
0000
,
0020
0030
0101
0000
0010
0000
0000
0010
0010
0010
0000
0000
0210
0000
0000
0300
,
1001
0000
0010
0000
0101
0000
0010
0000
1001
0001
0001
0000
0110
0000
0100
0000
,
1001
0010
0101
0010
1100
0000
0110
0000
,
0011
0000
0100
0000
1010
0000
1000
0000
0011
0010
0010
0000
0101
0000
0001
0000
,
0110
0100
0100
0000
1010
0000
0100
0000
1001
0000
0000
0000
0101
0000
0000
0000
,
1001
0000
0100
0000
0011
0000
0100
0000
1010
0010
0010
0000
0101
0000
0001
0000
,
1100
1000
0110
0100
0011
0000
1001
0000
,
0101
0000
0001
0000
1010
0000
0100
0000
0011
0010
0010
0000
0101
0000
0001
0000
,
0102
0000
0000
0000
0100
0000
0000
0100
0103
0100
0100
0100
0100
0000
1010
0000
,
0101
0000
0110
0000
0011
0000
1100
0100
0100
0000
1001
0000
0010
0000
0101
0000
,
1010
0110
1001
1100
0010
0011
0100
1010
,
0101
0000
1010
0000
0110
0000
1001
0001
0001
0000
1010
0000
0101
0000
1001
1000
,
1000
0101
0010
1001
0001
0011
0010
0110
,
1000
0100
0011
0000
0110
0000
0101
0001
0001
0000
1010
0000
0100
0000
0011
0000
,
0110
1010
0101
1100
0010
0101
0010
1001
,
0110
0000
1010
0000
0101
0000
0110
0100
0100
0000
0011
0000
0101
0000
1010
1000
,
1000
0000
0101
0000
0020
0030
0100
0100
0000
0000
0100
0000
0001
1000
0001
0001
,
1000
0001
0001
1000
0010
0100
0010
0010
0100
0010
0010
0100
0001
0010
0001
0001
,
0010
0001
0001
0010
0100
1000
0100
0100
1000
0100
0100
1000
0001
0100
0001
0001
,
0100
0001
0001
0100
0010
1000
0010
0010
1000
0010
0010
1000
0100
0010
0100
0100
,
0010
0100
0100
1000
0001
1000
0001
1000
0001
0000
1010
0000
0110
0000
1010
0000
,
0101
0011
0100
1001
0110
1100
0011
0101
,
1010
0110
1001
1010
0101
0110
1010
0001
,
0110
0011
1100
1010
0101
1010
0110
0011
,
1100
0011
0110
1100
0010
1001
0110
0101
,
1010
0110
1010
0101
1010
0100
0011
0110
,
1010
0001
0110
1001
0110
1010
1001
1100
,
1010
0101
1010
1001
0000
1010
0000
0101
,
0020
0030
1100
0000
0000
0000
0101
0000
1010
0000
0101
0000
0001
0001
0000
0000
,
1010
0000
0101
0000
0101
0000
0000
0000
0011
0000
0000
0000
0110
0000
2000
3000
,
0101
0000
0000
0000
0000
0000
2002
0000
0000
0003
0000
0000
3010
0000
0000
0000
0000
1001
0000
0110
0000
0101
0000
0110
,
0000
0000
1010
0000
0000
0000
0100
0000
0000
0100
0000
0000
0101
0000
0000
0000
0000
0000
1010
0000
0000
0000
0000
0000
0001
0000
0000
0000
0000
0000
0110
0000
0000
0000
0000
0000
0100
0000
0000
0000
0000
0000
1001
0000
0000
0000
0000
0000
,
0010
0000
1001
1000
1000
0000
0101
0000
0110
0000
1001
0000
0100
0000
1010
0000
,
0100
0000
0011
0001
1001
0000
0110
0000
0100
0000
0011
0000
0100
0000
1010
0000
,
0101
0000
1010
1000
1000
0000
0110
0000
0101
0000
2000
3200
2300
3200
2300
3200
,
2300
3200
2300
3200
2300
3200
2300
3200
2300
3200
0320
0032
2003
3200
0320
0032
,
2003
0000
3200
0000
0300
0000
0020
0000
0032
0000
0203
0000
0320
0000
2030
0000
3200
0000
0320
0000
0032
0000
0000
0000
2003
3200
0320
0032
2003
0000
0000
0000
,
0000
3000
0000
0200
0320
0032
0023
0230
2300
3020
2030
3002
0203
0320
0230
0302
,
0023
0230
0300
2000
3200
0320
0032
0023
0230
2300
3020
0030
0000
0200
0300
0002
,
0003
0020
0230
2300
3020
0030
2000
0000
0000
0000
3200
0000
0300
0020
0030
0002
,
0003
0000
0000
0200
0000
0000
0320
0000
0000
0230
0000
0000
0302
0000
0000
0003
0000
0000
2000
0000
0000
0000
0000
0000
0000
0000
0000
0000
0000
0000
3000
0000
0000
0000
0002
0000
0003
0000
0020
0000
0030
0000
0200
0000
0300
0000
2000
0000
,
3000
0002
0003
0020
0030
0200
0300
2000
3000
0020
0030
0200
0300
0002
0003
0200
0300
0020
0030
0200
0300
0002
0003
0020
,
0030
0000
0000
0000
0000
0000
0000
0000
0200
0000
0000
0000
0000
0000
0000
0000
0300
0000
0000
0000
0000
0000
0000
0000
2000
0000
0000
0000
0000
0000
0000
0000
0000
0000
0000
0000
3200
0000
0000
0000
0000
0000
0000
0000
0000
0000
0000
0000
0320
0000
0000
0000
0000
0000
0000
0000
0000
0000
0000
0000
0032
0000
0000
0000
0000
0000
0000
0000
0000
0000
0000
0000
0203
0000
0000
0000
0000
0000
0320
0000
0000
0000
0000
0000
2030
0000
0000
0000
0000
0000
3020
0000
0000
0000
0000
0000
0230
0000
0000
0000
0000
0000
0302
0000
0000
0000
0000
0000
2003
0000
0000
0000
0000
0000
3200
0000
0000
0000
0000
0000
0320
0000
0000
0000
0000
0000
0000
0000
0000
0000
0000
0000
0000
0000
0000
0000
0000
0000
0000
0000
0000
0000
0000
0000
0030
0000
0000
0000
0000
0000
0000
0000
0000
0000
0000
0000
0002
0000
0000
0000
0000
0000
0000
0000
0000
0000
0000
0000
0023
0000
0000
0000
0000
0000
0000
0000
0000
0000
0000
0000
0030
0000
0000
0000
0000
0000
0000
0000
0000
0000
0000
0000
,
0200
0300
2010
3000
0020
0030
2100
3000
0002
0003
0210
0300
0020
0030
0201
0300
,
1002
0000
0000
0000
1000
0000
0000
0000
0100
0000
0100
0000
0000
0000
0100
0000
0003
0000
0000
0000
0020
0000
0000
0000
0030
0000
0200
0300
2001
0000
3000
0000
,
0020
0030
2100
3000
0002
0003
0210
0000
0000
0300
1020
0000
0000
0030
2001
0000
,
0010
3000
0201
0000
0010
0010
0000
0010
0300
0000
1001
0000
0100
0000
0100
0000
,
0110
1001
0100
0100
0100
1001
0100
0100
,
0110
1001
0100
0100
0100
1001
0100
0100
,
0110
1001
0100
0100
0100
1001
0100
0100
,
0110
0000
1000
1000
0000
0100
0100
1000
1000
1000
0110
0010
0010
0000
1001
0000
,
0100
0000
1010
1000
1010
0000
0101
0000
0010
0000
1001
0000
1001
0000
0110
0000
,
1100
0000
1100
0000
0011
0000
1001
0001
0001
0000
0110
0000
0100
0000
1010
0010
,
0110
0000
1001
0000
0100
0000
0101
0000
0110
0000
1001
0000
0110
0100
0100
0000
,
0011
0000
0001
0000
1010
0010
1010
0000
0101
0000
1000
0000
0110
0000
0110
0000
,
1010
0000
0101
0000
0101
0000
0110
0000
1010
0010
0010
0000
1100
0000
0001
0000
,
0110
0100
0110
0000
1001
0000
0100
0000
1001
0000
0110
0000
1100
0000
0110
0000
;
