#TITLE:We Love Generation;
#SUBTITLE:;
#ARTIST:DJ Sharpnel;
#TITLETRANSLIT:;
#SUBTITLETRANSLIT:;
#ARTISTTRANSLIT:;
#CREDIT:;
#BANNER:we love generation bn.png;
#BACKGROUND:we love generation bg.png;
#LYRICSPATH:;
#CDTITLE:;
#MUSIC:We Love Generation.ogg;
#OFFSET:-1.562;
#SAMPLESTART:142.787;
#SAMPLELENGTH:20.920;
#SELECTABLE:YES;
#BPMS:0.000=183.549;
#STOPS:;
#BGCHANGES:;
// cache tags:
#FIRSTBEAT:0.000;
#LASTBEAT:757.375;
#SONGFILENAME:Songs/SHARPNELSTREAMZ v2/We Love Generation/We Love Generation.sm;
#HASMUSIC:1;
#HASBANNER:1;
#MUSICLENGTH:250.370;
// end cache tags

//---------------dance-single - 15+ (CTalon)----------------
#NOTES:
     dance-single:
     15+ (CTalon):
     Challenge:
     15:
     1.000,1.000,0.040,0.052,1.000,2565.000,10.000,13.000,6.000,0.000:
0001
0000
1000
0000
0010
0000
0100
0000
0001
0000
1000
0100
0000
0000
0010
0000
,
0001
1000
0001
0100
0000
0000
0010
0000
1000
0000
0100
0010
0000
0000
0001
1000
,
0001
0100
0010
0100
0000
0000
0001
0000
0010
0100
0000
1000
0000
0000
0001
0100
,
0010
0000
1000
0000
0001
0000
1000
0000
0100
0010
0000
0001
0000
1000
0001
0000
,
0100
0000
0010
0000
1000
0000
0100
0000
0010
0000
0001
1000
0000
0000
0010
0000
,
0100
0001
0100
0010
0000
0000
1000
0000
0001
0000
0010
0100
0000
0000
1000
0100
,
0010
0001
1000
0010
0000
0000
0100
0000
0001
0100
0000
0010
0000
0000
1000
0100
,
0010
0000
0001
0000
0100
0000
0010
0000
0100
0001
0000
1000
0000
0000
1000
0000
,
0001
0000
0100
0000
0010
0000
1000
0000
0001
0000
0010
0100
0000
0000
0010
0000
,
0001
1000
0001
0100
0010
1000
0001
1000
0100
0010
0001
0010
0100
1000
0001
0100
,
0010
0100
0001
1000
0001
0010
0001
1000
0100
0010
0100
1000
0001
0100
0001
1000
,
0001
0100
0010
0100
0001
1000
0100
0010
0001
1000
0010
0100
0001
1000
0001
0010
,
0100
1000
0100
0010
0001
1000
0001
0100
0010
0100
0001
1000
0010
0100
0001
1000
,
0001
0010
0100
1000
0000
0000
0010
0000
1000
0000
0001
0100
0000
0000
0001
0010
,
0100
0010
0001
1000
0000
0000
0001
0000
0100
0010
0000
1000
0000
0000
0001
0010
,
0100
1000
0001
1000
0010
0100
0001
1000
0004
0003
0000
4000
3000
0000
0010
0100
,
0001
1000
0001
0010
0100
1000
0100
1000
0010
0100
0010
1000
0001
0010
0001
1000
,
0010
0100
0010
1000
0001
1000
0100
0010
0001
0100
0010
1000
0001
0100
0001
0010
,
0001
0010
0100
1000
0001
0100
0010
1000
0001
1000
0010
0100
0010
1000
0001
0010
,
0100
1000
0001
1000
0001
0100
0010
0100
0010
1000
0100
0010
0001
1000
0001
0100
,
0001
1000
0001
0010
0100
1000
0100
1000
0010
0100
0010
1000
0001
0010
0001
1000
,
0010
0100
0010
1000
0001
1000
0100
0010
0001
0100
0010
1000
0001
0100
0001
0010
,
0001
0010
0100
1000
0001
0100
0010
1000
0001
1000
0010
0100
0010
1000
0001
0010
,
0100
1000
0001
1000
0001
0100
0010
0100
0010
1000
0100
0010
0001
1000
0001
0100
,
0001
1000
0001
0100
0010
1000
0010
1000
0100
0010
0100
1000
0001
0100
0001
1000
,
0100
0010
0100
1000
0001
1000
0010
0100
0001
0010
0100
1000
0001
0010
0001
0100
,
0001
0100
0010
1000
0001
0010
0100
1000
0001
1000
0100
0010
0100
1000
0001
0100
,
0010
1000
0001
1000
0001
0010
0100
0010
0100
1000
0010
0100
0001
1000
0001
0010
,
0001
1000
0001
0100
0010
1000
0010
1000
0100
0010
0100
1000
0001
0100
0001
1000
,
0100
0010
0100
1000
0001
1000
0010
0100
0001
0010
0100
1000
0001
0010
0001
0100
,
0001
0100
0010
1000
0001
0010
0100
1000
0001
1000
0100
0010
0100
1000
0001
0100
,
0010
0000
1000
0001
0000
1000
0100
0010
0001
0000
1000
0010
0M00
1000
0010
0000
,
1000
0001
0010
0100
1000
0001
1000
0010
0100
0001
1000
0100
1000
0001
0100
0010
,
1000
0001
0010
0100
1000
0100
1000
0001
0100
0010
1000
0001
0100
0001
1000
0001
,
0010
0100
1000
0001
1000
0010
0100
0010
0100
0001
1000
0010
1000
0001
1000
0100
,
0010
0100
1000
0001
0010
0100
1000
0001
0100
0001
0100
0010
1000
0001
1000
0100
,
0010
0001
1000
0010
0100
0001
1000
0100
1000
0001
0100
0001
0100
0001
1000
0100
,
0010
0100
1000
0100
0010
0001
1000
0010
0100
0001
1000
0001
0010
0100
1000
0001
,
1000
0001
0010
0100
0010
0001
1000
0010
0100
0010
1000
0001
1000
0001
1000
0100
,
0010
0001
0010
0100
0010
0001
1000
0010
1000
0010
0100
0001
0100
0001
1000
0010
,
1000
0001
1000
0100
0010
0001
0010
0001
0100
0010
0100
0001
1000
0100
1000
0001
,
0100
0010
0100
0001
1000
0001
0010
0100
1000
0010
0100
0001
1000
0010
1000
0100
,
1000
0100
0010
0001
1000
0010
0100
0001
1000
0001
0100
0010
0100
0001
1000
0100
,
0010
0001
1000
0001
1000
0010
0100
0010
0100
0001
0010
0100
1000
0001
1000
0010
,
1000
0001
1000
0100
0010
0001
0010
0001
0100
0010
0100
0001
1000
0100
1000
0001
,
0100
0010
0100
0001
1000
0001
0010
0100
1000
0010
0100
0001
1000
0010
1000
0100
,
1000
0100
0010
0001
1000
0010
0100
0001
1000
0001
0100
0010
0100
0001
1000
0100
,
0010
0000
0000
0000
0000
0000
0000
0000
0001
0000
1000
0100
0000
1000
0100
0000
,
0010
0000
0001
0000
1000
0000
0010
0000
0100
0001
1000
0000
0001
0000
1000
0000
,
0100
0000
0010
0000
0100
0000
1000
0000
0001
0100
0010
0000
1000
0000
0100
0010
,
0001
1000
0010
0100
0001
1000
0100
0010
,
0001
0000
1000
0000
0010
0000
0100
0001
1000
0001
1000
0000
0100
0010
0001
1000
,
0010
0000
1000
0000
0001
0000
1000
0000
0100
0010
0001
0000
1000
0000
0010
0000
,
1000
0000
0001
0000
0010
0000
0001
0000
1000
0010
0100
0000
0010
0000
1000
0100
,
0010
0001
0100
0010
0100
0001
0010
0100
,
1000
0000
0001
0000
0100
0000
0010
1000
0001
1000
0100
0000
0010
0100
1000
0001
,
0100
0010
1000
0001
1000
0100
0010
0001
1000
0100
0010
0100
1000
0001
0100
0010
,
0100
0001
1000
0001
0010
0100
1000
0001
1000
0001
0100
0010
1000
0010
0100
0001
,
1000
0001
1000
0010
0100
0010
1000
0001
0010
0100
0010
0001
1000
0001
0010
0001
,
1000
0010
0100
0001
1000
0001
0010
0100
1000
0100
0010
0001
1000
0010
0100
0010
,
1000
0001
0100
0001
0100
0001
1000
0100
0010
0001
0010
0100
0010
0001
1000
0001
,
0100
0010
1000
0001
1000
0100
0010
0100
1000
0001
0100
0010
0100
0001
1000
0001
,
0010
0100
1000
0100
0010
0001
1000
0010
0100
0010
1000
0001
0100
0001
1000
0001
,
1000
0100
0010
0001
0010
0100
1000
0001
1000
0010
0100
0001
1000
0001
0010
0100
,
1000
0001
0100
0010
1000
0100
0010
0001
1000
0001
0100
0010
1000
0100
0010
0001
,
1000
0010
0100
0001
0010
0100
1000
0001
1000
0010
0100
0001
0010
0100
1000
0001
,
1000
0001
0010
0100
1000
0010
0100
0001
1000
0001
0010
0100
1000
0010
0100
0001
,
1000
0100
0010
0001
0100
0010
1000
0001
1000
0100
0010
0001
0100
0010
1000
0001
,
1000
0001
0100
0010
1000
0100
0010
0001
1000
0001
0100
0010
1000
0100
0010
0001
,
1000
0010
0100
0001
0010
0100
1000
0001
1000
0010
0100
0001
0010
0100
1000
0001
,
1000
0001
0010
0100
1000
0010
0100
0001
1000
0001
0010
0100
1000
0010
0100
0001
,
1000
0100
0010
0001
0100
0010
1000
0001
1000
0100
0010
0001
0100
0010
1000
0001
,
1000
0100
1000
0010
1000
0001
0100
0001
1000
0100
1000
0010
1000
0001
0100
0001
,
1000
0100
1000
0001
0100
0001
0010
0001
1000
0100
1000
0001
0100
0001
0010
0001
,
1000
0010
1000
0100
1000
0001
0010
0001
1000
0010
1000
0100
1000
0001
0010
0001
,
1000
0010
1000
0001
0010
0001
0100
0001
1000
0010
1000
0001
0010
0001
0100
0001
,
1000
0100
1000
0010
1000
0001
0100
0001
1000
0100
1000
0010
1000
0001
0100
0001
,
1000
0100
1000
0001
0100
0001
0010
0001
1000
0100
1000
0001
0100
0001
0010
0001
,
2000
0000
0000
3020
0000
0130
0001
1000
,
1001
1010
0011
M000
,
0001
1000
0001
0010
0001
1000
0001
0010
0001
0100
0010
0100
0001
0100
0010
0100
,
0001
1000
0001
0100
0001
1000
0001
0100
0001
0010
0100
0010
0001
0010
0100
0010
,
0001
1000
0001
0010
0001
1000
0001
0010
0001
0100
0010
0100
0001
0100
0010
0100
,
0001
1000
0001
0100
0001
1000
0001
0100
0001
0010
0100
0010
0001
0010
0100
0010
,
0001
1000
0010
1000
0001
1000
0010
1000
0100
0010
0100
1000
0100
0010
0100
1000
,
0001
1000
0100
1000
0001
1000
0100
1000
0010
0100
0010
1000
0010
0100
0010
1000
,
0001
1000
0010
1000
0001
1000
0010
1000
0100
0010
0100
1000
0100
0010
0100
1000
,
0001
1000
0100
1000
0001
1000
0100
1000
0010
0100
0010
1000
0010
0100
0010
1000
,
0001
1000
0001
0010
0001
1000
0001
0010
0001
0100
0010
0100
0001
0100
0010
0100
,
0001
1000
0001
0100
0001
1000
0001
0100
0001
0010
0100
0010
0001
0010
0100
0010
,
0001
1000
0001
0010
0001
1000
0001
0010
0001
0100
0010
0100
0001
0100
0010
0100
,
0001
1000
0001
0100
0001
1000
0001
0100
0001
0010
0100
0010
0001
0010
0100
0010
,
0001
1000
0010
1000
0001
1000
0010
1000
0100
0010
0100
1000
0100
0010
0100
1000
,
0001
1000
0100
1000
0001
1000
0100
1000
0010
0100
0010
1000
0010
0100
0010
1000
,
0001
1000
0010
1000
0001
1000
0010
1000
0100
0010
0100
1000
0100
0010
0100
1000
,
0001
1000
0100
1000
0001
1000
0100
1000
0010
0100
0010
1000
0010
0100
0010
1000
,
0002
0000
0000
0023
0000
0130
1000
0001
,
2000
0000
3020
0000
0230
0000
0300
0001
,
0002
0000
0000
2003
0000
3010
0100
0010
,
2000
3002
0103
0100
,
0110
0100
0100
0100
,
0100
0100
0100
0100
,
0001
1000
0001
1000
0001
1000
0001
1000
,
0001
1000
0001
1000
0001
1000
0001
1000
,
0001
1000
0001
1000
0001
1000
0001
1000
0001
1000
0001
1000
0001
1000
0001
1000
,
0004
0000
0000
0000
,
2003
0000
0000
3200
0000
0310
0001
1000
,
1001
0101
1100
00M0
,
1000
0001
1000
0001
0100
0010
1000
0001
0010
0100
0010
0001
1000
0001
0100
0010
,
1000
0001
1000
0100
0010
0100
1000
0100
0010
0001
1000
0010
0100
0001
0100
0010
,
1000
0001
1000
0100
0010
0001
0010
0100
1000
0001
1000
0001
0010
0100
1000
0001
,
0100
0010
0100
0001
1000
0001
0100
0010
1000
0010
0100
0001
1000
0001
0010
0100
,
1000
0100
0010
0100
1000
0001
0010
0100
1000
0001
1000
0010
0100
0001
1000
0100
,
1000
0001
0010
0100
0010
0001
1000
0010
1000
0010
0100
0001
0100
0010
1000
0001
,
0010
0001
0100
0010
1000
0100
1000
0010
0100
0001
0010
0001
0100
0010
1000
0100
,
1000
0001
0010
0100
1000
0010
0100
0001
0010
0100
1000
0010
0100
0001
0010
0100
,
1000
0001
1000
0001
0010
0100
1000
0001
0100
0010
0100
0001
1000
0001
0010
0100
,
1000
0001
1000
0010
0100
0010
1000
0010
0100
0001
1000
0100
0010
0001
0010
0100
,
1000
0001
1000
0010
0100
0001
0100
0010
1000
0001
1000
0001
0100
0010
1000
0001
,
0010
0100
0010
0001
1000
0001
0010
0100
1000
0100
0010
0001
1000
0001
0100
0010
,
1000
0010
0100
0010
1000
0001
0100
0010
1000
0001
1000
0100
0010
0001
1000
0010
,
1000
0001
0100
0010
0100
0001
1000
0100
1000
0100
0010
0001
0010
0100
1000
0001
,
0100
0001
0010
0100
1000
0010
1000
0100
0010
0001
0100
0001
0010
0100
1000
0010
,
1000
0001
0100
0010
1000
0100
0010
0001
0100
0010
1000
0100
0010
0001
0100
0010
,
1000
0001
1000
0100
1000
0001
1000
0100
1000
0010
0100
0010
1000
0010
0100
0010
,
1000
0001
1000
0010
1000
0001
1000
0010
1000
0100
0010
0100
1000
0100
0010
0100
,
1000
0001
1000
0100
1000
0001
1000
0100
1000
0010
0100
0010
1000
0010
0100
0010
,
1000
0001
1000
0010
1000
0001
1000
0010
1000
0100
0010
0100
1000
0100
0010
0100
,
1000
0001
0100
0001
1000
0001
0100
0001
0010
0100
0010
0001
0010
0100
0010
0001
,
1000
0001
0010
0001
1000
0001
0010
0001
0100
0010
0100
0001
0100
0010
0100
0001
,
1000
0001
0100
0001
1000
0001
0100
0001
0010
0100
0010
0001
0010
0100
0010
0001
,
1000
0001
0010
0001
1000
0001
0010
0001
0100
0010
0100
0001
0100
0010
0100
0001
,
1000
0001
1000
0100
1000
0001
1000
0100
1000
0010
0100
0010
1000
0010
0100
0010
,
1000
0001
1000
0010
1000
0001
1000
0010
1000
0100
0010
0100
1000
0100
0010
0100
,
1000
0001
1000
0100
1000
0001
1000
0100
1000
0010
0100
0010
1000
0010
0100
0010
,
1000
0001
1000
0010
1000
0001
1000
0010
1000
0100
0010
0100
1000
0100
0010
0100
,
1000
0001
0100
0001
1000
0001
0100
0001
0010
0100
0010
0001
0010
0100
0010
0001
,
1000
0001
0010
0001
1000
0001
0010
0001
0100
0010
0100
0001
0100
0010
0100
0001
,
1000
0001
0100
0001
1000
0001
0100
0001
0010
0100
0010
0001
0010
0100
0010
0001
,
1000
0110
1001
0M00
,
0001
1000
0010
1000
0100
0010
0010
0001
,
1000
0010
0100
0001
0010
0100
0100
1000
,
0001
0100
0010
1000
0001
0010
0010
0100
,
1000
0001
0100
0010
1000
0001
0001
1000
,
0010
0100
0001
0010
0100
1000
1000
0001
,
1000
0100
0010
0001
0100
0010
0010
1000
,
0001
1000
0010
0100
0001
1000
1000
0001
,
1000
0100
0010
0001
0100
0001
0001
1000
,
0010
1000
0100
0010
0001
1000
1000
0001
,
1000
0010
0100
0001
0010
0100
0100
1000
,
0001
0100
0010
1000
0001
0010
0010
0100
,
1000
0001
0100
0010
1000
0001
0001
1000
,
0010
0100
0001
0010
0100
1000
1000
0001
,
1000
0100
0010
0001
0100
0010
0010
1000
,
0001
1000
0010
0100
0001
1000
1000
0001
,
1000
0010
0100
0010
1000
0100
0010
0100
,
1000
0001
1000
0010
0100
0001
1000
0100
0010
0100
1000
0001
0100
0010
0100
0001
,
1000
0100
1000
0001
0010
0001
0100
0010
1000
0010
0100
0001
0010
0001
1000
0001
,
0100
0010
1000
0001
1000
0100
0010
0001
1000
0010
0100
0001
1000
0001
1000
0100
,
0010
0001
1000
0001
0100
0010
1000
0001
1000
0100
0010
0001
0010
0100
1000
0001
,
1000
0010
0100
0001
1000
0010
0100
0001
1000
0100
0010
0001
1000
0100
0010
0001
,
1000
0001
0010
0001
0100
0010
1000
0100
1000
0001
0010
0001
0010
0001
1000
0010
,
1000
0001
0010
0100
0010
0001
1000
0001
0100
0010
0100
0001
1000
0100
0010
0001
,
0010
0001
1000
0010
1000
0001
0100
0010
1000
0001
1000
0100
1000
0001
0100
0001
,
1000
0001
1000
0010
0100
0001
1000
0100
0010
0100
1000
0001
0100
0010
0100
0001
,
1000
0100
1000
0001
0010
0001
0100
0010
1000
0010
0100
0001
0010
0001
1000
0001
,
0100
0010
1000
0001
1000
0100
0010
0001
1000
0010
0100
0001
1000
0001
1000
0100
,
0010
0001
1000
0001
0100
0010
1000
0001
1000
0100
0010
0001
0010
0100
1000
0001
,
1000
0010
0100
0001
1000
0010
0100
0001
1000
0100
0010
0001
1000
0100
0010
0001
,
1000
0001
0010
0001
0100
0010
1000
0100
1000
0001
0010
0001
0010
0001
1000
0010
,
1000
0001
0010
0100
0010
0001
1000
0001
0100
0010
0100
0001
1000
0100
0010
0001
,
0010
0001
0100
0010
0100
0001
0010
0100
1000
0001
1000
0001
1000
0010
0100
0001
,
1000
0001
0010
0100
1000
0001
1000
0010
0100
0001
1000
0100
1000
0001
0100
0010
,
1000
0001
0010
0100
1000
0100
1000
0001
0100
0010
1000
0001
0100
0001
1000
0001
,
0010
0100
1000
0001
1000
0010
0100
0010
0100
0001
1000
0010
1000
0001
1000
0100
,
0010
0100
1000
0001
0010
0100
1000
0001
0100
0001
0100
0010
1000
0001
1000
0100
,
0010
0001
1000
0010
0100
0001
1000
0100
1000
0001
0100
0001
0100
0001
1000
0100
,
0010
0100
1000
0100
0010
0001
1000
0010
0100
0001
1000
0001
0010
0100
1000
0001
,
1000
0001
0010
0100
0010
0001
1000
0010
0100
0010
1000
0001
1000
0001
1000
0100
,
0010
0001
0010
0100
0010
0001
1000
0010
1000
0010
0100
0001
0100
0001
1000
0010
,
1000
0001
0100
0010
1000
0001
1000
0100
0010
0001
1000
0010
1000
0001
0010
0100
,
1000
0001
0100
0010
1000
0010
1000
0001
0010
0100
1000
0001
0010
0001
1000
0001
,
0100
0010
1000
0001
1000
0100
0010
0100
0010
0001
1000
0100
1000
0001
1000
0010
,
0100
0010
1000
0001
0100
0010
1000
0001
0010
0001
0010
0100
1000
0001
1000
0010
,
0100
0001
1000
0100
0010
0001
1000
0010
1000
0001
0010
0001
0010
0001
1000
0010
,
0100
0010
1000
0010
0100
0001
1000
0100
0010
0001
1000
0001
0100
0010
1000
0001
,
1000
0001
0100
0010
0100
0001
1000
0100
0010
0100
1000
0001
1000
0001
1000
0010
,
0100
0001
0100
0010
0100
0001
1000
0100
4000
3000
0000
0004
0003
0000
1000
0001
,
0000
0000
0000
0000
,
0000
0000
0000
0000
0M00
0000
0000
0000
0000
0000
0000
00M0
0000
0000
0000
0000
0000
0000
0000
0000
0000
0000
0000
0000
0000
0000
0000
0000
0000
0000
0000
0000
;
