#TITLE:Trash Whore Suck My Extratone Dick;
#SUBTITLE:;
#ARTIST:Loffciamcore;
#TITLETRANSLIT:;
#SUBTITLETRANSLIT:;
#ARTISTTRANSLIT:;
#CREDIT:Aoreo;
#BANNER:../speedcore rejects ban.png;
#BACKGROUND:../speedcore rejects bg.png;
#LYRICSPATH:;
#CDTITLE:;
#MUSIC:Trash Whore Suck My Extratone Dick.ogg;
#OFFSET:-0.035;
#SAMPLESTART:34.774;
#SAMPLELENGTH:12.000;
#SELECTABLE:YES;
#DISPLAYBPM:274.000;
#BPMS:0.000=274.000,347.000=275.000,351.500=300.000,356.000=274.000,540.000=273.750;
#STOPS:;
#BGCHANGES:;
// cache tags:
#FIRSTBEAT:16.000;
#LASTBEAT:612.500;
#SONGFILENAME:Songs/Speedcore Rejects/Trash Whore Suck My Extratone Dick - [Aoreo]/Trash Whore Suck My Extratone Dick.sm;
#HASMUSIC:1;
#HASBANNER:1;
#MUSICLENGTH:136.211;
// end cache tags

//---------------dance-single - Aoreo----------------
#NOTES:
     dance-single:
     Aoreo:
     Challenge:
     19:
     1.000,1.000,0.176,0.455,1.000,1056.000,24.000,62.000,0.000,0.000:
0000
0000
0000
0000
,
0000
0000
0000
0000
,
0000
0000
0000
0000
,
0000
0000
0000
0000
,
2000
3000
0000
0000
0020
0030
0000
0000
0200
0300
0000
0000
0002
0003
0000
0000
,
0000
0000
0000
0000
,
0000
0000
0000
0000
,
0000
0000
0000
0000
,
2000
3000
0000
0000
0200
0300
0000
0000
0020
0030
0000
0000
0002
0003
0000
0000
,
0000
0000
0000
0000
,
0000
0000
0000
0000
,
0000
0000
0000
0000
,
0200
0300
0000
0000
0002
0003
0000
0000
2000
3000
0000
0000
0020
0030
0000
0000
,
0000
0000
0000
0000
,
0000
0000
0000
0000
,
0000
0000
0000
0000
,
0000
0000
0000
0000
,
1000
0000
0000
0000
,
0001
0000
0100
0000
,
0001
0010
0100
1000
,
0001
0100
0110
0010
,
1000
0000
0000
0000
0001
0000
0000
0000
1000
0001
1000
0001
1000
0000
0000
0000
,
0000
0001
0101
0100
,
0010
1000
0001
1000
0100
0010
0100
1000
,
0001
0100
0010
0100
0001
1000
0001
0010
,
0100
1000
0001
0100
0010
0100
0001
1000
,
0001
0100
0010
1000
0001
1000
0010
0100
,
0020
0030
2000
3000
0002
0000
0023
0000
0230
0000
2300
0000
0002
3000
2000
0003
,
0010
3000
0100
0000
0001
0000
0010
0000
0100
0000
1000
0000
0010
0000
0100
0000
,
0001
1000
0001
0010
0100
1000
0001
1000
,
0100
0010
0100
1000
0010
0100
0001
1000
,
0001
2000
3020
0030
,
0100
0001
0100
0010
1000
0001
0010
0100
,
1000
0001
1000
0010
0100
0001
1000
0001
,
0010
0100
1000
0001
1000
0010
0100
0001
,
0100
0001
0100
0001
1000
0010
1000
0010
0100
0001
1000
0010
0100
0001
1000
0001
,
1000
0001
0010
0100
0010
0001
1000
0001
,
1000
0100
0010
0001
1000
0001
0100
0010
,
0100
0001
0010
0100
1000
0001
1000
0010
,
0200
0000
0000
0000
0301
1000
0100
1000
,
0001
0100
0010
0100
,
0001
1000
0000
1001
,
0000
0000
0101
0000
0000
0000
0100
0001
,
1000
0000
0010
0000
0100
0000
0001
0000
1000
0001
1000
0001
1000
0001
1000
0001
,
1000
0001
0000
0100
,
0001
1000
0000
0010
,
0000
0100
0000
0001
,
1000
0100
1000
0010
0100
0001
0010
0100
,
1000
0001
0101
0100
,
0001
1000
0100
1000
,
0000
1001
0000
0101
,
0100
0001
1000
0010
0100
0001
0010
0100
,
1000
0100
1000
0001
0100
0010
1000
0001
,
0100
0001
0100
0010
1000
0010
0100
0001
1000
0001
1000
0010
0100
0001
0100
0010
,
2000
0000
0000
3002
0000
0000
0203
0000
,
0300
0000
0000
0002
,
0000
0000
0000
0000
1003
0000
0100
0000
1000
0000
0001
0000
0100
0001
0100
0001
,
1000
0010
1000
0010
0100
0001
0100
0010
1000
0001
1000
0010
0100
0001
0100
0010
,
1000
0001
0100
0001
1000
0010
0100
0010
1000
0001
0100
0001
1000
0100
0010
0100
,
0010
0001
1000
0100
0010
0001
1000
0001
1000
0100
0010
0100
0010
0001
1000
0001
,
1000
0100
0010
0001
0010
0001
1000
0100
0010
0100
0010
0001
1000
0001
0100
0010
,
0100
0001
1000
0010
0100
0001
0100
0010
1000
0010
0100
0001
0100
0001
1000
0010
,
1000
0010
0100
0001
0100
0010
1000
0001
1000
0010
0100
0001
1000
0001
0100
0010
,
0100
0001
1000
0001
0100
0010
0100
0010
1000
0001
1000
0001
0200
0000
0000
0000
,
0000
0000
0000
0000
0302
0000
0000
0000
0000
0000
0000
0000
1003
0010
0100
0001
,
1000
0010
0100
0001
1000
0010
0100
0001
0100
0010
1000
0010
0100
0001
0100
0010
,
1000
0010
1000
0001
0100
0001
1000
0100
1000
0001
0100
0010
0100
0001
1000
0001
,
1000
0100
0010
0001
1000
0100
0010
0100
0010
0001
1000
0001
1000
0100
0010
0100
,
0010
0001
1000
0001
1000
0010
0100
0010
0100
0001
1000
0001
1000
0010
0100
0001
,
0100
0010
1000
0010
0100
0001
1000
0001
0010
0100
1000
0001
1000
0100
0010
0001
,
1000
0001
1000
0010
0100
0001
1000
0010
0100
0001
1000
0001
0100
0010
0100
0001
,
1000
0001
1000
0010
0100
0001
0100
0010
1000
0001
1000
0001
0200
0000
0000
0000
,
0000
0000
0000
0000
0302
0000
0000
0000
0000
0000
0000
0000
1003
0100
1000
0001
,
0100
0010
0100
0001
1000
0001
0010
0100
1000
0001
1000
0010
0100
0010
0100
0001
,
1000
0001
1000
0100
0010
0100
0010
0001
1000
0001
0010
0100
1000
0001
1000
0100
,
1000
0001
0100
0001
1000
0010
0100
0001
0100
0010
1000
0001
1000
0001
0010
0100
,
1000
0001
1000
0001
0100
0010
0100
0001
1000
0001
0010
0100
0010
0100
1000
0001
,
1000
0010
0100
0001
0100
0010
1000
0001
1000
0001
0010
0100
1000
0001
1000
0100
,
0010
0001
1000
0001
1000
0010
0100
0010
0100
0001
1000
0001
1000
0100
0010
0100
,
0010
0001
1000
0001
0010
0100
0010
0100
1000
0001
1000
0010
0200
0000
0000
0000
,
0000
0000
0000
0000
0000
0000
0302
0000
0000
0000
0000
0000
1003
0010
0100
0010
,
1000
0001
0100
0010
0100
0001
1000
0001
1000
0010
0100
0001
0100
0010
1000
0010
,
0100
0001
0100
0001
1000
0100
1000
0100
0010
0001
1000
0001
1000
0010
0100
0001
,
0100
0001
1000
0010
0100
0001
0100
0001
1000
0010
1000
0010
0100
0001
1000
0001
,
0010
0100
0010
0100
1000
0001
0010
0100
1000
0100
1000
0001
0100
0010
0100
0010
,
1000
0001
0100
0010
0100
0001
1000
0001
0010
0100
1000
0001
1000
0001
0100
0010
,
0100
0001
1000
0001
1000
0100
0010
0001
1000
0001
1000
0010
0400
0000
0000
0000
,
0000
0000
0000
0000
0000
0000
0000
0302
,
0000
0000
0000
0000
0000
0000
0000
0003
,
1000
0001
0101
0001
,
0020
0000
0230
1300
,
0001
0100
0001
0100
0010
0000
0100
0000
,
0001
0000
1000
0000
0100
1000
0000
1000
,
0001
0100
0101
0100
,
0001
0010
0100
1000
0001
0100
0010
1000
,
0001
0100
0001
0100
0010
1000
0010
0100
,
0001
0000
1001
0000
,
1000
0100
1100
0100
,
1000
0001
0100
0010
,
0100
0001
0100
0001
0010
0000
0100
0000
,
1100
0000
1001
0000
0001
0000
0100
0010
,
0000
0010
0100
0000
0101
0000
0100
0000
,
0002
0000
0003
0000
1000
0100
1000
0001
,
0200
0000
0000
0000
,
0000
0000
0000
0000
,
0301
1000
0010
0100
0001
0100
0010
1000
0010
0100
0001
1000
0001
1000
0010
0100
,
0001
0100
0001
1000
0010
1000
0010
0100
0001
0100
0010
1000
0001
0100
0010
0100
,
0010
1000
0001
1000
0010
0100
0001
0100
0010
1000
0010
0100
0001
1000
0010
0100
,
0004
0000
0000
0000
,
1003
0100
0010
0001
1000
0100
0010
0100
0010
0001
1000
0001
1000
0100
0010
0100
,
0010
0001
1000
0001
1000
0100
1000
0001
0010
0001
1000
0100
0010
0001
1000
0001
,
2000
3002
0203
0320
,
4030
0000
0000
0000
,
3001
0100
0001
0100
0010
1000
0010
0100
0001
1000
0010
0100
0001
0100
0010
1000
,
0010
0100
0001
1000
0010
0100
0001
1000
0010
0100
0001
1000
0001
0100
0010
1000
,
0001
0100
0020
0230
,
0301
1000
0100
0010
0100
1000
0001
0100
,
0001
1000
0100
0010
0001
1000
0001
0100
,
0010
0100
0001
1000
0001
0100
0010
0100
,
0002
0000
0000
0000
0103
0010
1000
0001
,
1000
0010
0100
0001
,
1000
0100
0000
1100
,
0000
1001
0000
0001
,
0100
0000
0001
0000
0100
0000
0010
0000
1000
0010
1000
0010
0100
0001
1000
0001
,
1000
0001
0100
0010
,
1000
0100
0010
0001
,
0000
0011
0000
0110
,
0100
1000
0001
0100
0010
0100
0001
1000
,
0100
1000
1001
0001
,
0100
0000
0000
0000
0010
0000
0000
0000
0100
0001
0100
0001
0100
0000
0000
0000
,
0000
0101
0000
1001
,
1000
0100
0010
0100
1000
0001
0100
0010
,
0100
0001
1000
0001
0010
0100
1000
0001
,
0100
0001
0100
0010
1000
0001
0100
0010
0100
0001
1000
0001
1000
0010
0100
0001
,
2000
0000
0000
0000
,
3001
0100
0010
1000
0001
1000
0100
0010
,
0001
0000
0000
0000
,
1000
0000
0000
0000
,
0010
0000
0100
0000
,
0001
1000
0100
1000
,
0002
0003
0000
0000
0200
0300
0000
0000
0020
0030
0000
0000
2000
3000
0000
0000
,
0001
0100
0010
0000
,
1000
0000
0100
0000
1000
0001
0100
0000
,
0010
0100
0001
0000
,
1000
0000
0100
0000
2000
3000
0001
0000
0200
0300
0001
0000
2000
3000
0010
0000
,
0200
0300
0000
0000
0000
0000
0000
0000
0000
0000
0000
0000
0000
0000
0000
0000
,
0001
0000
1000
0000
,
0001
0100
0010
0100
,
0000
0002
0003
0020
0030
0200
0300
2000
,
3000
0001
0000
0000
0000
0000
0000
0000
,
1000
0000
0000
0000
,
0001
0000
0000
0000
,
0000
2000
0000
3002
0000
0023
0000
0230
,
0000
0300
0000
0000
0000
0000
0000
0000
;
