#TITLE:Evaquated;
#SUBTITLE:;
#ARTIST:DJ Sharpnel;
#TITLETRANSLIT:;
#SUBTITLETRANSLIT:;
#ARTISTTRANSLIT:;
#CREDIT:;
#BANNER:Evaquated bn.png;
#BACKGROUND:Evaquated bg.png;
#LYRICSPATH:;
#CDTITLE:;
#MUSIC:Evaquated.ogg;
#OFFSET:-0.066;
#SAMPLESTART:199.538;
#SAMPLELENGTH:20.589;
#SELECTABLE:YES;
#DISPLAYBPM:187.000;
#BPMS:0.000=186.500,224.000=279.750,225.000=186.500;
#STOPS:224.000=1.072
;
#BGCHANGES:;
// cache tags:
#FIRSTBEAT:4.000;
#LASTBEAT:748.750;
#SONGFILENAME:Songs/SHARPNELSTREAMZ v2/Evaquated/Evaquated.sm;
#HASMUSIC:1;
#HASBANNER:1;
#MUSICLENGTH:244.950;
// end cache tags

//---------------dance-single - 15+ (CondYLR)----------------
#NOTES:
     dance-single:
     15+ (CondYLR):
     Challenge:
     15:
     1.000,1.000,0.106,0.131,1.000,2538.000,26.000,32.000,59.000,0.000:
0000
0000
0000
0000
,
M021
0031
0100
0001
,
1000
0010
0100
0001
,
1000
0100
0010
0001
,
0100
0001
1000
0100
,
0010
0001
1000
0001
,
0100
0010
1000
0010
,
0100
0001
0010
0001
,
1000
0000
0000
0000
0100
0000
0000
0000
0010
0001
0000
0001
1000
0001
1000
0001
,
02M0
0000
0000
0000
0310
0000
0000
0000
1000
0001
1000
0000
0001
0010
0100
1000
,
0001
1000
0001
0000
0100
0001
0100
0010
1000
0001
1000
0000
0010
1000
0001
1000
,
0100
0010
0001
0000
1000
0001
1000
0010
0100
0001
0100
0000
0010
1000
0010
1000
,
0001
1000
0100
0000
0010
0001
0010
0100
1000
0001
1000
0000
0001
0100
0010
1000
,
0001
1000
0001
0000
1000
0100
1000
0100
0010
0001
0010
0000
0001
1000
0001
0100
,
0010
1000
0010
0000
0100
0001
0100
0001
1000
0100
1000
0000
0001
0010
0100
1000
,
001M
0100
0010
0000
1000
0010
0100
0001
1000
0100
1000
0000
0001
0100
0010
1000
,
0001
0000
0000
0000
0000
0000
0000
0000
0000
0000
0000
0000
0000
0000
0000
0000
1000
0000
0010
0000
1000
0000
0010
0000
M100
M000
M001
M000
M100
0000
0001
0000
,
1000
0100
0010
0001
1000
0010
0100
0001
1000
0001
0100
0010
1000
0100
0010
0001
,
1000
0010
0100
0010
1000
0001
0010
0100
1000
0001
1000
0100
0010
0001
0100
0010
,
1000
0001
0010
0100
1000
0010
0100
0001
1000
0001
0010
0001
1000
0010
0100
0001
,
1000
0000
0100
0000
0010
0000
0100
0000
1000
0000
0001
0000
0010
0000
0100
0000
1000
0000
0010
0000
0100
0000
0001
0000
10M0
00M0
00M1
00M0
01M0
0000
0001
0000
,
1000
0100
0010
0001
1000
0010
0100
0001
1000
0001
0100
0010
1000
0100
0010
0001
,
1000
0010
0100
0010
1000
0001
0010
0100
1000
0001
1000
0100
0010
0001
0100
0010
,
1000
0001
0010
0100
1000
0010
0100
0001
1000
0001
0010
0001
1000
0010
0100
0001
,
1000
0000
0100
0000
0010
0000
0100
0000
1000
0000
0001
0000
0010
0000
0100
0000
1000
0000
0010
0000
0100
0000
0001
0000
10M0
00M0
00M1
00M0
01M0
0000
0001
0000
,
1000
0010
0100
0001
1000
0100
0010
0001
1000
0001
0010
0100
1000
0010
0100
0001
,
1000
0100
0010
0100
1000
0001
0100
0010
1000
0001
1000
0010
0100
0001
0010
0100
,
1000
0001
0100
0010
1000
0100
0010
0001
1000
0001
0100
0001
1000
0100
0010
0001
,
1000
0000
0010
0000
0100
0000
0010
0000
1000
0000
0001
0000
0100
0000
0010
0000
1000
0000
0100
0000
0010
0000
0001
0000
1M00
0M00
0M01
0M00
0M10
0000
0001
0000
,
1000
0010
0100
0001
1000
0100
0010
0001
1000
0001
0010
0100
1000
0010
0100
0001
,
1000
0100
0010
0100
1000
0001
0100
0010
1000
0001
1000
0010
0100
0001
0010
0100
,
1000
0001
0100
0010
1000
0100
0010
0001
1000
0001
0100
0001
1000
0100
0010
0001
,
4000
0000
0000
0000
0000
0000
0000
0000
0000
0000
0000
0000
0000
0000
0000
0000
3001
0000
0010
0000
0001
0000
0010
0000
0M01
0M00
0M10
0M00
0M01
0000
0010
0000
,
0001
1000
0001
1000
0001
0000
0001
0000
0100
0000
0010
0000
1010
0000
1000
0000
,
0100
0010
0100
0010
0100
0000
0100
0000
1000
0000
0001
0000
0101
0000
0100
0000
,
0010
1000
0010
1000
0010
0000
0010
0000
0100
0000
0001
0000
1001
0000
1000
0000
,
0100
0010
0100
0010
0100
0000
0100
0000
1000
0000
0001
0000
0101
0000
0100
0000
,
0010
1000
0010
1000
0010
0000
0010
0000
0100
0000
0001
0000
1001
0000
1000
0000
,
0100
1000
010M
1000
0100
0000
0100
0000
0010
0000
0001
0000
1001
0000
1000
0000
,
0010
0100
0010
0100
0010
0000
0010
0000
1000
0000
0001
0000
0011
0000
0010
0000
,
0100
0000
1000
0001
0100
0000
0000
0000
0010
0000
0100
0001
1000
0001
1000
0001
,
0010
0100
0010
0100
0010
0000
0010
0000
0001
0000
1000
0000
1010
0000
0010
0000
,
0100
0001
0100
0001
0100
0000
0100
0000
0010
0000
1000
0000
1001
0000
0001
0000
,
0010
0100
0010
0100
0010
0000
0010
0000
0001
0000
1000
0000
0001
0100
0001
0000
,
1000
0010
1000
0010
1000
0000
1000
0000
0001
0000
0010
0000
0110
0000
0100
0000
,
1000
0001
1000
0001
1000
0000
1000
0000
0010
0000
0100
0000
0101
0000
0001
0000
,
0010
0001
0010
0001
0010
0000
0010
0000
0100
0000
1000
0000
1001
0000
0001
0000
,
0100
0010
0100
0010
0100
0000
0100
0000
0001
0000
1000
0000
0100
0010
0100
0000
,
4000
0000
0000
0000
0000
0000
0000
0000
3001
0100
0001
0100
0001
0100
0001
0100
,
0001
0010
0100
1000
0001
0100
0001
0100
0010
1000
0100
1000
0001
0100
0010
1000
,
0001
0010
0100
1000
0010
0100
0001
0100
0001
0010
0100
1000
0001
1000
0010
1000
,
0001
0100
0010
1000
0001
0010
0001
0010
0100
1000
0010
1000
0001
0010
0100
1000
,
0001
0100
0010
1000
0100
0010
0001
0010
0001
0100
0010
1000
0001
1000
0100
1000
,
0001
0010
0100
1000
0001
0100
0001
0100
0010
1000
0100
1000
0001
0100
0010
1000
,
0001
0010
0100
1000
0010
0100
0001
0100
0001
0010
0100
1000
0001
1000
0010
1000
,
0001
0100
0010
1000
0001
0010
0001
0010
0100
1000
0010
1000
0001
0010
0100
1000
,
0MM2
0003
0000
0000
0000
0000
0000
0000
0000
0000
0000
0000
0000
0000
0000
0000
100M
0000
0000
0000
0100
0000
0000
0000
0010
0000
0000
0000
0001
0000
0000
0000
1000
0000
0000
0000
0001
0000
0000
0000
0010
0000
0000
0000
0100
0000
0000
0000
100M
0000
0000
0000
0100
0000
0000
0000
0010
0000
0000
0000
0001
0000
0000
0000
,
1000
0001
0010
0100
100M
0010
0100
0001
1000
0001
0100
0010
100M
0010
0100
0001
,
1000
0001
0100
0010
1M00
0001
1000
0100
0010
0001
0100
0010
1M00
0001
0010
0100
,
1000
0001
0100
0001
1M00
0001
1000
0100
0010
0001
0100
0010
1M00
0001
0010
0100
,
1000
0001
0100
0001
10M0
0100
0010
0001
0100
0010
1000
0001
01M0
0001
1000
0100
,
1000
0010
1000
0001
10M0
0100
0010
0001
0100
0010
1000
0001
01M0
0001
1000
0100
,
1000
0010
1000
0001
1M00
0001
0010
0100
1000
0001
1000
0010
1M00
0001
0010
0001
,
0010
0100
1000
0001
4M00
0004
0000
0000
0000
0000
0000
0000
0M00
0000
0000
0000
,
0000
0000
0000
0000
0000
0000
0000
0000
0000
3000
0000
0000
0203
0000
0000
0000
0000
0000
0300
0000
0000
0000
0000
0000
0001
0000
0000
0000
0010
0000
0000
0000
0001
0000
0000
0000
1000
0000
0000
0000
0000
0000
0000
0000
0000
0000
0000
0000
,
0001
0000
0000
0000
0010
0000
0000
0000
0001
0000
0000
0000
0100
0000
0000
0000
0000
0000
0010
0000
0000
1000
0000
0000
0001
0000
0000
0000
0000
0000
0100
0000
0000
0001
0000
0000
0010
0000
0000
0000
0000
0000
0100
0000
0000
1000
0000
0000
,
0001
0000
0000
1000
0010
0100
0001
0000
0000
0010
0100
1000
0001
0000
1000
0000
0001
0000
0100
0000
0000
0000
0000
0000
,
0001
0000
0000
0000
1000
0000
0000
0000
0001
0000
0000
0000
0010
0000
0000
0000
0000
0000
0100
0000
0000
1000
0000
0000
0001
0000
0000
0000
0000
0000
0100
0000
0000
0001
0000
0000
0010
0000
0000
0000
0000
0000
0100
0000
0000
1000
0000
0000
,
0001
0000
0000
0000
0000
0000
20M2
0000
0000
3003
0000
0000
1000
0000
0010
0000
1000
0000
0001
0000
0000
0000
0000
0000
,
1000
0000
0000
0000
0010
0000
0000
0000
1000
0000
0000
0000
0100
0000
0000
0000
0000
0000
0010
0000
0000
0001
0000
0000
1000
0000
0000
0000
0000
0000
0100
0000
0000
1000
0000
0000
0010
0000
0000
0000
0000
0000
0100
0000
0000
0001
0000
0000
,
1000
0000
0000
0001
0010
0100
1000
0000
0000
0010
0100
0001
1000
0000
0001
0000
1000
0000
0100
0000
0000
0000
0000
0000
,
1000
0000
0000
0000
0001
0000
0000
0000
1000
0000
0000
0000
0010
0000
0000
0000
0000
0000
1000
0000
0000
0001
0000
0000
0010
0000
0000
0000
0000
0000
0100
0000
0000
1000
0000
0000
0010
0000
0000
0000
0000
0000
1000
0000
0000
0001
0000
0000
,
0010
0000
0100
0000
110M
0000
1000
0001
0100
0001
1000
0001
0010
0000
0100
1000
,
0100
0000
0000
0000
0000
0000
0010
0000
0000
0000
0000
0000
0011
0000
0000
0000
0000
0000
0001
0000
0000
1000
0000
0000
0001
0000
0100
0000
0010
0000
1000
0000
0010
0000
0100
0000
0001
0000
0000
0000
0000
0000
1000
0000
0000
0001
0000
0000
,
1000
0000
0001
0000
0011
0000
0010
0001
1000
0010
1000
0100
0010
0100
1000
0010
,
0100
0001
1000
0001
0010
0000
0001
1000
0010
1000
0001
1000
0100
0000
0010
0001
,
1000
0001
1000
0010
0100
0001
0100
0010
1000
0001
0010
0100
1000
0100
0010
0001
,
1000
0010
0100
0001
1000
0100
0010
0001
0100
0010
1000
0100
0010
0001
0100
0010
,
1000
0100
0010
0001
0100
0001
1000
0010
0100
0010
1000
0001
0010
0100
1000
0001
,
0010
0001
1000
0100
1000
0010
0100
0001
1000
0010
0100
0001
1000
0010
0100
0001
,
1000
0000
0000
0010
0000
0000
0100
0000
0000
0001
0000
0000
2000
3000
0000
0000
0002
0003
0000
0000
2000
3000
0000
0000
0002
0003
0000
0000
2000
3000
0000
0000
0002
0003
0000
0000
2000
3000
0000
0000
0002
0003
0000
0000
2000
3000
0000
0000
,
0020
0000
0000
0000
0000
0000
0000
0000
0030
0000
0000
0000
0000
0000
0000
0000
0000
0000
0000
0000
0000
0000
0000
0000
0000
0000
0000
0000
0000
0000
0000
0000
0000
0000
0000
0000
0000
0000
0000
0000
0000
0000
0000
0000
0000
0000
0000
0000
1000
0000
0000
0000
0000
0000
0000
0000
0000
0000
0001
0000
0000
0000
0000
0000
0000
0000
0000
0010
0000
0000
0000
0000
0000
0000
0000
0000
0000
0100
0000
0000
0000
0000
0000
0000
0000
0000
1000
0000
0000
0000
0000
0000
0000
0000
0000
0000
0001
0000
0000
0000
0000
0000
0000
0000
0000
0000
1000
0000
0000
0000
0000
0000
0000
0000
0000
0001
0000
0000
0000
0000
0000
0000
0000
0000
0000
0100
0000
0000
0000
0000
0000
0000
0000
0000
0010
0000
0000
0000
0000
0000
0000
0000
0000
0000
1000
0000
0000
0000
0000
0000
0000
0000
0000
0000
0000
0000
0001
0000
0000
0000
0000
0000
0000
0000
0000
0000
0000
0000
1000
0000
0000
0000
0000
0000
0000
0000
0000
0000
0000
0000
0000
0000
0000
0000
0000
0000
0000
0000
0000
0000
0000
0000
,
2002
0000
0000
0000
0000
0000
0000
0000
0000
0000
0000
0000
0000
0000
0000
0003
,
000M
0000
0000
0000
,
3100
0010
0100
0010
0001
1000
0001
0010
0001
1000
0010
0100
0001
1000
0001
0100
,
0010
1000
0001
0100
0001
1000
0001
0010
0001
1000
0010
0100
0001
1000
0001
0100
,
0010
1000
0010
1000
0001
1000
0001
0100
0001
1000
0100
0010
0001
1000
0001
0010
,
0100
1000
0001
0010
0001
1000
0001
0100
0001
1000
0100
0010
0001
1000
0001
0010
,
0100
1000
0100
1000
0001
1000
0001
0100
0001
1000
0100
0010
0001
1000
0001
0010
,
0100
1000
0001
0010
0001
1000
0001
0100
0001
1000
0100
0010
0001
1000
0001
0010
,
0100
1000
0100
1000
0001
1000
0001
0010
0001
1000
0010
0100
0001
1000
0001
0100
,
0010
1000
0001
0100
0001
1000
0001
0010
0001
1000
0010
0100
0001
1000
0001
0100
,
0010
1000
0100
0010
0001
1000
0001
0010
0001
1000
0010
0100
0001
1000
0001
0100
,
0010
1000
0001
0100
0001
1000
0001
0010
0001
1000
0010
0100
0001
1000
0001
0100
,
0010
1000
0010
1000
0001
1000
0001
0100
0001
1000
0100
0010
0001
1000
0001
0010
,
0100
1000
0001
0010
0001
1000
0001
0100
0001
1000
0100
0010
0001
1000
0001
0010
,
0100
1000
0100
1000
0001
1000
0001
0100
0001
1000
0100
0010
0001
1000
0001
0010
,
0100
1000
0001
0010
0001
1000
0001
0100
0001
1000
0100
0010
0001
1000
0001
0010
,
0100
1000
0100
1000
0001
1000
0001
0010
0001
1000
0010
0100
0001
1000
0001
0100
,
0010
1000
0001
0100
0001
1000
0001
0010
0001
1000
0010
0100
0001
1000
0100
0010
,
0100
1000
0010
0100
0001
1000
0001
0010
0001
1000
0010
0100
0001
1000
0001
0100
,
0010
1000
0001
0100
0001
1000
0001
0010
0001
1000
0010
0100
0001
1000
0001
0100
,
0010
1000
0010
1000
0001
1000
0001
0100
0001
1000
0100
0010
0001
1000
0001
0010
,
0100
1000
0001
0010
0001
1000
0001
0100
0001
1000
0100
0010
0001
1000
0001
0010
,
0100
1000
0100
1000
0001
1000
0001
0100
0001
1000
0100
0010
0001
1000
0001
0010
,
0100
1000
0001
0010
0001
1000
0001
0100
0001
1000
0100
0010
0001
1000
0001
0010
,
0100
1000
0100
1000
0001
1000
0001
0010
0001
1000
0010
0100
0001
1000
0001
0100
,
0010
1000
0001
0100
0001
1000
0001
0010
0001
1000
0010
0100
0001
1000
0001
0100
,
0010
1000
0100
0010
0001
1000
0001
0010
0001
1000
0010
0100
0001
1000
0001
0100
,
0010
1000
0001
0100
0001
1000
0001
0010
0001
1000
0010
0100
0001
1000
0001
0100
,
0010
1000
0010
1000
0001
1000
0001
0100
0001
1000
0100
0010
0001
1000
0001
0010
,
0100
1000
0001
0010
0001
1000
0001
0100
0001
1000
0100
0010
0001
1000
0001
0010
,
0100
1000
0100
1000
0001
1000
0001
0100
0001
1000
0100
0010
0001
1000
0001
0010
,
0100
1000
0001
0010
0001
1000
0001
0100
0001
1000
0100
0010
0001
1000
0001
0010
,
0100
1000
0100
1000
0001
1000
0001
0010
0001
1000
0010
0100
0001
1000
0001
0100
,
0010
1000
0001
0100
0001
1000
0001
0010
0001
1000
0010
0100
0001
1000
0100
0010
,
0100
1000
0010
0100
0001
1000
0100
1000
0001
1000
0100
1000
0001
1000
0100
0010
,
0100
0010
0001
1000
0010
1000
0001
1000
0010
1000
0001
1000
0010
1000
0001
1000
,
0001
1000
0100
0010
0001
1000
0100
1000
0001
1000
0100
1000
0001
1000
0100
1000
,
0100
0010
0001
1000
0010
1000
0001
1000
0010
1000
0001
1000
0010
1000
0001
1000
,
0001
1000
0001
1000
0001
0010
0100
0010
0001
0010
0100
0010
0001
0010
0100
1000
,
0100
1000
0001
0100
0010
1000
0001
1000
0010
1000
0001
1000
0010
1000
0001
1000
,
0001
1000
0100
0010
0001
0100
0010
0100
0001
0100
0010
0100
0001
0100
0010
1000
,
0010
1000
0001
0010
0100
1000
0001
1000
0100
1000
0001
1000
0100
1000
0001
0010
,
0001
1000
0010
0100
0010
1000
0001
1000
0010
1000
0001
1000
0010
1000
0001
1000
,
0001
1000
0100
0010
0001
1000
0100
1000
0001
1000
0100
1000
0001
1000
0100
1000
,
0100
0010
0001
1000
0010
0100
0001
0100
0010
0100
0001
0100
0010
0100
0001
0100
,
0001
1000
0100
0010
0001
1000
0100
1000
0001
1000
0100
1000
0001
1000
0100
1000
,
0100
0010
0001
1000
0010
0100
0001
0100
0010
0100
0001
0100
0010
0100
0001
0100
,
0001
0100
0010
1000
0001
0010
0100
0010
0001
0010
0100
0010
0001
0010
0100
1000
,
0100
1000
0001
0100
0010
1000
0001
1000
0010
1000
0001
1000
0010
1000
0001
1000
,
0001
1000
0100
0010
0001
1000
0100
1000
0001
1000
0100
1000
0001
1000
0100
0010
,
0100
0000
0000
1000
0000
0000
0010
0000
0000
0100
0000
0000
0002
0000
0000
0000
0000
0000
0003
0000
0000
0000
0000
0000
1000
0000
0000
0000
0100
0000
0000
0000
1000
0000
0000
0000
0001
0000
0000
0000
0000
0000
0000
0000
0000
0000
0000
0000
,
1000
0000
0000
0000
0100
0000
0000
0000
1000
0000
0000
0000
0010
0000
0000
0000
0000
0000
0100
0000
0000
0001
0000
0000
1000
0000
0000
0000
0000
0000
0010
0000
0000
1000
0000
0000
0100
0000
0000
0000
0000
0000
0010
0000
0000
0001
0000
0000
,
1000
0000
0000
0001
0100
0010
1000
0000
0000
0100
0010
0001
1000
0000
0001
0000
1000
0000
0010
0000
0000
0000
0000
0000
,
1000
0000
0000
0000
0001
0000
0000
0000
1000
0000
0000
0000
0100
0000
0000
0000
0000
0000
0010
0000
0000
0001
0000
0000
1000
0000
0000
0000
0000
0000
0010
0000
0000
1000
0000
0000
0100
0000
0000
0000
0000
0000
0010
0000
0000
0001
0000
0000
,
1000
0000
0000
1M01
0000
0000
0001
0100
0001
1000
0000
0000
,
0001
0000
0000
0000
0100
0000
0000
0000
0001
0000
0000
0000
0010
0000
0000
0000
0000
0000
0100
0000
0000
1000
0000
0000
0001
0000
0000
0000
0000
0000
0010
0000
0000
0001
0000
0000
0100
0000
0000
0000
0000
0000
0010
0000
0000
1000
0000
0000
,
0001
0000
0000
1000
0100
0010
0001
0000
0000
0100
0010
1000
0001
0000
1000
0000
0001
0000
0010
0000
0000
0000
0000
0000
,
0001
0000
0000
0000
1000
0000
0000
0000
0001
0000
0000
0000
0100
0000
0000
0000
0000
0000
0001
0000
0000
1000
0000
0000
0100
0000
0000
0000
0000
0000
0010
0000
0000
0001
0000
0000
0100
0000
0000
0000
0000
0000
0001
0000
0000
1000
0000
0000
,
0100
0000
0010
0000
M011
0000
0001
1000
0010
1000
0001
1000
0100
0000
0010
0001
,
0010
0000
0000
0000
0000
0000
0100
0000
0000
0000
0000
0000
1100
0000
0000
0000
0000
0000
1000
0000
0000
0001
0000
0000
1000
0000
0010
0000
0100
0000
0001
0000
0100
0000
0010
0000
1000
0000
0000
0000
0000
0000
0001
0000
0000
1000
0000
0000
,
0001
0000
1000
0000
1100
0000
0100
1000
0001
0100
0001
0010
0100
0010
0001
0100
,
0010
1000
0001
1000
0100
0000
1000
0001
0100
0001
1000
0001
0010
0000
0100
1000
,
0001
1000
0001
0100
0010
1000
0010
0100
0001
1000
0100
0010
0001
0010
0100
1000
,
0001
0100
0010
1000
0001
0010
0100
1000
0010
0100
0001
0010
0100
1000
0010
0100
,
0001
0010
0100
1000
0010
1000
0001
0100
0010
0100
0001
1000
0100
0010
0001
1000
,
0100
1000
0001
0010
0001
0100
0010
1000
0001
0100
0010
1000
0001
0100
0010
1000
,
0001
0000
0000
0100
0000
0000
0010
0000
0000
1000
0000
0000
0002
0003
0000
0000
2000
3000
0000
0000
0002
0003
0000
0000
2000
3000
0000
0000
0002
0003
0000
0000
2000
3000
0000
0000
0002
0003
0000
0000
2000
3000
0000
0000
0002
0003
0000
0000
,
0200
0000
0000
0000
0000
0000
0000
0000
0000
0000
0000
0000
0000
0000
0000
0000
0300
0000
0000
0000
0000
0000
0000
0000
0000
0000
0000
0000
0000
0000
0000
0000
0000
0000
0000
0000
0000
0000
0000
0000
0000
0000
0000
0000
0000
0000
0000
0000
0001
0000
0000
0000
0000
0000
0000
0000
0000
0000
0100
0000
0000
0000
0000
0000
0000
0000
0000
0010
0000
0000
0000
0000
0000
0000
0000
0000
0000
1000
0000
0000
0000
0000
0000
0000
0000
0000
0100
0000
0000
0000
0000
0000
0000
0000
0000
0000
1000
0000
0000
0000
0000
0000
0000
0000
0000
0000
0100
0000
0000
0000
0000
0000
0000
0000
0000
0010
0000
0000
0000
0000
0000
0000
0000
0000
0000
0001
0000
0000
0000
0000
0000
0000
0000
0000
0100
0000
0000
0000
0000
0000
0000
0000
0000
0000
0001
0000
0000
0000
0000
0000
0000
0000
0000
0000
0000
0000
1000
0000
0000
0000
0000
0000
0000
0000
0000
0000
0000
0000
0001
0000
0000
0000
0000
0000
0000
0000
0000
0000
0000
0000
0000
0000
0000
0000
0000
0000
0000
0000
0000
0000
0000
0000
,
2002
0000
0000
0000
,
0000
0000
0000
0000
0000
0000
0000
0000
0000
0000
0000
0003
000M
0000
0000
0000
0000
0000
0000
0000
0200
0000
0000
0000
0000
0000
0000
0000
0000
0000
0000
0000
,
0000
0000
0000
0000
0000
0000
0000
0000
0000
0000
0000
0000
0000
0000
0000
0000
0000
0000
0000
0000
0000
0000
0000
0000
0000
0000
0000
0000
0000
0000
0000
0300
,
0M00
0000
0000
0000
0000
0000
0000
0000
0000
0000
3000
0000
M001
M100
M010
M100
,
M001
0010
0001
0100
0001
0010
0100
1000
0001
1000
0010
1000
0001
0010
0100
0010
,
0001
0100
0010
1000
0100
0010
0001
0010
0100
1000
0001
1000
0010
0100
0001
0100
,
0010
1000
0100
0010
0001
1000
0100
1000
0001
0100
0010
0100
0001
1000
0100
0010
,
0001
0100
0010
1000
0001
1000
0100
0010
0001
1000
0010
1000
0001
0010
0100
0010
,
0001
0100
0010
1000
0001
0010
0100
1000
0001
1000
0010
1000
0001
0010
0100
0010
,
0001
0100
0010
1000
0100
0010
0001
0010
0100
1000
0001
1000
0010
0100
0001
0100
,
0010
1000
0100
0010
0001
1000
0100
1000
0001
0100
0010
0100
0001
1000
0100
0010
,
0001
0100
0010
1000
0001
1000
0010
1000
0001
0010
0100
0010
0001
0100
0010
0100
,
0001
1000
0001
1000
0001
0010
0100
1000
0001
1000
0010
1000
0001
0010
0100
0010
,
0001
0100
0010
1000
0100
0010
0001
0010
0100
1000
0001
1000
0010
0100
0001
0100
,
0010
1000
0100
0010
0001
1000
0100
1000
0001
0100
0010
0100
0001
1000
0100
0010
,
0001
0100
0010
1000
0001
1000
0100
0010
0001
1000
0010
1000
0100
0010
0100
0010
,
0001
0100
0010
0100
0001
0010
0100
1000
0001
1000
0010
1000
0001
0010
0100
0010
,
0001
0100
0010
1000
0100
0010
0001
0010
0100
1000
0001
1000
0010
0100
0001
0100
,
0010
1000
0100
0010
0001
1000
0100
1000
0001
0100
0010
0100
0001
1000
0100
0010
,
0001
0100
0010
1000
0001
1000
0100
0010
0001
1000
0010
1000
0001
0010
0100
1000
,
0010
0100
0010
1000
0100
0010
0001
0010
0100
1000
0010
1000
0001
0100
0010
0100
,
0001
0010
0100
1000
0010
0100
0001
0100
0010
1000
0001
1000
0100
0010
0001
0010
,
0100
1000
0010
0100
0001
1000
0010
1000
0001
0010
0100
0010
0001
1000
0010
0100
,
0001
0010
0100
1000
0001
1000
0010
0100
0001
1000
0100
1000
0010
0100
0010
0100
,
0001
0010
0100
1000
0001
1000
0010
1000
0001
1000
0100
1000
0001
0100
0010
0100
,
0001
0010
0100
1000
0010
0100
0001
0100
0010
1000
0001
1000
0100
0010
0001
0010
,
0100
1000
0010
0100
0001
1000
0010
1000
0001
0010
0100
0010
0001
1000
0010
0100
,
0001
0010
0100
1000
0001
1000
0010
0100
0001
1000
0100
0010
0001
1000
0010
0100
,
0010
1000
0100
0010
0100
1000
0001
0010
0001
1000
0010
1000
0001
0100
0010
0100
,
0001
0010
0100
1000
0010
0100
0001
0100
0010
1000
0001
1000
0100
0010
0001
0010
,
0100
1000
0010
0100
0001
1000
0010
1000
0001
0010
0100
0010
0001
1000
0010
0100
,
0001
0010
0100
1000
0001
1000
0010
0100
0001
1000
0100
1000
0010
0100
0010
0100
,
0001
1000
0100
0010
0100
1000
0001
0100
0010
1000
0100
1000
0001
0100
0010
0100
,
0001
0010
0100
1000
0010
0100
0001
0100
0010
1000
0001
1000
0100
0010
0001
0010
,
0100
1000
0010
0100
0001
1000
0010
1000
0001
0010
0100
0010
0001
1000
0010
0100
,
0001
0010
0100
1000
0001
1000
0010
0100
0001
1000
0100
1000
0001
0100
0010
1000
,
0100
0010
0100
1000
0010
0100
0001
1000
0001
0010
0001
0100
0010
1000
0100
1000
,
0010
0100
0001
1000
0000
0000
0000
0000
0000
0000
0000
0000
0000
0000
0000
0000
;

//---------------dance-single - 15 (TYLR)----------------
#NOTES:
     dance-single:
     15 (TYLR):
     Hard:
     15:
     1.000,1.000,0.151,0.135,1.000,2392.000,37.000,33.000,108.000,0.000:
0000
0000
0000
0000
,
M021
0031
0100
0001
,
1000
0010
0100
0001
,
1000
0100
0010
0001
,
0100
0001
1000
0100
,
0010
0001
1000
0001
,
0100
0010
1000
0010
,
0100
0001
0010
0001
,
1000
0000
0000
0000
0100
0000
0000
0000
0010
0001
0000
0001
1000
0001
1000
0001
,
02M0
0000
0000
0000
0310
0000
0000
0000
1000
0001
1000
0000
0001
0010
0100
1000
,
0001
1000
0001
0000
0100
0001
0100
0010
1000
0001
1000
0000
0010
1000
0001
1000
,
0100
0010
0001
0000
1000
0001
1000
0010
0100
0001
0100
0000
0010
1000
0010
1000
,
0001
1000
0100
0000
0010
0001
0010
0100
1000
0001
1000
0000
0001
0100
0010
1000
,
0001
1000
0001
0000
1000
0100
1000
0100
0010
0001
0010
0000
0001
1000
0001
0100
,
0010
1000
0010
0000
0100
0001
0100
0001
1000
0100
1000
0000
0001
0010
0100
1000
,
001M
0100
0010
0000
1000
0010
0100
0001
1000
0100
1000
0000
0001
0100
0010
1000
,
0001
0000
0000
0000
0000
0000
0000
0000
0000
0000
0000
0000
0000
0000
0000
0000
1000
0000
0010
0000
1000
0000
0010
0000
M100
M000
M001
M000
M100
0000
0001
0000
,
2000
3000
0000
0000
0100
0000
0000
0000
1000
0000
0000
0000
0000
0000
0000
0000
0001
0000
0000
0000
0010
0000
0000
0000
0001
0000
0000
0000
0000
0000
0000
0000
1000
0000
0000
0000
0010
0000
0000
0000
0100
0000
0000
0000
0001
0000
0000
0000
0000
0000
0000
0000
1000
0000
0000
0000
0001
0000
0000
0000
0000
0000
0000
0000
,
0100
0010
0100
0000
0001
1000
0001
0000
1000
0100
0010
0001
0000
1000
0001
0000
,
0010
0100
0010
0000
0001
0010
0001
0000
1000
0001
0100
0010
0000
1000
0010
0000
,
0100
0000
0001
0000
0100
0000
0000
0000
0001
0000
1000
0000
0001
0000
0000
0000
0010
0000
0100
0000
1000
0000
0001
0000
M000
M000
M100
M000
M010
0000
0000
0000
,
1000
0001
1000
0000
0001
0010
0001
0000
1000
0100
0010
0001
0000
1000
0001
0000
,
0010
0100
0010
0000
0100
1000
0100
0000
1000
0001
0100
0010
0000
1000
0010
0000
,
0100
0001
0100
0000
0001
1000
0001
0000
1000
0100
0010
0001
0000
0010
0100
0000
,
1000
0000
0001
0000
1000
0000
0000
0000
0010
0000
1000
0000
0010
0000
0000
0000
0100
0000
0001
0000
0100
0000
0001
0000
0M10
0M00
0M01
0M00
0M10
0000
0001
0000
,
0020
0030
0000
0000
0100
0000
0000
0000
1000
0000
0000
0000
0000
0000
0000
0000
0001
0000
0000
0000
1000
0000
0000
0000
0100
0000
0000
0000
0000
0000
0000
0000
0010
0000
0000
0000
0001
0000
0000
0000
1000
0000
0000
0000
0010
0000
0000
0000
0000
0000
0000
0000
0100
0000
0000
0000
0001
0000
0000
0000
0000
0000
0000
0000
,
1000
0001
0100
0000
0010
1000
0001
0000
1000
0001
0010
0100
0000
1000
0001
0000
,
1000
0100
0010
0000
0001
0010
0100
0000
1000
0001
0100
0010
0000
1000
0010
0000
,
0100
0000
0001
0000
1000
0000
0000
0000
0010
0000
1000
0000
0001
0000
0000
0000
0010
0000
0100
0000
1000
0000
0001
0000
M000
M000
M100
M000
M010
0000
0000
0000
,
1000
0001
0010
0000
0100
0010
0001
0000
1000
0010
0100
0001
0000
1000
0001
0000
,
0010
0100
1000
0000
0001
0100
0010
0000
1000
0100
0010
0001
0000
0100
0010
0000
,
1000
0010
1000
0010
0100
0001
0100
0001
0010
0100
1000
0010
0100
0001
0010
0100
,
4000
0000
0000
0000
0000
0000
0000
0000
3001
0100
0001
0100
0001
0100
0001
0100
,
0001
1000
0001
1000
0001
0000
0001
0000
0100
0000
0010
0000
1010
0000
1000
0000
,
0100
0010
0100
0010
0100
0000
0100
0000
1000
0000
0001
0000
0101
0000
0100
0000
,
0010
1000
0010
1000
0010
0000
0010
0000
0100
0000
0001
0000
1001
0000
1000
0000
,
0100
0010
0100
0010
0100
0000
0100
0000
1000
0000
0001
0000
0101
0000
0100
0000
,
0010
1000
0010
1000
0010
0000
0010
0000
0100
0000
0001
0000
1001
0000
1000
0000
,
0100
1000
010M
1000
0100
0000
0100
0000
0010
0000
0001
0000
1001
0000
1000
0000
,
0010
0100
0010
0100
0010
0000
0010
0000
1000
0000
0001
0000
0011
0000
0010
0000
,
0100
0000
1000
0001
0100
0000
0000
0000
0010
0000
0100
0001
1000
0001
1000
0001
,
0010
0100
0010
0100
0010
0000
0010
0000
0001
0000
1000
0000
1010
0000
0010
0000
,
0100
0001
0100
0001
0100
0000
0100
0000
0010
0000
1000
0000
1001
0000
0001
0000
,
0010
0100
0010
0100
0010
0000
0010
0000
0001
0000
1000
0000
0001
0100
0001
0000
,
1000
0010
1000
0010
1000
0000
1000
0000
0001
0000
0010
0000
0110
0000
0100
0000
,
1000
0001
1000
0001
1000
0000
1000
0000
0010
0000
0100
0000
0101
0000
0001
0000
,
0010
0001
0010
0001
0010
0000
0010
0000
0100
0000
1000
0000
1001
0000
0001
0000
,
0100
0010
0100
0010
0100
0000
0100
0000
0001
0000
1000
0000
0100
0010
0100
0000
,
4000
0000
0000
0000
0000
0000
0000
0000
3001
0100
0001
0100
0001
0100
0001
0100
,
0001
1000
0001
1000
0001
0000
0001
0000
0010
0000
0100
0000
1100
0000
1000
0000
,
0001
0100
0001
0100
0001
0000
0001
0000
0100
0000
0010
0000
1010
0000
1000
0000
,
0100
0010
0100
0010
0100
0000
0100
0000
1000
0000
0001
0000
0100
0001
0100
0000
,
0010
1000
0010
1000
0010
0000
0010
0000
0100
0000
0001
0000
1001
0000
1000
0000
,
0100
1000
0100
1000
0100
0000
0100
0000
0010
0000
0001
0000
1001
0000
1000
0000
,
0010
0100
0010
0100
0010
0000
0010
0000
1000
0000
0001
0000
0011
0000
0010
0000
,
0100
1000
0100
1000
0100
0000
0100
0000
0010
0000
0001
0000
1000
0001
1000
0000
,
0MM0
0000
0000
0000
M001
M010
M001
M010
M001
0000
0001
0000
M100
M000
M010
M000
,
M110
0000
0100
0000
M001
M100
M001
M100
M001
0000
0001
0000
M010
M000
M100
M000
,
M110
0000
0100
0000
10M0
01M0
10M0
01M0
10M0
0000
1000
0000
00M1
00M0
01M0
00M0
,
00M1
1000
0001
0000
10M0
01M0
10M0
01M0
10M0
0000
1000
0000
00M1
00M0
10M0
00M0
,
10M1
0000
0001
0000
0M10
0M01
0M10
0M01
0M10
0000
0010
0000
0M01
0M00
1M00
0M00
,
1M01
0000
0001
0000
1M00
0M10
1M00
0M10
1M00
0000
1000
0000
0M01
0M00
1M00
0M00
,
1M10
0000
0010
0000
010M
001M
010M
001M
010M
0000
0100
0000
001M
000M
100M
000M
,
001M
1000
0010
0000
4000
0004
0000
0000
0000
0000
0000
0000
0000
0000
0000
0000
,
0000
0000
0000
0000
0000
0000
0000
0000
0000
3000
0000
0000
0203
0000
0000
0000
0000
0000
0300
0000
0000
0000
0000
0000
0001
0000
0000
0000
0010
0000
0000
0000
0001
0000
0000
0000
1000
0000
0000
0000
0000
0000
0000
0000
0000
0000
0000
0000
,
0001
0000
0000
0000
0010
0000
0000
0000
0001
0000
0000
0000
0100
0000
0000
0000
0000
0000
0010
0000
0000
1000
0000
0000
0001
0000
0000
0000
0000
0000
0100
0000
0000
0001
0000
0000
0010
0000
0000
0000
0000
0000
0100
0000
0000
1000
0000
0000
,
0001
0000
0000
1000
0010
0100
0001
0000
0000
0010
0100
1000
0001
0000
1000
0000
0001
0000
0100
0000
0000
0000
0000
0000
,
0001
0000
0000
0000
1000
0000
0000
0000
0001
0000
0000
0000
0010
0000
0000
0000
0000
0000
0100
0000
0000
1000
0000
0000
0001
0000
0000
0000
0000
0000
0100
0000
0000
0001
0000
0000
0010
0000
0000
0000
0000
0000
0100
0000
0000
1000
0000
0000
,
0001
0000
0000
0000
0000
0000
20M2
0000
0000
3003
0000
0000
1000
0000
0010
0000
1000
0000
0001
0000
0000
0000
0000
0000
,
1000
0000
0000
0000
0010
0000
0000
0000
1000
0000
0000
0000
0100
0000
0000
0000
0000
0000
0010
0000
0000
0001
0000
0000
1000
0000
0000
0000
0000
0000
0100
0000
0000
1000
0000
0000
0010
0000
0000
0000
0000
0000
0100
0000
0000
0001
0000
0000
,
1000
0000
0000
0001
0010
0100
1000
0000
0000
0010
0100
0001
1000
0000
0001
0000
1000
0000
0100
0000
0000
0000
0000
0000
,
1000
0000
0000
0000
0001
0000
0000
0000
1000
0000
0000
0000
0010
0000
0000
0000
0000
0000
1000
0000
0000
0001
0000
0000
0010
0000
0000
0000
0000
0000
0100
0000
0000
1000
0000
0000
0010
0000
0000
0000
0000
0000
1000
0000
0000
0001
0000
0000
,
0010
0000
0100
0000
110M
0000
1000
0001
0100
0001
1000
0001
0010
0000
0100
1000
,
0100
0000
0000
0000
0000
0000
0010
0000
0000
0000
0000
0000
0011
0000
0000
0000
0000
0000
0001
0000
0000
1000
0000
0000
0001
0000
0100
0000
0010
0000
1000
0000
0010
0000
0100
0000
0001
0000
0000
0000
0000
0000
1000
0000
0000
0001
0000
0000
,
1000
0000
0001
0000
0011
0000
0010
0001
1000
0010
1000
0100
0010
0100
1000
0010
,
0100
0001
1000
0001
0010
0000
0001
1000
0010
1000
0001
1000
0100
0000
0010
0001
,
1000
0001
1000
0010
0100
0001
0100
0010
1000
0001
0010
0100
1000
0100
0010
0001
,
1000
0010
0100
0001
1000
0100
0010
0001
0100
0010
1000
0100
0010
0001
0100
0010
,
1000
0100
0010
0001
0100
0001
1000
0010
0100
0010
1000
0001
0010
0100
1000
0001
,
0010
0001
1000
0100
1000
0010
0100
0001
1000
0010
0100
0001
1000
0010
0100
0001
,
1000
0000
0000
0010
0000
0000
0100
0000
0000
0001
0000
0000
2000
3000
0000
0000
0002
0003
0000
0000
2000
3000
0000
0000
0002
0003
0000
0000
2000
3000
0000
0000
0002
0003
0000
0000
2000
3000
0000
0000
0002
0003
0000
0000
2000
3000
0000
0000
,
0020
0000
0030
0000
0000
0000
0000
0000
0000
0000
0000
0000
1000
0000
0000
0100
0000
0000
0010
0000
0000
0001
0000
0000
1000
0000
0000
0100
0000
0000
0010
0000
0000
0001
0000
0000
1000
0000
0000
0001
0000
0000
1000
0000
0000
0000
0000
0000
,
2002
0000
0000
0000
0000
0000
0000
0000
0000
0000
0000
0000
0000
0000
0000
0003
,
000M
0000
0000
0000
,
3100
0010
0100
0010
0001
1000
0001
0010
0001
1000
0010
0100
0001
1000
0001
0100
,
0010
1000
0001
0100
0001
1000
0001
0010
0001
1000
0010
0100
0001
1000
0001
0100
,
0010
1000
0010
1000
0001
1000
0001
0100
0001
1000
0100
0010
0001
1000
0001
0010
,
0100
1000
0001
0010
0001
1000
0001
0100
0001
1000
0100
0010
0001
1000
0001
0010
,
0100
1000
0100
1000
0001
1000
0001
0100
0001
1000
0100
0010
0001
1000
0001
0010
,
0100
1000
0001
0010
0001
1000
0001
0100
0001
1000
0100
0010
0001
1000
0001
0010
,
0100
1000
0100
1000
0001
1000
0001
0010
0001
1000
0010
0100
0001
1000
0001
0100
,
0010
1000
0001
0100
0001
1000
0001
0010
0001
1000
0010
0100
0001
1000
0001
0100
,
0010
1000
0100
0010
0001
1000
0001
0010
0001
1000
0010
0100
0001
1000
0001
0100
,
0010
1000
0001
0100
0001
1000
0001
0010
0001
1000
0010
0100
0001
1000
0001
0100
,
0010
1000
0010
1000
0001
1000
0001
0100
0001
1000
0100
0010
0001
1000
0001
0010
,
0100
1000
0001
0010
0001
1000
0001
0100
0001
1000
0100
0010
0001
1000
0001
0010
,
0100
1000
0100
1000
0001
1000
0001
0100
0001
1000
0100
0010
0001
1000
0001
0010
,
0100
1000
0001
0010
0001
1000
0001
0100
0001
1000
0100
0010
0001
1000
0001
0010
,
0100
1000
0100
1000
0001
1000
0001
0010
0001
1000
0010
0100
0001
1000
0001
0100
,
0010
1000
0001
0100
0001
1000
0001
0010
0001
1000
0010
0100
0001
1000
0100
0010
,
0100
1000
0010
0100
0001
1000
0001
0010
0001
1000
0010
0100
0001
1000
0001
0100
,
0010
1000
0001
0100
0001
1000
0001
0010
0001
1000
0010
0100
0001
1000
0001
0100
,
0010
1000
0010
1000
0001
1000
0001
0100
0001
1000
0100
0010
0001
1000
0001
0010
,
0100
1000
0001
0010
0001
1000
0001
0100
0001
1000
0100
0010
0001
1000
0001
0010
,
0100
1000
0100
1000
0001
1000
0001
0100
0001
1000
0100
0010
0001
1000
0001
0010
,
0100
1000
0001
0010
0001
1000
0001
0100
0001
1000
0100
0010
0001
1000
0001
0010
,
0100
1000
0100
1000
0001
1000
0001
0010
0001
1000
0010
0100
0001
1000
0001
0100
,
0010
1000
0001
0100
0001
1000
0001
0010
0001
1000
0010
0100
0001
1000
0001
0100
,
0010
1000
0100
0010
0001
1000
0001
0010
0001
1000
0010
0100
0001
1000
0001
0100
,
0010
1000
0001
0100
0001
1000
0001
0010
0001
1000
0010
0100
0001
1000
0001
0100
,
0010
1000
0010
1000
0001
1000
0001
0100
0001
1000
0100
0010
0001
1000
0001
0010
,
0100
1000
0001
0010
0001
1000
0001
0100
0001
1000
0100
0010
0001
1000
0001
0010
,
0100
1000
0100
1000
0001
1000
0001
0100
0001
1000
0100
0010
0001
1000
0001
0010
,
0100
1000
0001
0010
0001
1000
0001
0100
0001
1000
0100
0010
0001
1000
0001
0010
,
0100
1000
0100
1000
0001
1000
0001
0010
0001
1000
0010
0100
0001
1000
0001
0100
,
0010
1000
0001
0100
0001
1000
0001
0010
0001
1000
0010
0100
0001
1000
0100
0010
,
0100
1000
0010
0100
0001
1000
0100
1000
0001
1000
0100
1000
0001
1000
0100
0010
,
0100
0010
0001
1000
0010
1000
0001
1000
0010
1000
0001
1000
0010
1000
0001
1000
,
0001
1000
0100
0010
0001
1000
0100
1000
0001
1000
0100
1000
0001
1000
0100
1000
,
0100
0010
0001
1000
0010
1000
0001
1000
0010
1000
0001
1000
0010
1000
0001
1000
,
0001
1000
0001
1000
0001
0010
0100
0010
0001
0010
0100
0010
0001
0010
0100
1000
,
0100
1000
0001
0100
0010
1000
0001
1000
0010
1000
0001
1000
0010
1000
0001
1000
,
0001
1000
0100
0010
0001
0100
0010
0100
0001
0100
0010
0100
0001
0100
0010
1000
,
0010
1000
0001
0010
0100
1000
0001
1000
0100
1000
0001
1000
0100
1000
0001
0010
,
0001
1000
0010
0100
0010
1000
0001
1000
0010
1000
0001
1000
0010
1000
0001
1000
,
0001
1000
0100
0010
0001
1000
0100
1000
0001
1000
0100
1000
0001
1000
0100
1000
,
0100
0010
0001
1000
0010
0100
0001
0100
0010
0100
0001
0100
0010
0100
0001
0100
,
0001
1000
0100
0010
0001
1000
0100
1000
0001
1000
0100
1000
0001
1000
0100
1000
,
0100
0010
0001
1000
0010
0100
0001
0100
0010
0100
0001
0100
0010
0100
0001
0100
,
0001
0100
0010
1000
0001
0010
0100
0010
0001
0010
0100
0010
0001
0010
0100
1000
,
0100
1000
0001
0100
0010
1000
0001
1000
0010
1000
0001
1000
0010
1000
0001
1000
,
0001
1000
0100
0010
0001
1000
0100
1000
0001
1000
0100
1000
0001
1000
0100
0010
,
0100
0000
0000
1000
0000
0000
0010
0000
0000
0100
0000
0000
0002
0000
0000
0000
0000
0000
0003
0000
0000
0000
0000
0000
1000
0000
0000
0000
0100
0000
0000
0000
1000
0000
0000
0000
0001
0000
0000
0000
0000
0000
0000
0000
0000
0000
0000
0000
,
1000
0000
0000
0000
0100
0000
0000
0000
1000
0000
0000
0000
0010
0000
0000
0000
0000
0000
0100
0000
0000
0001
0000
0000
1000
0000
0000
0000
0000
0000
0010
0000
0000
1000
0000
0000
0100
0000
0000
0000
0000
0000
0010
0000
0000
0001
0000
0000
,
1000
0000
0000
0001
0100
0010
1000
0000
0000
0100
0010
0001
1000
0000
0001
0000
1000
0000
0010
0000
0000
0000
0000
0000
,
1000
0000
0000
0000
0001
0000
0000
0000
1000
0000
0000
0000
0100
0000
0000
0000
0000
0000
0010
0000
0000
0001
0000
0000
1000
0000
0000
0000
0000
0000
0010
0000
0000
1000
0000
0000
0100
0000
0000
0000
0000
0000
0010
0000
0000
0001
0000
0000
,
1000
0000
0000
1M01
0000
0000
0001
0100
0001
1000
0000
0000
,
0001
0000
0000
0000
0100
0000
0000
0000
0001
0000
0000
0000
0010
0000
0000
0000
0000
0000
0100
0000
0000
1000
0000
0000
0001
0000
0000
0000
0000
0000
0010
0000
0000
0001
0000
0000
0100
0000
0000
0000
0000
0000
0010
0000
0000
1000
0000
0000
,
0001
0000
0000
1000
0100
0010
0001
0000
0000
0100
0010
1000
0001
0000
1000
0000
0001
0000
0010
0000
0000
0000
0000
0000
,
0001
0000
0000
0000
1000
0000
0000
0000
0001
0000
0000
0000
0100
0000
0000
0000
0000
0000
0001
0000
0000
1000
0000
0000
0100
0000
0000
0000
0000
0000
0010
0000
0000
0001
0000
0000
0100
0000
0000
0000
0000
0000
0001
0000
0000
1000
0000
0000
,
0100
0000
0010
0000
M011
0000
0001
1000
0010
1000
0001
1000
0100
0000
0010
0001
,
0010
0000
0000
0000
0000
0000
0100
0000
0000
0000
0000
0000
1100
0000
0000
0000
0000
0000
1000
0000
0000
0001
0000
0000
1000
0000
0010
0000
0100
0000
0001
0000
0100
0000
0010
0000
1000
0000
0000
0000
0000
0000
0001
0000
0000
1000
0000
0000
,
0001
0000
1000
0000
1100
0000
0100
1000
0001
0100
0001
0010
0100
0010
0001
0100
,
0010
1000
0001
1000
0100
0000
1000
0001
0100
0001
1000
0001
0010
0000
0100
1000
,
0001
1000
0001
0100
0010
1000
0010
0100
0001
1000
0100
0010
0001
0010
0100
1000
,
0001
0100
0010
1000
0001
0010
0100
1000
0010
0100
0001
0010
0100
1000
0010
0100
,
0001
0010
0100
1000
0010
1000
0001
0100
0010
0100
0001
1000
0100
0010
0001
1000
,
0100
1000
0001
0010
0001
0100
0010
1000
0001
0100
0010
1000
0001
0100
0010
1000
,
0001
0000
0000
0100
0000
0000
0010
0000
0000
1000
0000
0000
0002
0003
0000
0000
2000
3000
0000
0000
0002
0003
0000
0000
2000
3000
0000
0000
0002
0003
0000
0000
2000
3000
0000
0000
0002
0003
0000
0000
2000
3000
0000
0000
0002
0003
0000
0000
,
0200
0000
0000
0000
0300
0000
0000
0000
0000
0000
0000
0000
0001
0000
0000
0010
0000
0000
0100
0000
0000
1000
0000
0000
0001
0000
0000
0010
0000
0000
0100
0000
0000
1000
0000
0000
0001
0000
0000
1000
0000
0000
0001
0000
0000
0000
0000
0000
,
2002
0000
0000
0000
,
0000
0000
0000
0000
0000
0000
0000
0000
0000
0000
0000
0003
000M
0000
0000
0000
0000
0000
0000
0000
0200
0000
0000
0000
0000
0000
0000
0000
0000
0000
0000
0000
,
0000
0000
0000
0000
0000
0000
0000
0000
0000
0000
0000
0000
0000
0000
0000
0000
0000
0000
0000
0000
0000
0000
0000
0000
0000
0000
0000
0000
0000
0000
0000
0300
,
0M00
0000
0000
0000
0000
0000
0000
0000
0000
0000
3000
0000
M001
M400
M000
M000
,
M000
0000
0000
0000
0301
0010
0100
1000
0001
1000
0010
1000
0001
0010
0100
0010
,
0001
0100
0010
1000
0100
0010
0001
0010
0100
1000
0001
1000
0010
0100
0001
0100
,
0010
1000
0100
0010
0001
1000
0100
1000
0001
0100
0010
0100
0001
1000
0100
0010
,
0001
0100
0010
1000
0001
1000
0100
0010
0001
1000
0010
1000
0001
0010
0100
0010
,
0001
0100
0010
1000
0001
0010
0100
1000
0001
1000
0010
1000
0001
0010
0100
0010
,
0001
0100
0010
1000
0100
0010
0001
0010
0100
1000
0001
1000
0010
0100
0001
0100
,
0010
1000
0100
0010
0001
1000
0100
1000
0001
0100
0010
0100
0001
1000
0100
0010
,
0001
0100
0010
1000
0001
1000
0010
1000
0001
0010
0100
0010
0001
0100
0010
0100
,
0001
1000
0001
1000
0001
0010
0100
1000
0001
1000
0010
1000
0001
0010
0100
0010
,
0001
0100
0010
1000
0100
0010
0001
0010
0100
1000
0001
1000
0010
0100
0001
0100
,
0010
1000
0100
0010
0001
1000
0100
1000
0001
0100
0010
0100
0001
1000
0100
0010
,
0001
0100
0010
1000
0001
1000
0100
0010
0001
1000
0010
1000
0100
0010
0100
0010
,
0001
0100
0010
0100
0001
0010
0100
1000
0001
1000
0010
1000
0001
0010
0100
0010
,
0001
0100
0010
1000
0100
0010
0001
0010
0100
1000
0001
1000
0010
0100
0001
0100
,
0010
1000
0100
0010
0001
1000
0100
1000
0001
0100
0010
0100
0001
1000
0100
0010
,
0001
0100
0010
1000
0001
1000
0100
0010
0001
1000
0010
1000
0001
0010
0100
1000
,
0010
0100
0010
1000
0100
0010
0001
0010
0100
1000
0010
1000
0001
0100
0010
0100
,
0001
0010
0100
1000
0010
0100
0001
0100
0010
1000
0001
1000
0100
0010
0001
0010
,
0100
1000
0010
0100
0001
1000
0010
1000
0001
0010
0100
0010
0001
1000
0010
0100
,
0001
0010
0100
1000
0001
1000
0010
0100
0001
1000
0100
1000
0010
0100
0010
0100
,
0001
0010
0100
1000
0001
1000
0010
1000
0001
1000
0100
1000
0001
0100
0010
0100
,
0001
0010
0100
1000
0010
0100
0001
0100
0010
1000
0001
1000
0100
0010
0001
0010
,
0100
1000
0010
0100
0001
1000
0010
1000
0001
0010
0100
0010
0001
1000
0010
0100
,
0001
0010
0100
1000
0001
1000
0010
0100
0001
1000
0100
0010
0001
1000
0010
0100
,
0010
1000
0100
0010
0100
1000
0001
0010
0001
1000
0010
1000
0001
0100
0010
0100
,
0001
0010
0100
1000
0010
0100
0001
0100
0010
1000
0001
1000
0100
0010
0001
0010
,
0100
1000
0010
0100
0001
1000
0010
1000
0001
0010
0100
0010
0001
1000
0010
0100
,
0001
0010
0100
1000
0001
1000
0010
0100
0001
1000
0100
1000
0010
0100
0010
0100
,
0001
1000
0100
0010
0100
1000
0001
0100
0010
1000
0100
1000
0001
0100
0010
0100
,
0001
0010
0100
1000
0010
0100
0001
0100
0010
1000
0001
1000
0100
0010
0001
0010
,
0100
1000
0010
0100
0001
1000
0010
1000
0001
0010
0100
0010
0001
1000
0010
0100
,
0001
0010
0100
1000
0001
1000
0010
0100
0001
1000
0100
1000
0001
0100
0010
1000
,
0100
0010
0100
1000
0010
0100
0001
1000
0001
0010
0001
0100
0010
1000
0100
1000
,
0010
0100
0001
1000
0000
0000
0000
0000
0000
0000
0000
0000
0000
0000
0000
0000
;

//---------------dance-single - 14- (TYLR)----------------
#NOTES:
     dance-single:
     14- (TYLR):
     Medium:
     14:
     1.000,1.000,0.163,0.131,1.000,2099.000,40.000,32.000,30.000,0.000:
0000
0000
0000
0000
,
1MM2
0100
0010
0100
,
1000
0010
0100
0010
,
1000
0100
1000
0010
,
0100
2003
0010
0100
,
0001
0010
0001
0100
,
0010
0100
0001
0010
,
0001
0000
0100
0000
0010
0000
0001
3000
,
1000
0000
0000
0000
0010
0000
0000
0000
0100
0001
0000
0001
1000
0001
1000
0001
,
0020
0000
0000
0000
0130
0000
0000
0000
1000
0001
1000
0000
0001
0010
0100
1000
,
0001
1000
0001
0000
0100
0001
0100
0010
1000
0001
1000
0000
0010
1000
0001
1000
,
0100
0010
0001
0000
1000
0001
1000
0010
0100
0001
0100
0000
0010
1000
0010
1000
,
0001
1000
0100
0000
0010
0001
0010
0100
1000
0001
1000
0000
0001
0100
0010
1000
,
0001
1000
0001
0000
1000
0100
1000
0100
0010
0001
0010
0000
0001
1000
0001
0100
,
0010
1000
0010
0000
0100
0001
0100
0001
1000
0100
1000
0000
0001
0010
0100
1000
,
001M
0100
0010
0000
1000
0010
0100
0001
1000
0100
1000
0000
0001
0100
0010
1000
,
0001
0000
0000
0000
0000
0000
0000
0000
1000
0010
1000
0010
M100
0001
0100
0001
,
2000
3000
0000
0000
0100
0000
0000
0000
1000
0000
0000
0000
0000
0000
0000
0000
0001
0000
0000
0000
0010
0000
0000
0000
0001
0000
0000
0000
0000
0000
0000
0000
1000
0000
0000
0000
0001
0000
0000
0000
1000
0000
0000
0000
0010
0000
0000
0000
0000
0000
0000
0000
0000
0000
0000
0000
1000
0000
0000
0000
0000
0000
0000
0000
,
0001
0010
0001
0000
1000
0100
1000
0000
0001
1000
0001
0100
0000
0000
0001
0000
,
1000
0100
1000
0000
0001
0010
0001
0000
1000
0010
1000
0001
0000
0000
0010
0000
,
0001
1000
0001
0000
0100
0010
0100
0000
0010
1000
0010
0100
M000
0000
0001
0000
,
1000
0100
1000
0000
0001
0100
0001
0000
1000
0010
1000
0001
0000
0000
1000
0000
,
0010
0100
0010
0000
1000
0010
1000
0000
0001
1000
0001
0010
0000
0000
0100
0000
,
1000
0100
1000
0000
0001
0100
0001
0000
1000
0010
1000
0001
0000
0000
0010
0000
,
0100
1000
0100
0000
0010
0001
0010
0000
0001
0100
0001
0100
001M
1000
0010
1000
,
0002
0003
0000
0000
1000
0000
0000
0000
0100
0000
0000
0000
0000
0000
0000
0000
0010
0000
0000
0000
0001
0000
0000
0000
1000
0000
0000
0000
0000
0000
0000
0000
0001
0000
0000
0000
1000
0000
0000
0000
0010
0000
0000
0000
0100
0000
0000
0000
0000
0000
0000
0000
0000
0000
0000
0000
0001
0000
0000
0000
0000
0000
0000
0000
,
0100
0010
1000
0000
0010
0100
0001
0000
1000
0001
0010
0100
0000
0000
1000
0000
,
0100
0010
0001
0000
1000
0001
0010
0000
0100
1000
0001
0100
0000
0000
0001
0000
,
1000
0100
1000
0000
0010
0100
0001
0000
1000
0100
0010
0001
00M0
0000
0100
0000
,
0001
1000
0100
0000
0010
0100
1000
0000
0001
0100
0010
1000
0000
0000
0001
0000
,
1000
0010
0100
0000
0001
1000
0100
0000
1000
0001
0100
0010
0000
0000
1000
0000
,
0001
1000
0010
0000
0100
0001
1000
0000
0100
0010
0001
1000
0000
0000
0001
0000
,
0400
0000
0000
0000
0000
0000
0000
0000
0310
1000
0010
1000
0010
1000
0010
1000
,
0001
1000
0001
1000
0001
0000
0001
0000
0010
0000
0100
0000
1100
0000
0000
0000
,
1000
0001
1000
0001
1000
0000
1000
0000
0010
0000
0100
0000
0101
0000
0000
0000
,
0001
1000
0001
1000
0001
0000
0001
0000
0010
0000
0100
0000
1100
0000
0000
0000
,
1000
0001
1000
0001
1000
0000
1000
0000
0001
0000
0100
0000
0110
0000
0000
0000
,
1000
0010
1000
0010
1000
0000
1000
0000
0001
0000
0010
0000
0110
0000
0000
0000
,
1000
0100
10M0
0100
1000
0000
1000
0000
0001
0000
1000
0000
1010
0000
0000
0000
,
0100
0001
0100
0001
0100
0000
0100
0000
0010
0000
1000
0000
1001
0000
0000
0000
,
0010
0000
0001
1000
0100
0000
0000
0000
0010
0000
0100
1000
0001
1000
0001
1000
,
0002
0003
0000
0000
0100
0000
0000
0000
0001
0000
0000
0000
0100
0000
0000
0000
0001
0000
0000
0000
0000
0000
0000
0000
0001
0000
0000
0000
0000
0000
0000
0000
0010
0000
0000
0000
0000
0000
0000
0000
0100
0000
0000
0000
0000
0000
0000
0000
1100
0000
0000
0000
0000
0000
0000
0000
0000
0000
0000
0000
0000
0000
0000
0000
,
0100
1000
0100
1000
0100
0000
0100
0000
0010
0000
0001
0000
1001
0000
0000
0000
,
0100
0001
0100
0001
0100
0000
0100
0000
0010
0000
0100
0000
0001
1000
0001
0000
,
1000
0100
1000
0100
1000
0000
1000
0000
0100
0000
0010
0000
0011
0000
0000
0000
,
0100
0001
0100
0001
0100
0000
0100
0000
0010
0000
1000
0000
1001
0000
0000
0000
,
M001
0010
0001
0010
0001
0000
0001
0000
1000
0000
0010
0000
0110
0000
0000
0000
,
1000
0001
1000
0001
1000
0000
1000
0000
0100
0000
0010
0000
0001
0010
0001
0000
,
4001
0000
0000
0000
0000
0000
0000
0000
3001
0100
0001
0100
0001
0100
0001
0100
,
0001
1000
0001
1000
0001
0000
0001
0000
0010
0000
0100
0000
1001
0000
1000
0000
,
0010
0100
0010
0100
0010
0000
0010
0000
1000
0000
0100
0000
0011
0000
0001
0000
,
0100
0010
0100
0010
0100
0000
0100
0000
0001
0000
0010
0000
0100
1000
0100
0000
,
1000
0010
1000
0010
1000
0000
1000
0000
0100
0000
0010
0000
1001
0000
0001
0000
,
0100
0001
0100
0001
0100
0000
0100
0000
0010
0000
1000
0000
1100
0000
0100
0000
,
0010
0001
0010
0001
0010
0000
0010
0000
0100
0000
1000
0000
1010
0000
0010
0000
,
0100
0001
0100
0001
0100
0000
0100
0000
0010
0000
1000
0000
0100
0010
0100
0000
,
M00M
0000
0000
0000
0M01
0010
0001
0010
0001
0000
0001
0000
M100
0000
0010
0000
,
1010
0000
1000
0000
00M1
1000
0001
1000
0001
0000
0001
0000
M010
0000
0100
0000
,
1100
0000
1000
0000
001M
1000
0010
1000
0010
0000
0010
0000
0100
0000
0010
0000
,
1000
0010
1000
0000
0M01
1000
0001
1000
0001
0000
0001
0000
M010
0000
0100
0000
,
1100
0000
1000
0000
0M01
1000
0001
1000
0001
0000
0001
0000
M100
0000
0010
0000
,
0110
0000
0100
0000
00M1
0100
0001
0100
0001
0000
0001
0000
1M00
0000
0100
0000
,
0110
0000
0010
0000
0M01
1000
0001
1000
0001
0000
0001
0000
M100
0000
0010
0000
,
1000
0010
1000
0000
4004
0000
0000
0000
0000
0000
0000
0000
0000
0000
0000
0000
,
0000
0000
0000
0003
0000
0000
3020
0000
0000
0000
0000
0000
1030
0000
0010
0000
1000
0000
0001
0000
0000
0000
0000
0000
,
1000
0000
0000
0000
0010
0000
0000
0000
1000
0000
0000
0000
0100
0000
0000
0000
0000
0000
0100
0000
0000
0010
0000
0000
0001
0000
0000
0000
0000
0000
0001
0000
0000
0100
0000
0000
0010
0000
0000
0000
0000
0000
0010
0000
0000
1000
0000
0000
,
0001
0000
0000
0000
0000
0000
0001
0000
0000
0010
0000
0000
0100
0000
0000
0000
0000
0000
0000
0000
0000
0000
0000
0000
1000
0000
0000
0000
0001
0000
0000
0000
1000
0000
0000
0000
0100
0000
0000
0000
0000
0000
0000
0000
0000
0000
0000
0000
,
1000
0000
0000
0000
0001
0000
0000
0000
1000
0000
0000
0000
0010
0000
0000
0000
0000
0000
0010
0000
0000
1000
0000
0000
0100
0000
0000
0000
0000
0000
0100
0000
0000
0010
0000
0000
0001
0000
0000
0000
0000
0000
0001
0000
0000
1000
0000
0000
,
0010
0000
0000
0000
0000
0000
0000
0000
0000
0000
0000
0000
0000
0000
0000
0000
0000
0000
0000
0000
0000
0000
0000
0000
0000
0000
0000
0000
0000
0000
0000
0000
0000
0000
0000
0000
0000
0000
0000
0000
0000
0000
0000
0000
0000
0000
0000
0000
2001
0000
0000
3000
0000
0000
0000
0000
0000
0000
0000
0000
0000
0000
0000
0000
0000
0000
0000
0000
0000
0000
0000
0000
0000
0000
0000
0000
0000
0000
0000
0000
0000
0000
0000
0000
0000
0000
0000
0000
0000
0000
0000
0000
0000
0000
0000
0000
0001
0000
0000
0000
0000
0000
0000
0000
0000
0000
0000
0000
0000
0000
0000
0000
0100
0000
0000
0000
0000
0000
0000
0000
0000
0000
0000
0000
0000
0000
0000
0000
0001
0000
0000
0000
0000
0000
0000
0000
0000
0000
0000
0000
0000
0000
0000
0000
1000
0000
0000
0000
0000
0000
0000
0000
0000
0000
0000
0000
0000
0000
0000
0000
0000
0000
0000
0000
0000
0000
0000
0000
0000
0000
0000
0000
0000
0000
0000
0000
0000
0000
0000
0000
0000
0000
0000
0000
0000
0000
0000
0000
0000
0000
0000
0000
,
0001
0000
0000
0000
0100
0000
0000
0000
0001
0000
0000
0000
0010
0000
0000
0000
0000
0000
0010
0000
0000
0100
0000
0000
1000
0000
0000
0000
0000
0000
1000
0000
0000
0010
0000
0000
0100
0000
0000
0000
0000
0000
0100
0000
0000
0001
0000
0000
,
1000
0000
0000
0000
0000
0000
1000
0000
0000
0100
0000
0000
0010
0000
0000
0000
0000
0000
0000
0000
0000
0000
0000
0000
0001
0000
0000
0000
1000
0000
0000
0000
0001
0000
0000
0000
0010
0000
0000
0000
0000
0000
0000
0000
0000
0000
0000
0000
,
0001
0000
0000
0000
1000
0000
0000
0000
0001
0000
0000
0000
0100
0000
0000
0000
0000
0000
0100
0000
0000
0001
0000
0000
0010
0000
0000
0000
0000
0000
0010
0000
0000
0100
0000
0000
1000
0000
0000
0000
0000
0000
1000
0000
0000
0001
0000
0000
,
0100
0000
0000
0000
0000
0000
0000
0000
0000
0000
0000
0000
0000
0000
0000
0000
2001
3000
0000
0000
0000
0000
0000
0000
0001
0000
0000
0000
1000
0000
0000
0000
0010
0000
0000
0000
1000
0000
0000
0000
0001
0000
0000
0000
1000
0000
0000
0000
0100
0000
0000
0000
0000
0000
0000
0000
0010
0000
0000
0000
0001
0000
0000
0000
,
0010
0000
0100
0000
1100
0000
1000
0001
0100
0001
1000
0100
0010
0000
0001
1000
,
0001
0000
0010
0000
1001
0000
1000
0010
0100
0010
1000
0001
0010
0001
1000
0010
,
0100
0001
1000
0001
0010
0000
0001
1000
0010
1000
0001
1000
0100
0000
0010
0001
,
1000
0000
0000
0000
0001
0000
0000
0000
1000
0000
0000
0000
0010
0000
0000
0000
0200
0300
0000
0000
0001
0000
0000
0000
0100
0000
0000
0000
0010
0000
0000
0000
1000
0000
0000
0000
0001
0000
0000
0000
0010
0000
0000
0000
0100
0000
0000
0000
1000
0000
0000
0000
0100
0000
0000
0000
0010
0000
0000
0000
0001
0000
0000
0000
,
1000
0010
0100
0001
1000
0100
0010
0001
0100
0010
1000
0100
0010
0001
0100
0010
,
1000
0100
0010
0001
0100
0001
1000
0010
0100
0010
1000
0001
0010
0100
1000
0001
,
0010
0000
0000
0000
0001
0000
0000
0000
1000
0000
0000
0000
0100
0000
0000
0000
2000
3000
0000
0000
0010
0000
0000
0000
0100
0000
0000
0000
0001
0000
0000
0000
1000
0000
0000
0000
0010
0000
0000
0000
0100
0000
0000
0000
0001
0000
0000
0000
1000
0000
0000
0000
0010
0000
0000
0000
0100
0000
0000
0000
0001
0000
0000
0000
,
1000
0000
0000
0010
0000
0000
0100
0000
0000
0001
0000
0000
1000
0000
0000
0000
0001
0000
0000
0000
1000
0000
0000
0000
0001
0000
0000
0000
1000
0000
0000
0000
0001
0000
0000
0000
1000
0000
0000
0000
0001
0000
0000
0000
1000
0000
0000
0000
,
0200
0000
0300
0000
0000
0000
0000
0000
0000
0000
0000
0000
1000
0000
0000
0001
0000
0000
0100
0000
0000
0000
0000
0000
0001
0000
0000
1000
0000
0000
0100
0000
0000
0000
0000
0000
1000
0000
0000
0001
0000
0000
1000
0000
0000
0000
0000
0000
,
0202
0000
0000
0000
,
M300
0000
0000
0000
,
1003
0100
1000
0100
0010
0000
0100
1000
0001
0000
0100
0000
0010
1000
0001
0000
,
0010
0100
0010
0000
0001
0000
1000
0010
0100
0000
0001
0000
1000
0001
1000
0000
,
0100
0010
0100
0010
0001
0000
1000
0001
0100
0000
0010
0000
1000
0001
1000
0000
,
0100
0010
0001
0000
1000
0000
0001
1000
0010
0000
0100
0000
0001
0100
0010
0000
,
1000
0001
1000
0001
0010
0000
0100
1000
0001
0000
0010
0000
0001
1000
0001
0000
,
0100
0010
0100
0000
0001
0000
1000
0001
0100
0000
0010
0000
1000
0001
1000
0000
,
0001
0010
0001
0010
0100
0000
1000
0001
0010
0000
0100
0000
1000
0100
1000
0000
,
0001
1000
0001
0000
0100
0000
0010
1000
0001
0000
0010
0000
0100
1000
0000
1000
,
0001
0000
0000
0000
1000
0000
0000
0000
0001
0000
0000
0000
1000
0000
0000
0000
0020
0030
0000
0000
0000
0000
0000
0000
1000
0000
0000
0000
0100
0000
0000
0000
0010
0000
0000
0000
0000
0000
0000
0000
0001
0000
0000
0000
0000
0000
0000
0000
0100
0000
0000
0000
0001
0000
0000
0000
1000
0000
0000
0000
0000
0000
0000
0000
,
0100
0010
0100
0000
1000
0000
0001
0100
0010
0000
1000
0000
0001
1000
0001
0000
,
0010
0100
0010
0100
1000
0000
0001
1000
0010
0000
0100
0000
0001
1000
0001
0000
,
0010
0100
1000
0000
0001
0000
1000
0001
0100
0000
0010
0000
1000
0010
0100
0000
,
0001
1000
0001
1000
0100
0000
0010
0001
1000
0000
0100
0000
1000
0001
1000
0000
,
0010
0100
0010
0000
1000
0000
0001
1000
0010
0000
0100
0000
0001
1000
0001
0000
,
1000
0100
1000
0100
0010
0000
0001
1000
0100
0000
0010
0000
0001
0010
0001
0000
,
1000
0000
0000
0000
0000
0000
0000
0000
0000
0000
0000
0000
0001
0000
0000
0000
0000
0000
0000
0000
0000
0000
0000
0000
1000
0000
0000
0000
0000
0000
0000
0000
0000
0000
0000
0000
0000
0000
0000
0000
0000
0000
0000
0000
0000
0000
0000
0000
0020
0000
0000
0030
0000
0000
0000
0000
0000
0000
0000
0000
0000
0000
0000
0000
0000
0000
0000
0000
0000
0000
0000
0000
1000
0000
0000
0000
0000
0000
0000
0000
0000
0000
0000
0000
0000
0000
0000
0000
0000
0000
0000
0000
0000
0000
0000
0000
0001
0000
0000
0000
0000
0000
0000
0000
0000
0000
0000
0000
0010
0000
0000
0000
0000
0000
0000
0000
0000
0000
0000
0000
0001
0000
0000
0000
0000
0000
0000
0000
0000
0000
0000
0000
0010
0000
0000
0000
0000
0000
0000
0000
0000
0000
0000
0000
0100
0000
0000
0000
0000
0000
0000
0000
0000
0000
0000
0000
0000
0000
0000
0000
0000
0000
0000
0000
0000
0000
0000
0000
1000
0000
0000
0000
0000
0000
0000
0000
0100
0000
0000
0000
0000
0000
0000
0000
1000
0000
0000
0000
0000
0000
0000
0000
,
0100
0000
0000
0000
0000
0000
1000
0000
0001
0000
1000
0000
0001
0000
0000
0000
0000
0000
0100
0000
0000
0001
0000
0000
1000
0000
0000
0000
0000
0000
0100
0000
0000
0000
0000
0000
0010
0000
0000
0100
0000
0000
1000
0000
0000
0000
0000
0000
,
0001
0100
0001
0000
1000
0000
0001
0010
0100
0000
1000
0000
0001
0100
0001
0000
,
0010
0100
0010
0100
1000
0000
0001
1000
0010
0000
0100
0000
0001
1000
0001
0000
,
0010
0100
1000
0000
0001
0000
1000
0001
0100
0000
0010
0000
1000
0010
0100
0000
,
0001
1000
0001
1000
0100
0000
0010
0001
1000
0000
0100
0000
1000
0001
1000
0000
,
0010
0100
0010
0000
1000
0000
0001
1000
0010
0000
0100
0000
0001
1000
0001
0000
,
1000
0100
1000
0100
0010
0000
0001
1000
0100
0000
0010
0000
0001
0010
0001
0000
,
1000
0000
0000
0000
0000
0000
0000
0000
0000
0000
0000
0000
0001
0000
0000
0000
0000
0000
0000
0000
0000
0000
0000
0000
1000
0000
0000
0000
0000
0000
0000
0000
0000
0000
0000
0000
0000
0000
0000
0000
0000
0000
0000
0000
0000
0000
0000
0000
0020
0000
0000
0030
0000
0000
0000
0000
0000
0000
0000
0000
0000
0000
0000
0000
0000
0000
0000
0000
0000
0000
0000
0000
1000
0000
0000
0000
0000
0000
0000
0000
0000
0000
0000
0000
0000
0000
0000
0000
0000
0000
0000
0000
0000
0000
0000
0000
0001
0000
0000
0000
0000
0000
0000
0000
0000
0000
0000
0000
1000
0000
0000
0000
0000
0000
0000
0000
0000
0000
0000
0000
0001
0000
0000
0000
0000
0000
0000
0000
0000
0000
0000
0000
1000
0000
0000
0000
0000
0000
0000
0000
0000
0000
0000
0000
0100
0000
0000
0000
0000
0000
0000
0000
0000
0000
0000
0000
0000
0000
0000
0000
0000
0000
0000
0000
0000
0000
0000
0000
0010
0000
0000
0000
0000
0000
0000
0000
0001
0000
0000
0000
0000
0000
0000
0000
0010
0000
0000
0000
0000
0000
0000
0000
,
0001
0000
0000
0000
0000
0000
0100
0000
0001
0000
0100
0000
0001
0000
0000
0000
0000
0000
0010
0000
0000
0001
0000
0000
1000
0000
0000
0000
0000
0000
0010
0000
0000
0000
0000
0000
0100
0000
0000
0001
0000
0000
1000
0000
0000
0000
0000
0000
,
0100
0010
0100
0000
1000
0000
0001
0100
0010
0000
1000
0000
0001
1000
0001
0000
,
0010
0100
0010
0100
1000
0000
0001
1000
0010
0000
0100
0000
0001
1000
0001
0000
,
0010
0100
1000
0000
0001
0000
1000
0001
0100
0000
0010
0000
1000
0010
0100
0000
,
0001
1000
0001
1000
0100
0000
0010
0001
1000
0000
0100
0000
1000
0001
1000
0000
,
0010
0100
0010
0000
1000
0000
0001
1000
0010
0000
0100
0000
0001
1000
0001
0000
,
1000
0100
1000
0100
0010
0000
0001
1000
0100
0000
0010
0000
0001
0010
0001
0000
,
1000
0000
0000
0000
0000
0000
0000
0000
0000
0000
0000
0000
0001
0000
0000
0000
0000
0000
0000
0000
0000
0000
0000
0000
1000
0000
0000
0000
0000
0000
0000
0000
0000
0000
0000
0000
0000
0000
0000
0000
0000
0000
0000
0000
0000
0000
0000
0000
0020
0000
0000
0030
0000
0000
0000
0000
0000
0000
0000
0000
0000
0000
0000
0000
0000
0000
0000
0000
0000
0000
0000
0000
0100
0000
0000
0000
0000
0000
0000
0000
0000
0000
0000
0000
0000
0000
0000
0000
0000
0000
0000
0000
0000
0000
0000
0000
0001
0000
0000
0000
0000
0000
0000
0000
0000
0000
0000
0000
1000
0000
0000
0000
0000
0000
0000
0000
0000
0000
0000
0000
0001
0000
0000
0000
0000
0000
0000
0000
0000
0000
0000
0000
1000
0000
0000
0000
0000
0000
0000
0000
0000
0000
0000
0000
0100
0000
0000
0000
0000
0000
0000
0000
0000
0000
0000
0000
0000
0000
0000
0000
0000
0000
0000
0000
0000
0000
0000
0000
0010
0000
0000
0000
0000
0000
0000
0000
0001
0000
0000
0000
0000
0000
0000
0000
0010
0000
0000
0000
0000
0000
0000
0000
,
0001
0000
0000
0000
0000
0000
1000
0000
0001
0000
1000
0000
0001
0000
0000
0000
0000
0000
0100
0000
0000
0000
0000
0000
0001
0000
0000
0000
0000
0000
0100
0000
0000
0000
0000
0000
0001
0000
0000
0000
0000
0000
1000
0000
0000
0001
0000
0000
,
1000
0001
1000
0001
0010
0000
0100
0000
0010
0000
0100
0000
0010
0000
0100
1000
,
0100
1000
0100
1000
0001
0000
1000
0000
0001
0000
1000
0000
0001
0000
0100
0010
,
0100
0010
0100
0010
1000
0000
0001
0000
1000
0000
0001
0000
1000
0000
0100
1000
,
0100
0000
0000
0000
0000
0000
0010
0000
0001
0000
0010
0000
0001
0000
0000
0000
0000
0000
1000
0000
0000
0000
0000
0000
0001
0000
0000
0000
0000
0000
1000
0000
0000
0000
0000
0000
0001
0000
0000
0000
0000
0000
0100
0000
0000
0010
0000
0000
,
0100
0010
0100
0010
1000
0000
0010
0000
1000
0000
0010
0000
1000
0000
0001
0010
,
0001
0010
0001
0010
0100
0000
1000
0000
0100
0000
1000
0000
0100
0000
0010
0001
,
0010
0000
0000
0001
0000
0000
0010
0000
0000
0001
0000
0000
1M00
0000
0000
0000
0000
0000
0001
0000
0000
0000
0000
0000
1000
0000
0000
0000
0000
0000
0001
0000
0000
0000
0000
0000
1000
0000
0000
0000
0000
0000
0001
0000
0100
0000
0001
0000
,
0100
0000
0000
0010
1000
0010
1000
0000
0000
0001
0000
0000
0010
0000
0001
0000
0010
0000
0100
0000
0000
1000
0000
0000
,
0001
0000
0000
0000
0010
0000
0000
0000
0001
0000
0000
0000
0100
0000
0000
0000
0000
0000
0001
0000
0000
1000
0000
0000
0100
0000
0000
0000
0000
0000
0010
0000
0000
0001
0000
0000
1000
0000
0000
0000
0000
0000
0001
0000
0000
0010
0000
0000
,
0100
0000
0000
0000
0000
0000
1000
0000
0000
0001
0000
0000
0100
0000
0000
0000
0000
0000
0001
0000
0000
0000
0000
0000
1000
0000
0000
0000
0010
0000
0000
0000
1000
0000
0000
0000
0001
0000
0000
0000
0000
0000
1000
0000
0000
0000
0000
0000
,
0010
0000
0000
0000
1000
0000
0000
0000
0010
0000
0000
0000
0100
0000
0000
0000
0000
0000
0001
0000
0000
1000
0000
0000
0100
0000
0000
0000
0000
0000
0010
0000
0000
0001
0000
0000
0100
0000
0000
0000
0000
0000
0001
0000
0000
1000
0000
0000
,
0100
0000
0000
0010
0001
0010
0001
0000
0000
1000
0000
0000
0001
0000
0100
0000
0001
0000
1000
0000
0000
0001
0000
0000
,
0100
0000
0000
0000
0001
0000
0000
0000
0100
0000
0000
0000
0010
0000
0000
0000
0000
0000
1000
0000
0000
0010
0000
0000
0100
0000
0000
0000
0000
0000
0001
0000
0000
1000
0000
0000
0100
0000
0000
0000
0000
0000
0010
0000
0000
0001
0000
0000
,
1000
0000
0000
0000
0000
0000
0001
0000
0000
0100
0000
0000
0010
0000
0000
0000
0000
0000
1000
0000
0000
0010
0000
0000
0100
0000
0000
0000
0001
0000
0000
0000
0100
0000
0000
0000
0010
0000
0000
0000
0000
0000
1000
0000
0000
0000
0000
0000
,
0010
0000
0000
0000
0100
0000
0000
0000
0001
0000
0000
0000
1000
0000
0000
0000
0000
0000
0100
0000
0000
0010
0000
0000
0001
0000
0000
0000
0000
0000
1000
0000
0000
0001
0000
0000
0100
0000
0000
0000
0000
0000
0010
0000
0000
1000
0000
0000
,
0001
0000
0000
0000
0000
0000
0010
0000
0000
0100
0000
0000
200M
0000
0000
0000
0000
0000
3000
0000
0000
0000
0000
0000
0001
0000
0000
0000
0100
0000
0000
0000
0001
0000
0000
0000
1000
0000
0000
0000
0000
0000
0000
0000
0000
0000
0000
0000
,
0001
0000
0000
0000
0100
0000
0000
0000
0001
0000
0000
0000
0010
0000
0000
0000
0000
0000
0010
0000
0000
0100
0000
0000
1000
0000
0000
0000
0000
0000
1000
0000
0000
0010
0000
0000
0100
0000
0000
0000
0000
0000
0100
0000
0000
0001
0000
0000
,
1000
0000
0000
0000
0000
0000
1000
0000
0000
0100
0000
0000
0010
0000
0000
0000
0000
0000
0000
0000
0000
0000
0000
0000
0001
0000
0000
0000
1000
0000
0000
0000
0001
0000
0000
0000
0010
0000
0000
0000
0000
0000
0000
0000
0000
0000
0000
0000
,
0001
0000
0000
0000
1000
0000
0000
0000
0001
0000
0000
0000
0100
0000
0000
0000
0000
0000
0100
0000
0000
0001
0000
0000
0010
0000
0000
0000
0000
0000
0010
0000
0000
0100
0000
0000
1000
0000
0000
0000
0000
0000
1000
0000
0000
0001
0000
0000
,
0100
0000
0000
0000
0000
0000
0000
0000
0000
0000
0000
0000
0000
0000
0000
0000
0000
0000
0000
0000
0000
0000
0000
0000
0000
0000
0000
0000
0000
0000
0000
0000
0000
0000
0000
0000
0000
0000
0000
0000
0000
0000
0000
0000
0000
0000
0000
0000
1002
0000
0000
0003
0000
0000
0000
0000
0000
0000
0000
0000
0000
0000
0000
0000
0000
0000
0000
0000
0000
0000
0000
0000
0000
0000
0000
0000
0000
0000
0000
0000
0000
0000
0000
0000
0000
0000
0000
0000
0000
0000
0000
0000
0000
0000
0000
0000
1000
0000
0000
0000
0000
0000
0000
0000
0000
0000
0000
0000
0000
0000
0000
0000
0010
0000
0000
0000
0000
0000
0000
0000
0000
0000
0000
0000
0000
0000
0000
0000
1000
0000
0000
0000
0000
0000
0000
0000
0000
0000
0000
0000
0000
0000
0000
0000
0001
0000
0000
0000
0000
0000
0000
0000
0000
0000
0000
0000
0000
0000
0000
0000
0000
0000
0000
0000
0000
0000
0000
0000
0000
0000
0000
0000
0000
0000
0000
0000
0000
0000
0000
0000
0000
0000
0000
0000
0000
0000
0000
0000
0000
0000
0000
0000
,
1000
0000
0000
0000
0010
0000
0000
0000
1000
0000
0000
0000
0100
0000
0000
0000
0000
0000
0100
0000
0000
0010
0000
0000
0001
0000
0000
0000
0000
0000
0001
0000
0000
0100
0000
0000
0010
0000
0000
0000
0000
0000
0010
0000
0000
1000
0000
0000
,
0001
0000
0000
0000
0000
0000
0001
0000
0000
0010
0000
0000
0100
0000
0000
0000
0000
0000
0000
0000
0000
0000
0000
0000
1000
0000
0000
0000
0001
0000
0000
0000
1000
0000
0000
0000
0100
0000
0000
0000
0000
0000
0000
0000
0000
0000
0000
0000
,
1000
0000
0000
0000
0001
0000
0000
0000
1000
0000
0000
0000
0010
0000
0000
0000
0000
0000
0010
0000
0000
1000
0000
0000
0100
0000
0000
0000
0000
0000
0100
0000
0000
0010
0000
0000
0001
0000
0000
0000
0000
0000
0001
0000
0000
1000
0000
0000
,
0010
0000
0000
0000
0000
0000
0000
0000
0000
0000
0000
0000
0000
0000
0000
0000
1002
0003
0000
0000
0000
0000
0000
0000
1000
0000
0000
0000
0001
0000
0000
0000
0100
0000
0000
0000
0001
0000
0000
0000
1000
0000
0000
0000
0001
0000
0000
0000
0010
0000
0000
0000
0000
0000
0000
0000
0100
0000
0000
0000
1000
0000
0000
0000
,
0100
0000
0010
0000
0011
0000
0001
1000
0010
1000
0001
0010
0100
0000
1000
0001
,
1000
0000
0100
0000
1001
0000
0001
0100
0010
0100
0001
1000
0100
1000
0001
0100
,
0010
1000
0001
1000
0100
0000
1000
0001
0100
0001
1000
0001
0010
0000
0100
1000
,
0001
0000
0000
0000
1000
0000
0000
0000
0001
0000
0000
0000
0100
0000
0000
0000
0020
0030
0000
0000
1000
0000
0000
0000
0010
0000
0000
0000
0100
0000
0000
0000
0001
0000
0000
0000
1000
0000
0000
0000
0100
0000
0000
0000
0010
0000
0000
0000
0001
0000
0000
0000
0010
0000
0000
0000
0100
0000
0000
0000
1000
0000
0000
0000
,
0001
0100
0010
1000
0001
0010
0100
1000
0010
0100
0001
0010
0100
1000
0010
0100
,
0001
0010
0100
1000
0010
1000
0001
0100
0010
0100
0001
1000
0100
0010
0001
1000
,
0100
0000
0000
0000
1000
0000
0000
0000
0001
0000
0000
0000
0010
0000
0000
0000
0002
0003
0000
0000
0100
0000
0000
0000
0010
0000
0000
0000
1000
0000
0000
0000
0001
0000
0000
0000
0100
0000
0000
0000
0010
0000
0000
0000
1000
0000
0000
0000
0001
0000
0000
0000
0100
0000
0000
0000
0010
0000
0000
0000
1000
0000
0000
0000
,
0001
0000
0000
0100
0000
0000
0010
0000
0000
1000
0000
0000
0001
0000
0000
0000
1000
0000
0000
0000
0001
0000
0000
0000
1000
0000
0000
0000
0001
0000
0000
0000
1000
0000
0000
0000
0001
0000
0000
0000
1000
0000
0000
0000
0001
0000
0000
0000
,
0020
0000
0030
0000
0000
0000
0000
0000
0000
0000
0000
0000
0001
0000
0000
1000
0000
0000
0010
0000
0000
0000
0000
0000
1000
0000
0000
0001
0000
0000
0010
0000
0000
0000
0000
0000
0001
0000
0000
1000
0000
0000
0001
0000
0000
0000
0000
0000
,
2020
0000
0000
0000
,
0000
0000
0000
0030
0000
00M0
0000
0000
,
0000
0000
0000
0000
,
3M00
0000
0000
0000
0000
0000
0000
0000
0000
0000
0000
0000
1M00
0004
0000
0000
,
0000
0000
0000
0000
1003
0100
0010
0001
1000
0001
0100
0001
1000
0100
0010
0100
,
1000
0010
0100
0001
0010
0100
1000
0100
0010
0001
1000
0001
0100
0010
1000
0010
,
0100
0001
0010
0100
1000
0001
0010
0001
1000
0010
0100
0010
1000
0001
0010
0100
,
1000
0010
0100
0001
1000
0001
0010
0100
1000
0001
0100
0001
1000
0100
0010
0001
,
1000
0000
0010
1000
0001
0010
0100
1000
0001
1000
0010
1000
0001
0010
0100
0010
,
0001
0100
0010
1000
0100
0010
0001
0010
0100
1000
0001
1000
0010
0100
0001
0100
,
0010
1000
0100
0010
0001
1000
0100
1000
0001
0100
0010
0100
0001
1000
0100
0010
,
0001
0100
0010
1000
0001
0000
0000
0000
1000
0000
0000
0000
0001
0010
0000
0100
,
1000
0000
0000
0000
0100
0000
0000
0000
1000
0000
0000
0000
0100
0000
0000
0000
0020
0030
0000
0000
0001
0000
0000
0000
1000
0000
0000
0000
0001
0000
0000
0000
1000
0000
0000
0000
0100
0000
0000
0000
0010
0000
0000
0000
0001
0000
0000
0000
1000
0000
0000
0000
0010
0000
0000
0000
0100
0000
0000
0000
0010
0000
0000
0000
,
1000
0100
0010
0001
0100
0010
1000
0010
0100
0001
1000
0001
0010
0100
1000
0100
,
0010
0001
0100
0010
1000
0001
0100
0001
1000
0100
0010
0100
1000
0001
0100
0010
,
1000
0100
0010
0001
1000
0001
0100
0010
1000
0001
0010
0001
0100
0010
0100
0010
,
1000
0000
0004
0000
1003
0100
0010
0001
1000
0001
0100
0001
1000
0100
0010
0100
,
1000
0010
0100
0001
0010
0100
1000
0100
0010
0001
1000
0001
0100
0010
1000
0010
,
0100
0001
0010
0100
1000
0001
0010
0001
1000
0010
0100
0010
1000
0001
0010
0100
,
1000
0000
0000
0000
0000
0000
0000
0000
0000
0000
0000
0000
0010
0000
0000
0000
0000
0000
0000
0000
0000
0000
0000
0000
0100
0000
0000
0000
0000
0000
0000
0000
0000
0000
0000
0000
0001
0000
0000
0000
0000
0000
0000
0000
0000
0000
0000
0000
2000
0000
0000
3000
0000
0000
0000
0000
0000
0000
0000
0000
0000
0000
0000
0000
0000
0000
0000
0000
0000
0000
0000
0000
0100
0000
0000
0000
0000
0000
0000
0000
0000
0000
0000
0000
1000
0000
0000
0000
0000
0000
0000
0000
0000
0000
0000
0000
0001
0000
0000
0000
0000
0000
0000
0000
0000
0000
0000
0000
1000
0000
0000
0000
0000
0000
0000
0000
0000
0000
0000
0000
0001
0000
0000
0000
0000
0000
0000
0000
0000
0000
0000
0000
1000
0000
0000
0000
0000
0000
0000
0000
0000
0000
0000
0000
0010
0000
0000
0000
0000
0000
0000
0000
0000
0000
0000
0000
0000
0000
0000
0000
0000
0000
0000
0000
0000
0000
0000
0000
0100
0000
0000
0000
0000
0000
0000
0000
0001
0000
0000
0000
0000
0000
0000
0000
0100
0000
0000
0000
0000
0000
0000
0000
,
0001
0000
0000
0000
0000
0000
0000
0000
0000
0000
0000
0000
0000
0000
0000
0000
0000
0000
0000
0000
0000
0000
0000
0000
1000
0000
0000
0000
0000
0000
0000
0000
0001
0000
0000
0000
0000
0000
0000
0000
1000
0000
0000
0000
0000
0000
0000
0000
0002
0000
0000
0003
0000
0000
0000
0000
0000
0000
0000
0000
0010
0000
0000
0000
0000
0000
0000
0000
0000
0000
0000
0000
0100
0000
0000
0000
0000
0000
0000
0000
0000
0000
0000
0000
1000
0000
0000
0000
0000
0000
0000
0000
0000
0000
0000
0000
0001
0000
0000
0000
0000
0000
0000
0000
0000
0000
0000
0000
1000
0000
0000
0000
0000
0000
0000
0000
0000
0000
0000
0000
0010
0000
0000
0000
0000
0000
0000
0000
0000
0000
0000
0000
1000
0000
0000
0000
0000
0000
0000
0000
0000
0000
0000
0000
0001
0000
0000
0000
0000
0000
0000
0000
0000
0000
0000
0000
0010
0000
0000
0000
0000
0000
0000
0000
0000
0000
0000
0000
0100
0000
0000
0000
0000
0000
0000
0000
0000
0000
0000
0000
0010
0000
0000
0000
0000
0000
0000
0000
0000
0000
0000
0000
,
0001
0100
0010
1000
0100
0010
0001
0010
0100
1000
0001
1000
0010
0100
0001
0100
,
0010
1000
0100
0010
0001
1000
0100
1000
0001
0100
0010
0100
0001
1000
0100
0010
,
0001
0100
0010
1000
0001
1000
0100
0010
0001
1000
0010
1000
0100
1000
0100
1000
,
0100
0000
0040
0000
0031
1000
0010
0100
0001
1000
0100
0010
0001
0100
0010
0100
,
0001
0010
0100
1000
0010
0100
0001
0100
0010
1000
0001
1000
0100
0010
0001
0010
,
0100
1000
0010
0100
0001
1000
0010
1000
0001
0010
0100
0010
0001
1000
0010
0100
,
0001
0000
0000
0000
0000
0000
0000
0000
0000
0000
0000
0000
0010
0000
0000
0000
0000
0000
0000
0000
0000
0000
0000
0000
0100
0000
0000
0000
0000
0000
0000
0000
0000
0000
0000
0000
1000
0000
0000
0000
0000
0000
0000
0000
0000
0000
0000
0000
0002
0000
0000
0003
0000
0000
0000
0000
0000
0000
0000
0000
0000
0000
0000
0000
0000
0000
0000
0000
0000
0000
0000
0000
1000
0000
0000
0000
0000
0000
0000
0000
0000
0000
0000
0000
0000
0000
0000
0000
0000
0000
0000
0000
0000
0000
0000
0000
0001
0000
0000
0000
0000
0000
0000
0000
0000
0000
0000
0000
0010
0000
0000
0000
0000
0000
0000
0000
0000
0000
0000
0000
0100
0000
0000
0000
0000
0000
0000
0000
0000
0000
0000
0000
1000
0000
0000
0000
0000
0000
0000
0000
0000
0000
0000
0000
0001
0000
0000
0000
0000
0000
0000
0000
0000
0000
0000
0000
0000
0000
0000
0000
0000
0000
0000
0000
0000
0000
0000
0000
1000
0000
0000
0000
0000
0000
0000
0000
0010
0000
0000
0000
0000
0000
0000
0000
1000
0000
0000
0000
0000
0000
0000
0000
,
0010
0000
0000
0000
0000
0000
0000
0000
0000
0000
0000
0000
0000
0000
0000
0000
0000
0000
0000
0000
0000
0000
0000
0000
0100
0000
0000
0000
0000
0000
0000
0000
0001
0000
0000
0000
0000
0000
0000
0000
0100
0000
0000
0000
0000
0000
0000
0000
0002
0000
0000
0003
0000
0000
0000
0000
0000
0000
0000
0000
1000
0000
0000
0000
0000
0000
0000
0000
0000
0000
0000
0000
0010
0000
0000
0000
0000
0000
0000
0000
0000
0000
0000
0000
1000
0000
0000
0000
0000
0000
0000
0000
0000
0000
0000
0000
0001
0000
0000
0000
0000
0000
0000
0000
0000
0000
0000
0000
0010
0000
0000
0000
0000
0000
0000
0000
0000
0000
0000
0000
0100
0000
0000
0000
0000
0000
0000
0000
0000
0000
0000
0000
0010
0000
0000
0000
0000
0000
0000
0000
0000
0000
0000
0000
0001
0000
0000
0000
0000
0000
0000
0000
0000
0000
0000
0000
1000
0000
0000
0000
0000
0000
0000
0000
0000
0000
0000
0000
0010
0000
0000
0000
0000
0000
0000
0000
0000
0000
0000
0000
1000
0000
0000
0000
0000
0000
0000
0000
0000
0000
0000
0000
,
0001
0010
0100
1000
0010
0100
0001
0100
0010
1000
0001
1000
0100
0010
0001
0010
,
0100
1000
0010
0100
0001
1000
0010
1000
0001
0010
0100
0010
0001
1000
0010
0100
,
0001
0010
0100
1000
0001
1000
0010
0100
0001
1000
0100
1000
0010
1000
0010
1000
,
0010
0000
0400
0000
0310
1000
0001
1000
0100
1000
0010
1000
0001
0010
0100
0010
,
0001
0100
0010
1000
0100
0010
0001
0010
0100
1000
0001
1000
0010
0100
0001
0100
,
0010
1000
0100
0010
0001
1000
0100
1000
0001
0100
0010
0100
0001
1000
0100
0010
,
0001
0000
0000
0000
0000
0000
0000
0000
0000
0000
0000
0000
0100
0000
0000
0000
0000
0000
0000
0000
0000
0000
0000
0000
0010
0000
0000
0000
0000
0000
0000
0000
0000
0000
0000
0000
1000
0000
0000
0000
0000
0000
0000
0000
0000
0000
0000
0000
0002
0000
0000
0003
0000
0000
0000
0000
0000
0000
0000
0000
0000
0000
0000
0000
0000
0000
0000
0000
0000
0000
0000
0000
1000
0000
0000
0000
0000
0000
0000
0000
0000
0000
0000
0000
0000
0000
0000
0000
0000
0000
0000
0000
0000
0000
0000
0000
0100
0000
0000
0000
0000
0000
0000
0000
0000
0000
0000
0000
0010
0000
0000
0000
0000
0000
0000
0000
0000
0000
0000
0000
0100
0000
0000
0000
0000
0000
0000
0000
0000
0000
0000
0000
0010
0000
0000
0000
0000
0000
0000
0000
0000
0000
0000
0000
0001
0000
0000
0000
0000
0000
0000
0000
0000
0000
0000
0000
0000
0000
0000
0000
0000
0000
0000
0000
0000
0000
0000
0000
1000
0000
0000
0000
0000
0000
0000
0000
0001
0000
0000
0000
0000
0000
0000
0000
1000
0000
0000
0000
0000
0000
0000
0000
,
0001
0000
0000
0000
0000
0000
1000
0000
0001
0000
1000
0000
0001
0000
0000
0100
0000
0000
0010
0000
0000
1000
0000
0000
0001
0000
0000
0010
0000
0000
0001
0000
0000
0100
0000
0000
0010
0000
0000
1000
0000
0000
0100
0000
0000
1000
0000
0000
,
0010
0100
0001
1000
0000
0000
0000
0000
0000
0000
0000
0000
0000
0000
0000
0000
;
