#TITLE:Lord Of The Dance;
#SUBTITLE:;
#ARTIST:Chris Clark;
#TITLETRANSLIT:;
#SUBTITLETRANSLIT:;
#ARTISTTRANSLIT:;
#CREDIT:;
#BANNER:lotdbn2.png;
#BACKGROUND:lotdbg2.png;
#LYRICSPATH:;
#CDTITLE:pimpin wctitle.png;
#MUSIC:09 - lord of the dance.mp3;
#OFFSET:-0.130;
#SAMPLESTART:58.423;
#SAMPLELENGTH:12.000;
#SELECTABLE:YES;
#BPMS:0.000=103.001,3.000=102.997,4.000=103.001,6.000=102.997,7.000=103.001,9.000=102.997,10.000=103.001,12.000=102.997,13.000=103.001,15.000=102.997,16.000=103.001,18.000=102.997,19.000=103.001,21.000=102.997,22.000=103.001,24.000=102.997,25.000=103.001,27.000=102.997,28.000=103.001,30.000=102.997,31.000=103.001,34.000=102.997,35.000=103.001,37.000=102.997,38.000=103.001,40.000=102.997,41.000=103.001,43.000=102.997,44.000=103.001,46.000=102.997,47.000=103.001,49.000=102.997,50.000=103.001,52.000=102.997,53.000=103.001,55.000=102.997,56.000=103.001,58.000=102.997,59.000=103.001,61.000=102.997,62.000=103.001,65.000=102.997,66.000=103.001,68.000=102.997,69.000=103.001,71.000=102.997,72.000=103.001,74.000=102.997,75.000=103.001,77.000=102.997,78.000=103.001,80.000=102.997,81.000=103.001,83.000=102.997,84.000=103.001,86.000=102.997,87.000=103.001,89.000=102.997,90.000=103.001,92.000=102.997,93.000=103.001,96.000=102.997,97.000=103.001,99.000=102.997,100.000=103.001,102.000=102.997,103.000=103.001,104.000=3675.000,104.083=86.996,104.500=102.115,105.000=101.325,105.500=27562.500,105.583=87.327,106.000=103.001,108.000=102.999,108.313=1002.270,108.333=92.608,108.500=3675.000,108.583=74.162,108.792=2396.740,108.833=83.114,109.000=3675.000,109.083=76.111,109.313=1002.270,109.333=92.608,109.500=7875.000,109.583=75.797,109.813=2396.740,109.833=91.990,110.000=18375.000,110.083=60.345,110.250=119.750,110.500=7875.000,110.583=86.019,111.000=102.997,111.500=7875.000,111.583=86.019,112.000=7875.000,112.083=88.045,112.500=99.107,112.792=7875.000,112.833=82.615,113.000=103.005,113.500=7875.000,113.583=86.019,114.000=102.997,114.500=7875.000,114.583=86.019,115.000=103.001,116.000=103.010,116.292=2396.740,116.333=83.114,116.500=7875.000,116.583=73.845,116.792=7875.000,116.833=82.615,117.000=2396.740,117.083=84.880,117.500=16961.500,117.583=87.528,118.000=3675.000,118.083=86.241,118.500=2396.740,118.583=86.450,119.000=103.001,120.000=3675.000,120.083=92.428,120.792=2396.740,120.833=83.114,121.000=103.005,121.500=3675.000,121.583=86.234,122.000=103.005,122.500=2396.740,122.583=86.450,123.000=3675.000,123.083=101.505,123.354=92.023,124.000=103.005,124.500=3675.000,124.583=74.162,124.792=102.999,125.000=2396.740,125.083=94.757,126.000=103.001,127.000=102.997,128.000=18375.000,128.083=94.462,129.000=18375.000,129.083=85.918,129.500=18375.000,129.583=85.911,130.000=18375.000,130.083=85.129,130.500=103.952,131.000=103.005,131.500=18375.000,131.583=85.911,132.000=18375.000,132.083=87.884,132.500=98.599,132.750=24500.000,132.833=68.756,133.000=103.005,133.500=44100.000,133.583=85.858,134.000=103.005,134.250=36750.000,134.333=72.557,134.500=100.357,135.000=55125.000,135.083=94.433,136.000=55125.000,136.083=94.429,137.000=103.005,137.500=7875.000,137.583=86.019,138.000=103.001,139.000=102.997,140.000=103.010,140.292=3675.000,140.333=79.288,140.500=9187.500,140.583=70.919,140.792=6485.290,140.833=92.048,141.000=55125.000,141.083=73.618,141.292=18375.000,141.333=82.492,141.500=55125.000,141.583=73.608,141.792=18375.000,141.833=82.492,142.000=55125.000,142.083=62.500,142.250=114.367,142.500=44100.000,142.583=85.858,143.000=103.010,143.292=18375.000,143.333=70.992,143.417=102.320,144.000=55125.000,144.083=85.758,144.500=103.217,144.792=18375.000,144.833=82.492,145.000=102.997,145.500=18375.000,145.583=85.911,146.000=95.399,146.250=111.929,146.500=18375.000,146.583=85.911,147.000=103.001,148.000=102.999,148.313=3675.000,148.333=91.837,148.500=55125.000,148.583=75.570,148.813=7875.000,148.833=91.684,149.000=18375.000,149.083=85.918,149.500=55125.000,149.583=85.858,150.000=55125.000,150.083=85.865,150.500=55125.000,150.583=85.858,151.000=102.997,152.000=55125.000,152.083=90.538,152.688=38587.500,152.833=55.001,153.000=103.005,153.500=18375.000,153.583=85.911,154.000=90.394,154.250=119.707,154.500=18375.000,154.583=85.911,155.000=55125.000,155.083=94.429,156.000=103.005,156.500=18375.000,156.583=85.911,157.000=27562.500,157.083=85.891,157.500=55125.000,157.583=75.570,157.813=91875.000,157.917=45.804,158.000=102.997,159.000=103.001,160.000=110250.000,160.083=87.695,160.500=100.877,161.000=3675.000,161.083=76.101,161.313=1252.840,161.333=88.822,161.500=2396.740,161.583=87.772,162.000=7875.000,162.083=87.779,162.500=100.985,163.000=27562.500,163.083=73.657,163.292=776.408,163.333=75.385,163.500=16961.500,163.583=90.428,164.000=24500.000,164.083=84.096,164.500=106.905,164.792=7875.000,164.833=82.615,165.000=103.005,165.500=804.745,165.583=87.702,166.000=103.010,166.292=3675.000,166.333=83.051,166.500=102.901,167.000=16961.500,167.083=87.730,167.500=100.915,168.000=16961.500,168.083=94.466,169.000=7875.000,169.083=86.025,169.500=16961.500,169.583=85.918,170.000=44100.000,170.083=85.865,170.500=16961.500,170.583=85.918,171.000=103.005,171.500=10500.000,171.583=85.972,172.000=18375.000,172.083=85.918,172.500=10500.000,172.583=85.972,173.000=102.997,173.500=44100.000,173.583=85.865,174.000=18375.000,174.083=85.918,174.500=16961.500,174.583=85.918,175.000=18375.000,175.083=85.918,175.500=44100.000,175.583=85.865,176.000=16961.500,176.083=85.918,176.500=10500.000,176.583=85.972,177.000=18375.000,177.083=85.918,177.500=16961.500,177.583=85.918,178.000=18375.000,178.083=85.918,178.500=16961.500,178.583=85.918,179.000=113.149,179.333=87.327,179.500=55125.000,179.583=68.713,179.750=16961.500,179.833=68.799,180.000=55125.000,180.083=85.865,180.500=18375.000,180.583=68.799,180.750=16961.500,180.833=68.799,181.000=18375.000,181.083=68.799,181.250=18375.000,181.333=68.799,181.500=18375.000,181.583=68.799,181.750=16961.500,181.833=68.799,182.000=18375.000,182.083=68.799,182.250=18375.000,182.333=68.799,182.500=44100.000,182.583=68.713,182.750=16961.500,182.833=68.799,183.000=44100.000,183.083=94.436,184.000=103.005,184.500=16961.500,184.583=85.918,185.000=16961.500,185.083=85.918,185.500=16961.500,185.583=85.918,186.000=16961.500,186.083=94.466,187.000=16961.500,187.083=94.466,188.000=102.997,188.500=18375.000,188.583=68.799,188.750=16961.500,188.833=68.799,189.000=18375.000,189.083=68.799,189.250=11025.000,189.333=68.885,189.500=18375.000,189.583=68.799,189.750=44100.000,189.833=68.713,190.000=18375.000,190.083=85.918,190.500=44100.000,190.583=85.865,191.000=55125.000,191.083=85.865,191.500=16961.500,191.583=85.918,192.000=11025.000,192.083=68.885,192.250=55125.000,192.333=68.713,192.500=16961.500,192.583=68.799,192.750=16961.500,192.833=68.799,193.000=18375.000,193.083=68.799,193.250=18375.000,193.333=68.799,193.500=16961.500,193.583=71.626,193.750=99.101,194.000=103.005,194.500=55125.000,194.583=68.713,194.750=16961.500,194.833=68.799,195.000=16961.500,195.083=85.918,195.500=10500.000,195.583=85.972,196.000=103.005,196.500=18375.000,196.583=68.799,196.750=16961.500,196.833=68.799,197.000=11025.000,197.083=68.885,197.250=18375.000,197.333=68.767,197.500=103.053,197.750=16961.500,197.833=68.799,198.000=16961.500,198.083=91.617,198.750=16961.500,198.833=68.799,199.000=115.053,199.333=85.168,199.500=16961.500,199.583=36.616,199.667=129.515,200.000=103.001,201.000=102.997,202.000=103.001,204.000=102.997,205.000=103.001,207.000=102.997,208.000=103.001,210.000=102.997,211.000=103.001,213.000=102.997,214.000=103.001,216.000=102.997,217.000=103.001,219.000=102.997,220.000=103.001,223.000=102.997,224.000=103.001,226.000=102.997,227.000=103.001,229.000=102.997,230.000=103.001,232.000=102.997,233.000=103.001,235.000=102.997,236.000=103.001,238.000=102.997,239.000=103.001,241.000=102.997,242.000=103.001,244.000=102.997,245.000=103.001,247.000=102.997,248.000=103.001,251.000=102.997,252.000=103.001,254.000=102.997,255.000=103.001,257.000=102.997,258.000=103.001,260.000=102.997,261.000=103.001,263.000=102.997,264.000=103.001,266.000=102.997,267.000=103.001,269.000=102.997,270.000=103.001,272.000=102.997,273.000=103.001,275.000=102.997,276.000=103.001,279.000=102.997,280.000=103.001,282.000=102.997,283.000=103.001,285.000=102.997,286.000=103.001,288.000=102.997,289.000=103.001,291.000=102.997,292.000=103.001,294.000=102.997,295.000=103.001,297.000=102.997,298.000=103.001,300.000=102.997,301.000=103.001,303.000=102.997,304.000=103.001,307.000=102.997,308.000=103.001,310.000=102.997,311.000=103.001,313.000=102.997,314.000=103.001,316.000=102.997,317.000=103.001,319.000=102.997,320.000=103.001,322.000=102.997,323.000=103.001,325.000=102.997,326.000=103.001,328.000=102.997,329.000=103.001,331.000=102.997,332.000=103.001,334.000=102.997,335.000=103.001,337.000=102.997,338.000=103.001,340.000=102.997,341.000=103.001,343.000=102.997,344.000=103.001,346.000=102.997,347.000=103.001,349.000=102.997,350.000=103.001,352.000=102.997,353.000=103.001,356.000=102.997,357.000=103.001,359.000=102.997,360.000=103.001,362.000=102.997,363.000=103.001,365.000=102.997,366.000=103.001,368.000=102.997,369.000=103.001,371.000=102.997,372.000=103.001,374.000=102.997,375.000=103.001,377.000=102.997,378.000=103.001,380.000=102.997,381.000=103.001,384.000=102.997,385.000=103.001,387.000=102.997,388.000=103.001,390.000=102.997,391.000=103.001,393.000=102.997,394.000=103.001,396.000=102.997,397.000=103.001,399.000=102.997,400.000=103.001,402.000=102.997,403.000=103.001,405.000=102.997,406.000=103.001,408.000=102.997,409.000=103.001,411.000=102.997,412.000=103.001,415.000=102.997,416.000=103.001,418.000=102.997,419.000=103.001,421.000=102.997,422.000=103.001,424.000=102.997,425.000=103.001,427.000=102.997,428.000=103.001,430.000=102.997,431.000=103.001,433.000=102.997,434.000=103.001,436.000=102.997,437.000=103.001,439.000=102.997,440.000=103.001;
#STOPS:;
#BGCHANGES:;
// cache tags:
#FIRSTBEAT:2.250;
#LASTBEAT:200.000;
#SONGFILENAME:Songs/Farewell, My Little Stepmania Pack/Lord Of The Dance[wc]/09 - lord of the dance.sm;
#HASMUSIC:1;
#HASBANNER:1;
#MUSICLENGTH:257.520;
// end cache tags

//---------------dance-single - ----------------
#NOTES:
     dance-single:
     :
     Medium:
     4:
     0.471,0.544,0.586,0.221,0.848,634.000,151.000,57.000,167.000,16.000:
0000
0000
0000
0000
0000
0000
0000
0000
0000
0000
0000
0000
0000
0000
0000
0000
0000
0000
0000
0000
0000
0000
0000
0000
0000
0000
0000
0000
0000
0000
0000
0000
0000
0000
0000
0000
0000
0000
0000
0000
0000
0000
0000
0000
0000
0000
0000
0000
0000
0000
0000
0000
0000
0000
00M0
00M0
00M0
00M0
00M0
00M0
00M0
00M0
00M0
00M0
00M0
00M0
00M0
00M0
00M0
00M0
00M0
00M0
0M00
0M00
0M00
0M00
000M
000M
000M
000M
000M
0000
0000
0000
0000
000M
0000
00M0
0000
M000
0000
0000
0M00
0000
000M
0000
,
0000
M000
0000
0000
0000
00M0
0000
0000
000M
0000
0000
0000
M000
0000
0000
0000
00M0
0000
0000
0000
0000
0000
0000
0000
0M00
0M00
0M00
0M00
0M00
0M00
0M00
0M00
0M00
0M00
0M00
0M00
0M00
0M00
0M00
0M00
0M00
0M00
0M00
0M00
0M00
0M00
0M00
0M00
0M00
0M00
0M00
0M00
0M00
0M00
0M00
0M00
0M00
0M00
0M00
0M00
0M00
0M00
0M00
0M00
0M00
0M00
0M00
0M00
0M00
0M00
0M00
0M00
M000
M000
0000
0000
00M0
00M0
00M0
00M0
00M0
00M0
00M0
00M0
0M00
0M00
0M00
0M00
0M00
0M00
0M00
000M
000M
000M
000M
000M
,
1100
0000
0001
1100
0000
1100
0000
1100
0000
0001
1010
1010
0001
0000
1001
0100
,
1010
0000
0000
0000
0000
0000
1000
0000
0000
0000
0000
0010
0000
0000
0000
0000
0000
0000
0020
0000
0000
0000
0000
0100
0031
0000
0000
0000
0000
0000
0000
1000
0000
0000
0000
0000
0110
0000
0000
0000
0000
0000
0000
0001
0000
0000
0000
0000
1100
0000
0000
0000
0000
0000
0000
1000
0000
0000
0000
0000
0101
0000
0000
0000
0000
0000
0000
0000
0010
0000
0000
0000
1201
0000
0000
0000
0000
0000
0000
0000
0000
0000
0000
0000
0000
0000
0000
0000
0000
0000
0000
0000
0000
0000
0000
0000
,
0302
0000
0000
0000
0000
0000
0000
0000
0000
0000
0013
0000
0000
0000
0000
0000
0100
0000
0000
0000
0000
0000
1000
0000
0000
0000
0000
0000
0010
0000
0000
0000
0100
0000
0000
0001
0000
0000
0000
0000
1000
0000
0000
0000
0000
0000
0000
0000
0101
0000
0000
0000
0000
0000
0010
0000
0000
0000
0000
0000
0100
0000
0000
0000
0000
0001
0000
0000
0000
0000
0000
0000
1000
0000
0000
0000
0000
0000
0010
0000
0000
0000
0000
0000
0000
1000
0000
0000
0000
0000
0000
0000
0000
0000
0000
0000
0110
0000
0000
0000
0000
0000
0000
0000
0000
0000
0000
0000
0000
0000
0000
0000
0000
0000
0000
0000
0000
0000
0000
0000
0000
0000
0000
0000
0000
0000
0000
0000
0000
0000
0000
0000
0000
0000
0000
0000
0000
0000
0000
0000
0000
0002
0000
0000
0000
0000
0000
0003
0000
0000
0000
0000
0020
0000
0000
0000
0030
0000
0000
0000
0000
0000
0000
0000
2000
0000
0000
0000
0000
0000
0000
0000
3000
0000
0000
0000
0000
0000
0000
0000
0200
0000
0000
0000
0300
0000
0020
0000
0000
0000
0030
0000
,
1001
0100
1010
1001
0100
1000
0001
0100
1100
1001
1010
1100
0020
0000
0000
0000
,
0131
0000
1000
0011
0011
0100
0100
1001
1001
0000
0011
0000
0011
0000
M1MM
0000
,
MMMM
0011
0001
1100
1010
0000
0101
1010
0101
1100
0010
1100
0011
0001
0001
0001
,
1010
0000
0000
0000
0000
0000
0000
0000
0000
0000
0000
0000
0110
0000
0000
0000
0000
0000
0000
0000
0000
0000
0000
0000
0001
0000
0000
0000
0000
0000
0000
0000
0000
0000
0000
0000
1010
0000
0000
0000
0000
0000
0000
0000
0000
0000
0000
0000
1100
0000
0000
0000
0000
0000
0000
0000
0000
0000
0000
0000
0010
0000
0000
0000
0000
0000
0000
0000
0000
0000
0000
0000
0001
0000
0000
0000
0000
0000
0000
0000
0000
0000
0000
0000
0000
0000
0000
0000
0002
0000
0000
0000
0000
0000
0000
0000
1103
0000
0000
0000
0000
0000
0000
0000
0000
0000
0000
0000
0000
0000
0000
0000
0000
0000
0000
0000
0000
0000
0000
0000
0110
0000
0000
0000
0000
0000
0000
0000
0000
0000
0000
0000
0000
0000
0000
0000
0000
0000
0000
0000
0000
0000
0000
0000
1001
0000
0000
0000
0000
0000
0000
0000
0000
0010
0000
0000
0100
0000
0000
0000
1000
0000
0000
0000
0000
0000
0000
0000
0000
0000
0000
0000
0000
0100
0000
0000
0000
0000
0000
0000
0000
0000
0000
0000
0000
0000
0000
0000
0000
0000
0000
0000
,
1010
0001
0000
0000
0200
0000
0001
0000
0000
0000
0000
0000
1301
0000
0000
0000
0000
0000
1010
0000
0000
0000
0200
0000
0310
0000
0000
0000
0002
0000
0000
0000
0000
0000
0103
0000
1001
0000
0000
0000
0000
0000
0010
0200
0000
0000
0300
0000
0201
0000
0000
0000
0000
0000
0300
0000
0000
0000
0000
0000
1100
0000
0000
0000
0000
0000
0000
0000
0000
0000
0000
0000
0001
0000
0000
0000
0000
0000
1100
0000
0000
0000
0000
0000
0020
0000
0000
0000
0000
0000
0031
0000
0000
0000
0000
0000
,
1000
0200
0000
0000
0000
0000
0000
0000
0000
0000
0000
0000
0000
0000
0000
0000
0000
0000
0010
0000
0000
0000
0000
0000
0000
0000
0000
0000
0000
0000
0000
0000
0000
0000
0000
0000
0000
0000
0000
0000
0000
0000
0000
0000
0000
0000
0000
0000
,
1301
0000
0000
0000
0000
0000
0000
0000
0000
0000
0000
0000
0000
0000
0000
0000
0000
0000
0000
1100
0000
0000
0000
0000
0010
0000
0000
0000
0000
0000
0000
0000
0000
0000
0000
0000
0101
0000
0000
0000
0000
0000
0000
0000
0000
0000
0000
0000
0000
0000
0000
0000
0000
0000
0000
0010
0000
0000
0000
0000
1100
0000
0000
0000
0000
0000
0000
0000
0000
0000
0000
0000
0010
0000
0000
0000
0000
0000
0000
0000
0000
0010
0000
0000
0000
0000
0000
0000
0000
0000
0010
0000
0000
0000
0000
0000
,
MMM1
0000
0000
0000
0000
0000
0000
0000
0000
0000
0000
0000
MMMM
0000
0000
0000
0000
0000
0000
1001
0000
0000
0000
0000
0010
0000
0000
0000
0000
0000
0000
0000
0000
0010
0000
0000
1100
0000
0000
0000
0000
0000
0010
0000
0000
0000
0000
0000
0201
0000
0000
0000
0000
0000
0000
0000
0000
0000
0000
0000
0000
0000
0000
0000
0000
0000
0000
0000
0000
0000
0000
0000
0000
0000
0000
0000
0000
0000
0000
0000
0000
0000
0000
0000
0000
0000
0000
0000
0000
0000
0000
0000
0000
0000
0000
0000
,
1301
0000
0000
0000
0000
0000
0020
0000
0000
0030
0000
0000
11M0
0000
0000
0000
0000
0000
1000
0000
0000
0000
0000
0000
0010
0000
1000
0000
0001
0000
0100
0000
0010
0000
0000
0000
1100
0000
0000
0000
0000
0000
0000
0000
0000
0000
0000
0000
0101
0000
0000
0000
0000
0000
0000
0000
0000
0000
0000
0000
1010
0000
0000
0000
0000
0000
0000
0000
0000
0000
0000
0000
1100
0000
0000
0000
0000
0000
0000
0000
0000
0000
0000
0000
0110
0000
0000
0000
0000
0000
0000
0000
0000
0000
0000
0000
,
1001
0000
0000
0000
0000
0000
0000
0000
0000
0000
0000
0000
0000
0000
0000
0000
0000
0000
0000
0000
0000
0000
0000
0000
0000
0000
0000
0000
0000
0000
0000
0000
0000
0000
0000
0000
1010
0000
0000
0000
0000
0000
0000
0000
0000
0000
0000
0000
0100
0000
0000
0000
0000
0000
0000
0000
0000
0000
0000
0000
0000
0000
0000
0010
0000
0000
0000
0000
0000
0000
0000
0000
1101
0000
0000
0000
0000
0000
0000
0000
0000
0000
0000
0000
0000
0000
0000
0000
0000
0000
0000
0000
0000
0000
0000
0000
1100
0000
0000
0000
0000
0000
0000
0000
0000
0000
0000
0000
0000
0000
0001
0000
0000
0000
0000
0000
0000
0000
0000
0000
0010
0000
0000
0000
0000
0000
0000
0000
0000
0000
0000
0000
0000
0000
0000
0000
0000
0000
0000
0000
0000
0000
0000
0000
1101
0000
0000
0000
0000
0000
0000
0000
0000
0000
0000
0000
0000
0000
0000
0000
0000
0000
0000
0000
0000
0000
0000
0000
0020
0000
0000
0000
0000
0000
0000
0000
0000
0000
0000
0000
0000
0000
0000
0000
0030
0000
0000
0000
0000
0000
0000
0000
,
11M0
0000
0000
0000
0000
0000
0000
0010
0000
0000
0000
0000
0000
0000
0000
0000
0000
0000
0000
1010
0000
0000
0000
0000
0011
0000
1000
0000
0100
0000
0010
0000
0001
0000
0100
0000
0010
0000
0000
0000
0000
0000
0000
0000
0000
0000
0000
0000
0010
0000
0000
0000
0000
0000
0000
1001
0000
0000
0000
0000
0010
0000
0000
0000
0000
0000
0000
0000
0000
0000
0000
0000
0211
0000
0000
0000
0000
0000
0000
0300
0000
0000
0000
0000
1200
0000
0000
0000
0000
0000
0000
0320
0000
0000
0000
0000
,
2030
3002
0003
0000
0000
0000
0000
0000
,
0000
0000
0000
0000
0100
0100
0100
0100
,
1100
0000
0000
0000
0000
0000
0000
0000
0000
0000
0000
0000
0010
0000
0000
0000
0000
0000
0000
1010
0000
0000
0000
0000
0001
0000
0000
0000
0000
0000
0000
0000
0000
0000
0000
0000
1100
0000
0000
0000
0000
0000
0000
0000
0000
0000
0000
0000
1000
0000
0000
0000
0000
0000
0000
0001
0000
0000
0000
0000
0110
0000
0000
0000
0000
0000
0000
0000
0000
0000
0000
0000
0101
0000
0000
0000
0000
0000
0000
0000
0000
0000
0000
0000
0100
0000
0000
0000
0000
0000
0000
0000
0000
0000
0000
0000
,
1010
0000
0000
0000
0000
0000
0000
0000
0000
0000
0000
0000
0010
0000
0000
0000
0000
0000
0000
0000
0100
0000
0000
0000
1000
0000
0010
0000
1000
0000
0001
0000
0100
0000
0001
0000
0010
0000
0000
0000
0000
0000
0000
0000
0000
0000
0000
0000
1000
0000
0000
0000
0000
0000
0000
0011
0000
0000
0000
0000
1100
0000
0000
0000
0000
0000
0000
0000
0000
0000
0000
0000
1001
0000
0000
0000
0000
0000
0000
0100
0000
0000
0000
0000
0001
0000
0000
0000
0000
0000
0000
0000
0000
0000
0000
0000
,
1100
0000
0000
0000
0000
0000
0000
0000
0000
0000
0000
0000
0100
0000
0000
0000
0000
0000
0000
1001
0000
0000
0000
0000
1000
0000
0000
0000
0000
0000
0010
0000
0000
0000
0000
0000
0100
0000
0000
0000
0000
0000
0001
0000
0000
0000
0000
0000
0011
0000
0000
0000
0000
0000
0000
1000
0000
0000
0000
0000
0110
0000
0000
0000
0000
0000
0000
0000
0000
0000
0000
0000
0010
0000
0000
0000
0000
0000
1000
0000
0000
0000
0000
0000
0000
0000
0000
0000
0000
0000
0000
0000
0000
0000
0000
0000
,
1001
0000
0000
0000
0000
0000
0000
0010
0000
0000
0000
0000
1100
0000
0000
0000
0000
0000
0000
0000
0000
0000
0000
0000
0010
0000
0000
0000
0000
0000
0000
0000
0000
0000
0000
0000
0110
0000
0000
0000
0000
0000
0000
0000
1000
0000
0000
0000
0101
0000
0000
0000
0000
0000
0000
0110
0000
0000
0000
0000
0010
0000
0000
0000
0000
0000
0000
0000
0000
0000
0000
0000
0011
0000
0000
0000
0000
0000
0000
MMM1
0000
0000
0000
0000
0000
0000
0000
0000
0000
0000
MMMM
0000
0000
0000
0000
0000
,
1100
0000
0000
0000
0000
0000
0000
0000
0000
0000
0000
0000
0001
0000
0000
0000
0000
0000
0000
0000
0000
0000
0000
0000
0010
0000
0000
0000
0000
0000
0000
0000
0000
0000
0000
0000
1100
0000
0000
0000
0000
0000
0000
0000
0000
0000
0000
0000
1100
0000
0000
0000
0000
0000
0000
0001
0000
0000
0000
0000
1010
0000
0000
0000
0000
0000
0000
0000
0000
0000
0000
0000
0210
0000
0000
0000
0000
0000
0000
0000
0000
0000
0000
0000
0000
0000
0000
0000
0000
0000
0000
0000
0000
0000
0000
0000
,
1301
0000
0000
0000
0000
0000
0000
0000
0000
0000
0000
0000
1000
0000
0000
0000
0000
0000
0000
0000
0000
0000
0000
0000
0010
0000
0001
0000
0100
0000
1000
0000
0100
0000
0001
0000
0010
0000
0000
0000
0000
0000
0000
0000
0000
0000
0000
0000
1100
0000
0000
0000
0000
0000
0000
1000
0000
0000
0000
0000
0100
0000
0000
0000
0000
0000
0000
0000
0000
0000
0000
0000
1010
0000
0000
0000
0000
0000
0000
0000
0000
0000
0000
0000
0001
0000
0000
0000
0000
0000
0000
0000
0000
0000
0000
0000
,
1001
0000
0000
0000
0000
0000
0000
0000
0000
0000
0000
0000
MM1M
0000
0000
0000
0000
0000
0000
0000
0000
0000
0000
0000
0100
0000
0000
0000
0000
0000
0000
0000
0000
0000
0000
0000
1010
0000
0000
0000
0000
0000
0000
0000
0000
0000
0000
0000
1100
0000
0000
0000
0000
0000
0000
0001
0000
0000
0000
0000
0110
0000
0000
0000
0000
0000
0000
0000
0000
0000
0000
0000
0010
0000
0000
0000
0000
0000
0000
1000
0000
0000
0000
0000
0001
0000
0000
0000
0000
0000
0000
0000
0000
0000
0000
0000
,
2110
0000
0000
0000
0000
0000
0000
0000
0000
0000
0000
0000
0000
0000
0000
0000
0000
0000
0000
0000
0000
0000
0000
0000
3000
0000
0000
0000
0000
0000
M000
0000
0000
0000
0000
0000
0000
0000
0002
0000
0000
0000
0000
0000
0000
0000
0000
0000
0000
0000
0000
0000
0000
0000
0000
0000
0000
0000
0000
0000
0000
0000
0000
0000
0000
0000
0000
0000
0000
0000
0000
0000
0203
0000
0000
0000
0000
0000
0000
0000
0000
0000
0000
0000
0000
0000
0000
0000
0000
0000
0000
0000
0000
0000
0000
0000
0000
0000
0000
0000
0000
0000
0000
0000
0000
0000
0000
0000
0000
0000
0000
0000
0000
0000
0000
0000
0000
0000
0000
0000
0000
0000
0000
0000
0000
0000
0000
0000
0000
0000
0000
0000
0000
0000
0000
0000
0000
0000
0000
0000
0000
0000
0000
0000
0000
0000
0000
0000
0000
0000
0000
0000
0300
MMMM
0000
0000
0000
0000
0000
0000
0000
0000
0000
0000
0000
0000
0000
0000
0000
0000
0000
0000
0000
0000
0000
0000
0000
0000
0000
0000
0000
0000
0000
0000
0000
0000
0000
0000
0000
0000
0000
0000
,
1000
0000
0001
0000
0000
0000
0000
0000
0000
0000
0000
0000
1000
0000
0000
0000
0000
0000
0000
0101
0000
0000
0000
0000
0010
0000
0000
0000
0000
0000
0000
0000
0000
0000
0000
0000
0100
0000
1000
0000
0000
0000
0000
0000
0000
0000
0000
0000
0010
0000
0000
0000
0000
0000
0000
0001
0000
0000
0000
0000
1010
0000
0000
0000
0000
0000
0000
0000
0000
0000
0000
0000
0001
0000
0000
0000
0000
0000
0000
0000
0000
0000
0000
0000
0100
0000
0000
0000
0000
0000
0000
0000
0000
0000
0000
0000
,
1001
0000
0000
0000
0000
0000
0000
0000
0100
0000
0000
0000
0000
0000
0010
0000
0000
0000
0000
0100
0001
0000
0000
0000
0001
0000
0010
0000
0000
0000
0000
0000
0100
0000
0000
0000
0010
0000
1000
0000
0000
0000
0000
0000
0100
0000
0000
0000
0000
0000
0001
0000
0000
0000
0010
0000
0000
0000
0000
0000
0100
0000
1000
0000
0000
0000
0000
0000
0000
0000
0000
0000
0010
0000
0000
0000
0000
0000
0000
0000
0000
0000
0000
0000
0000
0000
0001
0000
0000
0000
0000
0000
0000
0000
0000
0000
,
0100
0000
0010
0000
0000
0000
0000
0000
0000
0000
0000
0000
0100
0000
0000
0000
0000
0000
0000
0010
1000
0000
0000
0000
0001
0000
0000
0000
0000
0000
0000
0000
0000
0000
0000
0000
0100
0000
1000
0000
0000
0000
0000
0000
0000
0000
0000
0000
0010
0000
0000
0000
0000
0000
0000
1000
0000
0000
0000
0000
0001
0000
0100
0000
0000
0000
0000
0000
0000
0000
0000
0000
0020
0000
0000
0000
0000
0000
0000
0000
0000
0000
0000
0000
0000
0000
0000
0000
0000
0000
0000
0000
0000
0000
0000
0000
,
1130
0000
0000
0000
0000
0000
0000
0000
0000
0000
0000
0000
0000
0000
0000
0000
1000
0000
0000
0000
0000
0000
0000
0000
0000
0000
0000
0000
0001
0000
0000
0000
0000
0000
0000
0000
0000
0000
0100
0000
1000
0000
0000
0000
0000
0000
0000
0000
0010
0000
0000
0000
0001
0000
0000
0000
0000
0000
0000
0000
0000
0000
0000
0000
0000
0000
0000
0000
0000
0000
0000
0000
0001
0000
0000
0000
0100
0000
0000
0000
0000
0000
0000
0000
0000
0000
0000
0000
0000
0000
0000
0000
0000
0000
0000
0000
0000
0000
0000
0000
0010
0000
0000
0000
0000
0000
0000
0000
0000
0000
0000
0001
0000
0000
0000
0000
0000
0000
0000
0000
0100
0000
0000
0000
1000
0000
0000
0000
0000
0000
0000
0000
0000
0000
0000
0000
0000
0000
0000
0000
0000
0000
0000
0000
0010
0000
0000
0000
0000
0000
0000
0000
0000
0000
0000
0000
0000
0000
0000
0000
0000
0000
0000
0000
0000
0000
0000
0000
0001
0000
0000
0000
0000
0000
0000
0000
0000
0000
0000
0000
0000
0000
0000
0000
0000
0000
0000
0000
0000
0000
0000
0000
,
1000
0000
0000
0000
0001
0000
0000
0000
0000
0000
0000
0000
0000
0000
0000
0000
1100
0000
0000
0000
0000
0000
0000
0000
0100
0000
0000
0000
0000
0000
0000
0000
0000
0000
0000
0000
0000
0000
0000
0000
0010
0000
0000
0000
0000
0000
0000
0000
0001
0000
0000
0000
0000
0000
0000
0000
0000
0000
0000
0000
0000
0000
0000
0000
0000
0000
0000
0000
0000
0000
0000
0000
0020
0000
0000
0000
0100
0000
0000
0000
0000
0000
0000
0000
0000
0000
0000
0000
0000
0000
0000
0000
0000
0000
0000
0000
0000
0000
0000
0000
0000
0000
0000
0000
0000
0000
0000
0000
0000
0000
0001
0000
0000
0000
0000
0000
0000
0000
0000
0000
0100
0000
0000
0000
1000
0000
0000
0000
0000
0000
0000
0000
0000
0000
0000
0000
0000
0000
0000
0000
0000
0000
0000
0000
0001
0000
0000
0000
0130
0000
0000
0000
0000
0000
0000
0000
0000
0000
0000
0000
0000
00M1
0000
0000
0000
0000
0000
0000
0000
0000
0000
0000
0000
0000
0000
0000
0000
0000
0000
0000
0000
0000
0000
0000
0000
0000
0000
0000
0000
0000
0000
0000
,
1010
0000
0000
0000
0000
0000
0000
0000
0000
0000
0000
0000
0000
0000
0001
0000
0000
0000
0000
1100
0000
0000
0000
0000
0001
0000
0010
0000
0000
0000
0000
0000
0000
0000
0000
0000
0000
1001
0000
0000
0000
0000
0000
0000
0000
0000
0000
0000
0100
0000
0000
0000
0000
0000
0000
0001
0000
0000
0000
0000
1100
0000
0000
0000
0000
0000
0000
0000
0000
0000
0000
0000
0010
0000
0000
0000
0000
0000
0000
0000
0000
0000
0000
0000
0000
0000
0000
0000
0000
0000
0000
0000
0000
0000
0000
0000
,
0020
0000
0000
0000
0100
0000
0030
0000
0000
0000
0000
0000
0000
0000
0000
0000
0000
0000
0000
0000
0000
0000
0000
0000
2000
0000
0000
3000
0000
0000
0000
0000
0000
0000
0000
0000
0000
0000
0000
0000
0000
0000
0000
0000
0000
0000
0000
0000
0020
0000
0000
0000
0100
0000
0030
0000
0000
0000
0000
0000
0000
0000
0000
0000
1000
0000
0000
0000
0000
0000
0000
0000
0002
0000
0000
0000
0100
0000
0003
0000
0000
0000
0000
0000
0000
0000
0000
0000
0000
0000
0000
0000
0000
0000
0000
0000
0200
0000
0000
0000
0010
0000
0300
0000
0000
0000
0000
0000
0000
0000
0000
0000
0000
0000
0000
0000
0000
0000
0000
0000
2000
0000
0000
0000
0000
0000
0000
0000
0000
0000
0000
0000
0000
0000
0000
3000
0000
0000
0000
0000
0000
0000
0000
0000
0020
0000
0000
0030
0000
0000
0000
0000
0000
0000
0000
0000
0000
0000
0000
0000
0100
0000
0000
0000
0000
0000
0000
0000
0002
0000
0000
0000
0010
0000
0003
0000
0000
0000
0000
0000
0000
0000
0000
0000
0000
0000
0000
0000
0000
0000
0000
0000
,
2000
0000
0000
3000
0001
0000
0000
0000
0000
0000
0000
0000
0000
0000
0000
0000
0000
0000
0000
0000
0000
0000
0000
0000
0200
0000
0000
0300
0000
0000
0000
0000
0000
0000
0000
0000
0000
0000
0000
0000
1000
0000
0000
0000
0000
0000
0000
0000
0020
0000
0000
0030
0000
0000
0000
0000
0000
0000
0000
0000
0000
0000
0000
0000
0000
0000
0000
0000
0000
0000
0000
0000
2000
0000
0000
0000
0100
0000
3000
0000
0000
0000
0000
0000
0000
0000
0000
0000
0000
0000
0000
0000
0000
0000
0000
0000
2000
0000
0000
3000
0000
0000
0000
0000
0000
0000
0000
0000
0000
0000
0000
0000
0010
0000
0000
0000
0000
0000
0000
0000
0200
0000
0000
0300
0000
0000
0000
0000
0000
0000
0000
0000
0000
0000
0000
0000
0000
0000
0000
0000
0000
0000
0000
0000
0020
0000
0000
0000
0001
0000
0030
0000
0000
0000
0000
0000
0000
0000
0000
0000
0000
0000
0000
0000
0000
0000
0000
0000
2000
0000
0000
3000
0000
0000
0000
0000
0000
0000
0000
0000
0000
0000
0000
0000
0000
0000
0000
0000
0000
0000
0000
0000
,
1000
0010
0000
0000
0000
0000
0002
0000
0000
0000
0000
0000
0010
0000
0000
0000
0000
0000
1003
0100
0000
0000
0000
0000
1010
0000
0000
0001
0000
0000
0110
0000
0000
0000
0000
0000
0012
0000
0000
0000
0000
0000
0000
0000
0000
0000
0000
0000
,
1103
0000
0000
0000
0000
0000
0000
0000
0010
0000
0000
0000
0100
0000
0001
0000
0000
0000
0000
0000
0010
0000
0000
0000
1000
0000
0100
0000
0000
0000
0000
0000
0100
0000
0000
0000
0010
0000
1000
0000
0000
0000
0000
0000
0100
0000
0000
0000
0010
0000
0001
0000
0000
0000
0010
0000
0000
0000
0000
0000
1000
0000
0100
0000
0000
0000
0000
0000
0000
0000
0000
0000
0010
0000
0000
0000
0000
0000
0000
2100
0010
0000
0001
0000
0000
0000
0000
0000
0000
0000
0100
0000
0000
0000
0000
0000
,
0010
0000
0000
0000
0001
0000
3000
0000
0000
0000
0000
0000
0000
0000
0000
0000
0000
0000
0000
0000
0000
0000
0000
0000
0001
0000
0000
0000
0000
0000
0000
0000
0000
0000
0000
0000
0000
0000
0000
0000
0010
0000
0000
0000
0000
0000
0000
0000
1000
0000
0000
0000
0000
0000
0000
0000
0000
0000
0000
0000
0000
0000
0000
0000
0000
0000
0000
0000
0000
0000
0000
0000
1000
0000
0000
0000
0100
0000
0000
0000
0000
0000
0000
0000
0000
0000
0000
0000
0000
0000
0000
0000
0000
0000
0000
0000
1010
0000
0000
0000
0000
0000
0000
0000
0000
0000
0000
0000
0001
0000
0000
0000
0000
0000
0000
0000
0000
0000
0000
0000
0100
0000
0000
0000
1000
0000
0000
0000
0000
0000
0000
0000
0000
0000
0000
0000
0000
0000
0000
0000
0000
0000
0000
0000
0001
0000
0000
0000
0000
0000
0000
0000
0000
0000
0000
0000
MMMM
0000
0000
0000
0000
0000
0000
0000
0000
0000
0000
0000
0000
0000
0000
0000
0000
0000
0000
0000
0000
0000
0000
0000
0000
0000
0000
0001
0000
0000
0000
0000
0000
0000
0000
0000
,
0110
0000
0000
0000
0100
0000
0001
0010
0000
0000
0100
0000
1000
0010
0000
0000
0000
0000
1000
0100
0000
0000
0000
0000
0010
0001
0000
0000
0000
0000
0001
1000
0000
0000
0000
0000
1210
0000
0000
0000
0010
0000
0000
0000
0000
0000
0000
0000
,
1302
0000
0000
0000
0010
0000
0000
0000
0000
0000
0000
0000
0000
0000
0000
0000
0000
0000
0000
0000
0000
0000
0000
0000
0000
0000
0000
0000
0000
0000
0000
0000
0000
0000
0000
0000
0000
0000
0000
0000
0100
0000
0000
0000
0000
0000
0000
0000
0010
0000
0000
0000
0000
0000
0000
0000
0000
0000
0000
0000
0000
0000
0000
0000
0000
0000
0000
0000
0000
0000
0000
0000
0103
0000
0000
0000
1000
0000
0000
0000
0000
0000
0000
0000
0000
0000
0000
0000
0000
0000
0000
0000
0000
0000
0000
0000
1100
0000
0000
0000
0000
0000
0000
0000
0000
0000
0000
0000
0001
0000
0000
0000
0000
0000
0000
0000
0000
0000
0000
0000
0010
0000
0000
0000
1000
0000
0000
0000
0000
0000
0000
0000
0000
0000
0000
0000
0000
0000
0000
0000
0000
0000
0000
0000
0001
0000
0000
0000
0100
0000
0000
0000
0000
0000
0000
0000
0000
0000
0000
0000
0000
0010
0000
0000
0000
0000
0000
0000
0000
0000
0000
0000
0000
0000
0000
0000
0000
0000
0000
0000
0000
0000
0000
0100
0000
0000
0000
0000
0000
0000
0000
0000
,
1100
0000
0000
0000
0000
0000
0000
0000
0000
0000
0000
0000
0000
0000
0000
0000
0000
0000
0000
0000
0000
0000
0000
0000
0010
0000
0000
0000
0001
0000
0000
0000
0000
0000
0000
0000
0000
0000
0000
0000
0000
0000
0000
0000
0000
0000
0000
0000
1010
0000
0000
0000
0100
0000
0000
0000
0000
0000
0000
0000
0000
0000
0000
0000
0000
0000
0000
0000
0000
0000
0000
0000
0100
0000
0000
0000
0010
0000
0000
0000
0000
0000
0000
0000
0000
0000
0000
0000
1000
0000
0000
0000
0000
0000
0000
0100
0000
0000
0000
0000
0000
0000
0000
0000
0000
0000
0000
0000
0000
0000
0000
0000
0000
0000
0000
0000
0000
0000
0000
0000
0000
0100
0000
0000
0000
0000
0000
1000
0000
0000
0000
0000
0000
0000
0000
0000
0000
0010
0000
0000
0000
0000
0000
0001
2100
0000
0000
0000
0000
0000
0000
0000
0000
0000
0000
0000
0000
0000
0000
0000
0000
0000
0000
0000
0000
0000
0000
0000
0000
0000
0000
0000
0000
0000
0000
0000
0000
0000
0000
0000
0000
0000
0000
0000
0000
0000
0000
0000
0000
0000
0000
0000
,
3100
0000
0000
0000
0010
0000
0000
0000
0000
0000
0000
0000
0000
0000
0000
0000
0000
0000
0000
0000
0000
0000
0000
0000
0001
0000
0000
0000
0000
0000
0000
0000
0000
0000
0000
0000
0000
0000
0000
0000
0000
0000
0000
0000
0000
0000
0000
0000
1001
0000
0000
0000
0010
0000
0000
0000
0000
0000
0000
0000
0000
0000
0000
0000
1000
0000
0000
0000
0000
0000
0000
0000
0010
0000
0000
0000
0100
0000
0000
0000
0000
0000
0000
0000
0000
0000
0000
0000
0000
0000
0000
0000
0000
0000
0000
0000
1000
0000
0000
0000
0001
0000
0000
0000
0000
0000
0000
0000
0000
0000
0000
0000
0000
0010
0000
0000
0000
0000
0000
0000
1100
0000
0000
0000
0000
0000
0000
0000
0000
0000
0000
0000
0000
0000
0000
0000
0000
0000
0000
0000
0000
0000
0000
0000
0110
0000
0000
0000
0001
0000
0000
0000
0000
0000
0000
0000
0000
0000
0000
0000
M1MM
0000
0000
0000
0000
0000
0000
0000
0000
0000
0000
0000
0010
0000
0000
0000
0000
0000
0000
0000
0000
0000
0000
0000
0000
0000
0000
0000
0000
0000
0000
0000
,
1000
0100
0000
0000
0000
0000
0010
0000
0000
0000
1000
0000
1011
0000
0000
0000
0000
0000
0010
0100
0000
0000
0000
0000
0101
0000
0000
0000
0010
0000
1100
0000
0000
0000
0000
0000
0110
0001
0000
MMMM
0000
0000
1000
0000
0000
0000
0000
0000
,
1002
0020
0003
0000
0000
0000
0100
0000
0000
0000
0000
0030
0000
0010
0000
0000
0010
0000
0100
0001
0000
0000
0010
0000
0000
0001
0000
0000
0000
0000
0100
1000
0000
0000
0000
0000
0000
0000
0000
0000
0000
0000
0100
0010
0000
0000
0100
0000
,
0000
0010
0000
0000
0000
0000
0100
1000
0000
0000
0000
0000
0000
0000
0000
0000
0000
0000
0100
1000
0000
0000
0000
0000
0000
1000
0000
0000
0000
0000
0100
1000
0000
0000
1000
0000
0010
0100
0000
0000
0101
0000
0000
0010
0000
0000
0110
0000
,
0001
1000
0000
0000
0100
0000
0001
0010
0000
0000
0100
0000
1001
0010
0000
0000
0000
0000
0100
1000
0000
0000
0000
0000
0000
0001
0000
0000
0110
0000
1000
0010
0000
0000
0000
0000
0002
0000
0000
0000
0100
0000
0000
0010
0000
0003
1000
0000
,
0001
0100
0000
0000
0000
0000
0001
0010
0000
0000
0100
0000
0010
1000
0000
0000
0001
0000
0100
0010
0000
0000
1000
0000
0000
0100
0000
0000
1010
0000
0100
0001
0000
0000
0010
0000
0102
1000
0000
0000
0000
0000
0000
0000
0000
0000
0000
0000
,
1003
0000
0000
1000
0000
0000
0001
0100
0000
0010
0000
0000
0010
0100
0000
0001
0000
0000
0001
0010
0000
0100
0000
0000
0100
1000
0000
0000
0000
0000
0011
0000
0000
0000
0000
0000
0011
0100
0000
0000
0000
0000
MMMM
0000
0000
0000
0000
0000
,
1000
0000
0000
1000
0000
0000
0100
0010
0000
0100
0001
0000
1000
0010
0000
0000
0100
0000
0000
1000
0000
0001
0100
0000
0001
1000
0000
0000
0000
0000
1100
0010
0000
0000
1000
0000
0110
0001
0000
0000
0001
0000
MM0M
0010
0000
0000
0001
0000
,
0010
0100
0000
0000
1000
0000
0010
0100
0000
0001
0010
0000
0100
0001
0000
0010
0100
0000
1000
0010
0000
1000
0000
0000
1000
0000
0000
0000
0000
0000
0001
0010
0000
0000
0100
0000
0011
1000
0000
0000
0000
0000
MMM0
0001
0000
0000
0000
0000
,
1000
0000
0000
0001
0000
0000
0001
0010
0000
0000
0100
0000
0000
1000
0000
0010
0001
0000
0010
0000
0000
0100
1000
0000
1000
0010
0000
0000
0000
0000
1100
0000
0000
0000
0100
0000
0011
0000
0000
0000
0001
0000
MM0M
0010
0100
0000
0000
0000
,
MMMM
0000
0000
0000
,
0000
0000
0000
0000
,
0000
0000
0000
0000
,
0000
0000
0000
0000
,
0000
0000
0000
0000
,
0000
0000
0000
0000
,
0000
0000
0000
0000
,
0000
0000
0000
0000
,
0000
0000
0000
0000
,
0000
0000
0000
0000
,
0000
0000
0000
0000
,
0000
0000
0000
0000
,
0000
0000
0000
0000
,
0000
0000
0000
0000
,
0000
0000
0000
0000
,
0000
0000
0000
0000
,
0000
0000
0000
0000
,
0000
0000
0000
0000
,
0000
0000
0000
0000
,
0000
0000
0000
0000
,
0000
0000
0000
0000
,
0000
0000
0000
0000
,
0000
0000
0000
0000
,
0000
0000
0000
0000
,
0000
0000
0000
0000
,
0000
0000
0000
0000
,
0000
0000
0000
0000
,
0000
0000
0000
0000
,
0000
0000
0000
0000
,
0000
0000
0000
0000
,
0000
0000
0000
0000
,
0000
0000
0000
0000
,
0000
0000
0000
0000
,
0000
0000
0000
0000
,
0000
0000
0000
0000
,
0000
0000
0000
0000
,
0000
0000
0000
0000
,
0000
0000
0000
0000
,
0000
0000
0000
0000
,
0000
0000
0000
0000
,
0000
0000
0000
0000
,
0000
0000
0000
0000
,
0000
0000
0000
0000
,
0000
0000
0000
0000
,
0000
0000
0000
0000
,
0000
0000
0000
0000
,
0000
0000
0000
0000
,
0000
0000
0000
0000
,
0000
0000
0000
0000
,
0000
0000
0000
0000
,
0000
0000
0000
0000
,
0000
0000
0000
0000
,
0000
0000
0000
0000
,
0000
0000
0000
0000
,
0000
0000
0000
0000
,
0000
0000
0000
0000
,
0000
0000
0000
0000
,
0000
0000
0000
0000
,
0000
0000
0000
0000
,
0000
0000
0000
0000
,
0000
0000
0000
0000
,
0000
0000
0000
0000
,
0000
0000
0000
0000
,
0000
0000
0000
0000
,
0000
0000
0000
0000
,
0000
0000
0000
0000
,
0000
0000
0000
0000
,
0000
0000
0000
0000
,
0000
0000
0000
0000
,
0000
0000
0000
0000
,
0000
0000
0000
0000
,
0000
0000
0000
0000
,
0000
0000
0000
0000
,
0000
0000
0000
0000
,
0000
0000
0000
0000
,
0000
0000
0000
0000
,
0000
0000
0000
0000
,
0000
0000
0000
0000
,
0000
0000
0000
0000
,
0000
0000
0000
0000
,
0000
0000
0000
0000
,
0000
0000
0000
0000
,
0000
0000
0000
0000
,
0000
0000
0000
0000
,
0000
0000
0000
0000
,
0000
0000
0000
0000
,
0000
0000
0000
0000
,
0000
0000
0000
0000
,
0000
0000
0000
0000
,
0000
0000
0000
0000
,
0000
0000
0000
0000
,
0000
0000
0000
0000
,
0000
0000
0000
0000
,
0000
0000
0000
0000
,
0000
0000
0000
0000
,
0000
0000
0000
0000
,
0000
0000
0000
0000
,
0000
0000
0000
0000
,
0000
0000
0000
0000
,
0000
0000
0000
0000
,
0000
0000
0000
0000
,
0000
0000
0000
0000
,
0000
0000
0000
0000
,
0000
0000
0000
0000
,
0000
0000
0000
0000
,
0000
0000
0000
0000
,
0000
0000
0000
0000
,
0000
0000
0000
0000
,
0000
0000
0000
0000
,
0000
0000
0000
0000
,
0000
0000
0000
0000
,
0000
0000
0000
0000
,
0000
0000
0000
0000
,
0000
0000
0000
0000
,
0000
0000
0000
0000
,
0000
0000
0000
0000
,
0000
0000
0000
0000
,
0000
0000
0000
0000
,
0000
0000
0000
0000
,
0000
0000
0000
0000
,
0000
0000
0000
0000
,
0000
0000
0000
0000
,
0000
0000
0000
0000
,
0000
0000
0000
0000
,
0000
0000
0000
0000
,
0000
0000
0000
0000
,
0000
0000
0000
0000
,
0000
0000
0000
0000
,
0000
0000
0000
0000
;
