#TITLE:Rudolph The Red-Nosed Reindeer;
#SUBTITLE:;
#ARTIST:CJ Crew Feat. Mr. Bygglz;
#TITLETRANSLIT:;
#SUBTITLETRANSLIT:;
#ARTISTTRANSLIT:;
#CREDIT:;
#BANNER:Rudolph The Red-Nosed Reindeer-bn.PNG;
#BACKGROUND:Rudolph The Red-Nosed Reindeer.PNG;
#LYRICSPATH:;
#CDTITLE:Christmas SPEED.png;
#MUSIC:Rudolph The Red-Nosed Reindeer.mp3;
#OFFSET:-10.040;
#SAMPLESTART:44.784;
#SAMPLELENGTH:12.000;
#SELECTABLE:YES;
#BPMS:0.000=172.000;
#STOPS:;
#BGCHANGES:;
// cache tags:
#FIRSTBEAT:4.000;
#LASTBEAT:232.000;
#SONGFILENAME:Songs/toune 2/Rudolph The Red-Nosed Reindeer/Rudolph The Red-Nosed Reindeer.sm;
#HASMUSIC:1;
#HASBANNER:1;
#MUSICLENGTH:98.228;
// end cache tags

//---------------dance-single - ----------------
#NOTES:
     dance-single:
     :
     Challenge:
     9:
     0.638,0.590,0.641,0.041,0.748,372.000,63.000,4.000,0.000,0.000:
0000
0000
0000
0000
,
1000
0000
0001
1000
0000
0010
1000
0000
0010
0100
0000
0100
,
1000
0000
0100
1000
0000
0001
0100
0000
0010
1000
0000
0100
,
1000
0000
0010
0100
0000
0010
1000
0000
0100
1000
0000
0100
,
1000
1100
1010
1100
,
0001
0000
1000
0001
0000
1000
0010
0000
0100
0010
0000
1000
,
0001
0000
0010
0100
0000
0100
1000
0000
0010
0100
0000
0010
,
1000
0000
0001
0100
0000
1000
0001
0000
1000
0100
0000
1000
,
0010
0000
0001
0100
0000
1000
0010
0000
0100
1000
0010
1000
,
0100
0000
0100
0001
0000
1000
0100
0000
0010
0100
0000
0010
,
1000
0000
0001
0100
0000
0010
1000
0000
0100
1000
0000
0010
,
0100
0000
0010
1000
0000
0100
1000
0000
0010
0001
0000
0100
,
0010
0000
1000
0100
1000
0100
0010
0000
0100
0010
1000
0001
,
0100
0000
0010
0001
0000
1000
0100
0000
0010
0001
0000
0100
,
0010
0000
1000
0100
0000
0010
1000
0000
0010
0001
0000
1000
,
0100
0000
0001
1000
0000
0100
0010
0000
0100
0001
0000
0000
,
0110
1001
0110
1001
,
1000
0000
0010
0001
0000
0100
1000
0000
0010
0100
0000
0010
,
0001
0000
0100
1000
0000
0010
0100
0000
0001
0010
0000
1000
,
0001
0000
0010
0100
0000
1000
0010
0000
0100
0001
0000
0010
,
1000
0000
0100
0010
0001
1000
0010
0000
0100
0010
0001
1000
,
0100
0000
0001
1000
0000
0100
0010
0000
0001
0010
0000
0100
,
0010
0000
1000
0100
0000
0010
0001
0000
0100
0010
0000
1000
,
0100
0000
0010
0001
0000
0010
0100
0000
0001
0010
0000
0000
,
1100
0011
1100
0011
,
0100
0000
0001
1000
0000
0100
0010
0000
0100
1000
0000
0010
,
1000
0000
0001
0100
0000
0001
0010
0000
1000
0001
0000
0100
,
1000
0000
1000
0100
0000
1000
0010
0000
1000
0001
0000
1000
,
0100
0110
1001
0011
,
0010
0000
1000
0100
0000
1000
0001
0000
0010
1000
0000
0001
,
1000
0000
0100
0010
0000
1000
0001
0000
0001
0100
0000
0001
,
0100
0000
0010
0100
0000
1000
0010
0000
1000
0001
0000
0010
,
1000
0000
0010
0100
0010
0001
1000
0000
0010
0001
0010
1000
,
0010
0000
1000
0001
0000
0100
0001
0000
0001
0100
0000
0010
,
0100
0000
1000
0100
0000
1000
0010
0000
0010
1000
0000
0100
,
1000
0000
0100
1000
0000
0100
0001
0000
1000
0100
0000
0000
,
1100
0011
1100
0011
,
1000
0000
0001
0010
0000
0100
0001
0000
0001
1000
0000
0100
,
0010
0000
0001
0010
0000
0010
0100
0000
0001
0010
0000
1000
,
0001
0000
0001
0100
0000
0010
1000
0000
0100
0001
0000
0000
,
0011
0000
0000
1001
0000
0000
1010
0000
0000
0100
1000
0100
,
0001
0011
0110
0110
,
0101
0110
2100
3010
,
0110
0011
1100
0110
,
0110
0000
0100
0001
1000
0100
1000
0000
0100
1000
0010
0001
,
0100
0011
1100
0110
,
1100
0011
0210
0301
,
1010
0101
0011
0110
,
1001
1100
0110
0110
,
1000
0100
0010
0001
,
0100
0010
0001
1000
,
0101
0110
1001
0110
,
1100
1001
0110
1010
,
0001
0100
0010
0001
,
1000
0010
0001
0100
,
0110
0011
1100
0110
,
0110
0011
1100
0110
,
2002
0000
0000
0000
,
3003
0000
0000
0000
;
