#TITLE:In Time;
#SUBTITLE:Singularity Remix;
#ARTIST:PeaceTreaty ft. Anabel Englund;
#TITLETRANSLIT:;
#SUBTITLETRANSLIT:;
#ARTISTTRANSLIT:;
#CREDIT:;
#BANNER:../Wubstream - ban.png;
#BACKGROUND:../Wubstream - bg.png;
#LYRICSPATH:;
#CDTITLE:;
#MUSIC:PeaceTreaty ft. Anabel Englund - In Time (Singularity Remix).ogg;
#OFFSET:-0.094;
#SAMPLESTART:71.307;
#SAMPLELENGTH:24.000;
#SELECTABLE:YES;
#BPMS:0.000=142.000;
#STOPS:;
#BGCHANGES:;
// cache tags:
#FIRSTBEAT:7.000;
#LASTBEAT:480.500;
#SONGFILENAME:Songs/Wubstream/In Time - [Rynker]/in time.sm;
#HASMUSIC:1;
#HASBANNER:1;
#MUSICLENGTH:205.684;
// end cache tags

//---------------dance-single - Rynker----------------
#NOTES:
     dance-single:
     Rynker:
     Challenge:
     15:
     1.000,1.000,0.277,0.092,1.000,1502.000,57.000,19.000,0.000,0.000:






0000
0000
0000
0000
,
0000
0000
0000
0000
0000
0000
0000
0000
0000
0000
0000
0000
1001
0000
0000
0001
,
1000
0000
0001
0000
1000
0000
0000
0001
1000
0000
1001
0000
1000
0001
0000
0000
,
1001
0000
0000
0001
1000
0000
0010
0000
0100
0001
0100
0000
0101
0000
0000
0001
,
1000
0000
0100
0000
1100
0000
1000
0000
0001
0000
0010
0100
1000
0000
1000
0000
,
1001
0000
0000
1000
0001
0000
0101
0000
0000
0100
0000
0000
0101
0000
0000
0100
,
0001
0000
1000
0000
0010
0000
0000
1000
0010
0000
1010
0000
1000
0010
0000
0000
,
1010
0000
0000
1000
0001
0000
0100
0000
0001
1000
0000
0100
1000
0000
0000
1000
,
0001
1000
0002
0000
0000
0000
0000
0000
,
0000
2003
0000
0000
,
0000
0000
3001
0010
1000
0001
0100
1000
,
0001
0010
0100
0010
1000
0001
0100
1000
,
0010
0100
0001
0100
1000
0001
0010
1000
,
0100
0010
0001
0100
1000
0001
0100
1000
,
0100
0010
0001
0100
1000
0001
0010
1000
,
0100
0010
0001
0010
1000
0001
0010
1000
,
0010
0100
0001
0100
1000
0001
0010
1000
,
0001
0100
0010
0100
1000
0001
0010
1000
,
0100
0010
0001
0010
1000
0001
0010
1000
,
0100
0000
0010
0000
0001
1000
0001
1000
0010
0100
0010
1000
0001
1000
0001
0010
,
0100
1000
0100
1000
0010
0100
0001
0010
0001
0100
0001
1000
0100
0010
0001
0010
,
0100
1000
0001
1000
0010
0100
0001
0100
0010
1000
0100
0010
0001
0010
0100
1000
,
0001
1000
0010
0100
0010
1000
0001
0010
0100
1000
0100
0010
0001
1000
0010
0100
,
0010
1000
0001
0010
0001
1000
0100
0010
0001
1000
0010
0100
0001
0000
0000
0000
,
0000
0000
0000
0000
0000
0000
1000
0010
0100
0010
1000
0001
0010
0100
1000
0001
0100
0010
1000
0000
0000
0000
0000
0000
,
0001
0010
0100
1000
0010
1000
0100
0010
0001
1000
0010
0100
0010
1000
0001
0010
0100
1000
0001
0000
0000
1000
0010
0100
,
0010
0000
1000
0000
0001
0000
0010
0000
0100
0000
1000
0000
0010
0000
0100
0000
0001
0000
1000
0000
0100
0000
0010
0000
0001
0000
1000
0000
0010
0000
0100
0000
0001
0000
0010
0000
0100
0000
0000
0000
0000
0000
1000
0000
0000
0001
0000
0000
,
0000
0000
0000
0001
0000
0000
2000
0000
0000
0000
0000
0000
3010
0000
0000
0200
0000
0000
0000
0000
0000
0301
0000
0000
0010
0000
0001
0000
1000
0000
0001
0000
1000
0000
0001
0000
0010
0000
0000
0000
0000
0000
0001
0000
0010
0000
0100
0000
,
1000
0100
1000
0010
0100
0001
1000
0100
0010
0001
0010
0100
1000
0010
0100
0001
1000
0001
1000
0000
0000
0000
0000
0000
,
0001
0010
0100
1000
0010
1000
0100
0010
0001
0100
0010
1000
0001
1000
0010
0100
0010
1000
0001
0000
0000
1000
0010
0100
,
0010
0000
1000
0000
0100
0000
0010
0000
0001
0000
0010
0000
0100
0000
1000
0000
0010
0000
0100
0000
0001
0000
1000
0000
0100
0000
1000
0000
0001
0000
0100
0000
0010
0000
1000
0000
0001
0000
0000
0000
0000
0000
1000
0000
0000
0010
0000
0000
,
0100
0000
0000
0001
0000
0000
2000
0000
0000
0000
0000
0000
3001
0000
0000
0020
0000
0000
0000
0000
0000
0031
0000
0000
1000
0000
0010
0000
0100
0000
0010
0000
1000
0000
0001
0000
1000
0000
0000
0000
0000
0000
0010
0000
1000
0000
0010
0000
,
0100
0001
1000
0100
0010
0100
1000
0001
0010
0100
1000
0010
0100
0001
1000
0100
1000
0001
0010
0000
0000
0000
0000
0000
,
0001
0010
0100
1000
0001
0100
0010
0100
0001
1000
0100
1000
0001
0100
0010
1000
0100
0010
0001
0000
0000
1000
0010
0100
,
0010
0000
1000
0000
0001
0000
0010
0000
0100
0000
1000
0000
0100
0000
0010
0000
0001
0000
0100
0000
0010
0000
1000
0000
0001
0000
1000
0000
0010
0000
0100
0000
0010
0000
1000
0000
0001
0000
0000
0000
0000
0000
1000
0000
0000
0001
0000
0000
,
0000
0000
0000
0001
0000
0000
2000
0000
0000
0000
0000
0000
3001
0000
0000
0200
0000
0000
0000
0000
0000
0301
0000
0000
0010
0000
0100
0000
1000
0000
0001
0000
0100
0000
0010
0000
0100
0000
0000
0000
0000
0000
0001
0000
1000
0000
0100
0000
,
0010
0001
0010
0100
1000
0001
0100
0010
0100
0001
0010
0100
1000
0100
0010
0001
1000
0010
0100
0000
0000
0000
0000
0000
,
0001
0100
0010
1000
0010
0100
0001
1000
0100
0010
0100
1000
0001
0010
0100
1000
0010
0100
0001
0000
0000
1000
0010
0100
,
0001
0000
0010
0000
0100
0000
1000
0000
0100
0000
0010
0000
0001
0000
0100
0000
0010
0000
1000
0000
0010
0000
0100
0000
0001
0000
0100
0000
0010
0000
1000
0000
0001
0000
0010
0000
0100
0000
0000
0000
0000
0000
1000
0000
0000
0001
0000
0000
,
0000
0000
0000
0001
0000
0000
2000
0000
0000
0000
0000
0000
3001
0000
0000
0200
0000
0000
0000
0000
0000
0301
0000
0000
1000
0000
0100
0000
0010
0000
0001
0000
1000
0000
0100
0000
1000
0000
0000
0000
0000
0000
0001
0000
0100
0000
0010
0000
,
0100
0001
1000
0100
0010
0001
0100
0001
1000
0100
1000
0001
0100
0010
1000
0100
0010
0001
1000
0000
0000
0000
0000
0000
,
0001
0100
0010
0100
0001
1000
0100
0010
0001
0010
0100
1000
0001
0100
0001
1000
0100
1000
0001
0000
0000
1000
0010
0100
,
0001
0000
0010
0000
0100
0000
1000
0000
0100
0000
0010
0000
0001
0000
0100
0000
0010
0000
1000
0000
0100
0000
1000
0000
0001
0000
0100
0000
0010
0000
0100
0000
0001
0000
1000
0000
0001
0000
0000
0000
0000
0000
1000
0000
0000
0100
0000
0000
,
0010
0000
0000
0001
0000
0000
2000
0000
0000
0000
0000
0000
3100
0000
0000
0020
0000
0000
0000
0000
0000
0031
0000
0000
0010
0000
0100
0000
1000
0000
0001
0000
0100
0000
0010
0000
0100
0000
0000
0000
0000
0000
0001
0000
0100
0000
0010
0000
,
0100
0001
1000
0100
0010
0001
1000
0100
0010
0001
0100
0010
1000
0100
1000
0001
0010
0100
1000
0000
0000
0000
0000
0000
,
0001
0100
0010
1000
0001
0100
0010
1000
0100
0010
0001
1000
0001
0100
0010
1000
0100
1000
0001
0000
0000
0100
0010
0100
,
0001
0000
0010
0000
0100
0000
1000
0000
0100
0000
0010
0000
0001
0000
1000
0000
0001
0000
0100
0000
0010
0000
1000
0000
0100
0000
0010
0000
0001
0000
1000
0000
0001
0000
0100
0000
0010
0000
0000
0000
0000
0000
1000
0000
0000
0001
0000
0000
,
0000
0000
0000
0001
0000
0000
2000
0000
0000
0000
0000
0000
3100
0000
0000
0020
0000
0000
0000
0000
0000
0031
0000
0000
1000
0000
0001
0000
0100
0000
0010
0000
0100
0000
0001
0000
1000
0000
0000
0000
0000
0000
0001
0000
0100
0000
0010
0000
,
0100
0001
0010
0100
1000
0001
0100
0010
1000
0001
0100
0001
0010
0100
1000
0010
0100
0001
1000
0000
0000
0000
0000
0000
,
0001
0010
0100
1000
0010
0100
0001
1000
0100
0010
0001
1000
0001
0100
0010
1000
0100
0010
0001
0000
0000
1000
0100
0010
,
0001
0000
0100
0000
0010
0000
0100
0000
0001
0000
1000
0000
0100
0000
0010
0000
0100
0000
1000
0000
0001
0000
0100
0000
0010
0000
0100
0000
0001
0000
1000
0000
0100
0000
1000
0000
0001
0000
0000
0000
0000
0000
1000
0000
0000
0100
0000
0000
,
0010
0000
0000
0001
0000
0000
2000
0000
0000
0000
0000
0000
3010
0000
0000
0200
0000
0000
0000
0000
0000
0301
0000
0000
0010
0000
0001
0000
1000
0000
0100
0000
0010
0000
0001
0000
2000
0000
0000
0000
0000
0000
0000
0000
0000
0000
0000
0000
,
0010
0000
3001
0001
1001
0001
0100
0001
,
0101
0000
0000
0001
1000
0000
0001
0000
1000
0001
0000
0000
1001
0000
0000
0001
,
1000
0000
0001
0000
1000
0000
0000
0001
1000
0000
1001
0000
1000
0001
0000
0000
,
1001
0000
0000
0001
1000
0000
0010
0000
0100
0001
0100
0000
0101
0000
0000
0001
,
1000
0000
0100
0000
1100
0000
0100
0000
1000
0000
0100
0010
0001
0000
0001
0000
,
1001
0000
0000
0001
1000
0000
0001
0000
1000
0001
0000
0000
1100
0000
0000
0100
,
1000
0000
0001
0000
1000
0000
0000
0001
0100
0000
0101
0000
0100
0001
0000
0000
,
1100
0000
0000
0100
0010
0000
0001
0000
1000
0001
0000
1000
0001
0000
0000
0001
,
1000
0000
0001
0000
0101
0000
0001
0000
0010
0000
0001
0100
0010
0000
1000
0000
,
1100
0000
0000
0100
1000
0000
1001
0000
0000
0001
0000
0000
1100
0000
0000
0100
,
1000
0000
0001
0000
1000
0000
0000
0010
1000
0000
1010
0000
1000
0010
0000
0000
,
1001
0000
0000
0001
0010
0000
0100
0000
1000
0010
0000
0100
0001
0000
0000
0001
,
1000
0000
0001
0000
1000
0000
0001
0000
1001
0000
0001
0010
0100
0000
0100
0000
,
1100
0000
0000
0001
1000
0000
1010
0000
0000
0001
0000
0000
1001
0000
0000
0001
,
0010
0000
0001
0000
1000
0000
0000
0001
0100
0000
0110
0000
0100
0001
0000
0000
,
1100
0000
0000
0100
0010
0000
0001
0000
1000
0001
0000
0010
0100
0000
0000
0100
,
1000
0000
0001
0000
0100
0000
0001
0000
0101
0000
0001
0010
0100
0000
0100
0000
,
1100
0000
0000
0001
1000
0000
1001
0000
0000
0001
0000
0000
1100
0000
0000
0100
,
1000
0000
0001
0000
1000
0000
0000
0100
1000
0000
1100
0000
1000
0100
0000
0000
,
1100
0000
0000
0100
0010
0000
0001
0000
1000
0001
0000
1000
0001
0000
0000
0001
,
1000
0000
0001
0000
1000
0000
0001
0000
1001
0000
0001
0100
0010
0000
0010
0000
,
1010
0000
0000
0001
1000
0000
1100
0000
0000
0001
0000
0000
1001
0000
0000
0001
,
0100
0000
0001
0000
1000
0000
0000
0001
1000
0000
1001
0000
1000
0001
0000
0000
,
1100
0000
0000
0100
0010
0000
0001
0000
1000
0001
0000
0010
0100
0000
0000
0100
,
1000
0001
0200
0000
0000
0000
0000
0000
,
0300
0000
0001
0100
1000
0001
0100
1000
,
0001
0010
0100
0010
1000
0001
0100
1000
,
0001
0010
0100
0010
1000
0001
0010
1000
,
0001
0100
0010
0100
1000
0001
0100
1000
,
0001
0100
0010
0100
1000
0001
0100
1000
,
0100
0010
0001
0010
1000
0001
0010
1000
,
0100
0010
0001
0100
1000
0001
0010
1000
,
0001
0100
0010
0100
1000
0001
0100
1000
,
0100
0010
0001
0010
1000
0001
0010
1000
,
0001
0000
0100
0000
0010
0100
0001
1000
0100
0010
0001
0010
0100
1000
0001
0100
,
0010
1000
0010
0100
0001
1000
0100
0010
0001
0010
0100
1000
0001
0100
0010
1000
,
0010
0100
0001
1000
0100
0010
0001
0010
0100
1000
0010
0100
0001
0100
0010
1000
,
0100
0010
0001
0010
0100
1000
0010
0100
0001
0100
0010
1000
0001
0010
0100
1000
,
0100
0010
0001
1000
0001
0100
0010
0100
0001
0010
0100
1000
0100
0010
0001
0100
,
0010
1000
0100
1000
0010
0100
0001
0100
0010
1000
0100
0010
0001
0000
0000
0000
,
0000
0000
0000
0000
0000
0000
1000
0100
0010
0001
0100
0010
0100
0001
1000
0100
0010
0001
1000
0000
0000
0000
0000
0000
,
0000
0000
0000
0000
0000
0000
0001
0100
0010
0100
0001
1000
0001
0100
0010
1000
0100
1000
0010
0100
0001
1000
0001
1000
,
0100
0010
0001
1000
0001
0100
0010
1000
0001
1000
0001
0100
0010
1000
0001
0010
0100
1000
0001
0000
0000
0000
0000
0000
,
1000
0001
0100
0010
0100
0001
0010
0100
1000
0100
0010
0001
1000
0001
0100
0010
0100
0001
1000
0010
0100
0001
1000
0100
,
0010
0001
0010
0100
1000
0001
0100
0010
0100
0001
1000
0001
1000
0100
0010
0001
0100
0010
1000
0000
0000
0000
0000
0000
,
0000
0000
0000
0000
0000
0000
0001
0100
0010
0100
0001
1000
0100
0010
0001
1000
0010
0100
0001
1000
0100
0010
0001
1000
,
0010
1000
0100
0010
0001
0100
0010
0100
0001
1000
0100
0010
0001
0010
0100
1000
0001
0100
0010
0000
0000
0000
0000
0000
,
1000
0100
0010
0001
0010
0100
1000
0001
0100
0010
0100
0001
1000
0100
0010
0001
0010
0100
1000
0001
0100
0010
0100
0001
,
1000
0010
0100
0001
1000
0100
0010
0001
0100
0010
0100
0001
1000
0100
0010
0001
0010
0100
1000
0000
0000
0000
0000
0000
,
0000
0000
0000
0000
0000
0000
0001
0100
0010
0100
0001
1000
0100
0010
0001
1000
0010
1000
0100
0010
0001
1000
0010
0100
,
0001
0010
0100
1000
0100
0010
0001
1000
0001
0100
0010
0100
0001
1000
0100
0010
0001
1000
0001
0000
0000
0000
0000
0000
,
1000
0100
0010
0001
0010
0100
1000
0001
0100
0001
1000
0010
0100
0001
0010
0100
1000
0100
0010
0001
0100
0010
1000
0010
,
0100
0001
1000
0100
0010
0001
1000
0100
1000
0001
0100
0010
0100
0001
1000
0100
0010
0001
1000
0000
0000
0000
0000
0000
,
0000
0000
0000
0000
0000
0000
0001
0100
0010
0100
0001
0010
0100
1000
0100
0010
0001
1000
0001
0100
0010
0100
0001
1000
,
0100
0010
0001
1000
0001
0100
0010
0100
0001
1000
0100
0010
0001
0010
0100
1000
0100
0010
0001
0000
0000
0000
0000
0000
,
1000
0010
0100
0001
0010
0100
1000
0100
0010
0001
1000
0010
0100
0010
1000
0001
0100
0010
0100
0001
1000
0010
0100
0001
,
2000
0000
3001
0001
1001
0001
0101
0001
,
0101
0000
0000
0001
1000
0000
0001
0000
1000
0001
0000
0000
1001
0000
0000
0001
,
1000
0000
0001
0000
1000
0000
0000
0001
1000
0000
1001
0000
1000
0001
0000
0000
,
1001
0000
0000
0001
1000
0000
0010
0000
0100
0001
0100
0000
0101
0000
0000
0001
,
1000
0000
0100
0000
1100
0000
0100
0000
1000
0000
0100
0010
0001
0000
0001
0000
,
1001
0000
0000
0001
1000
0000
0001
0000
1000
0001
0000
0000
1100
0000
0000
0100
,
1000
0000
0001
0000
1000
0000
0000
0001
0100
0000
0101
0000
0100
0001
0000
0000
,
1100
0000
0000
0100
0010
0000
0001
0000
1000
0001
0000
1000
0001
0000
0000
0001
,
1000
0001
0100
0010
1000
0001
0100
0010
,
1000
0000
0000
0001
0000
0000
0010
0000
0000
0100
0000
0000
1000
0000
0000
0001
,
0000
0000
0100
0000
0010
0000
0000
1000
0000
0000
0100
0000
0000
0010
0000
0000
,
0001
0000
0000
0100
0000
0000
0010
0000
0000
0100
0000
0000
0001
0000
0000
0010
,
0000
0100
0000
0000
0000
0000
0000
0000
;

//---------------dance-single - Rynker----------------
#NOTES:
     dance-single:
     Rynker:
     Hard:
     11:
     0.920,0.964,0.277,0.092,1.000,1249.000,57.000,19.000,0.000,0.000:

0000
0000
0000
0000
,
0000
0000
0000
0000
0000
0000
0000
0000
0000
0000
0000
0000
1001
0000
0000
0001
,
1000
0000
0001
0000
1000
0000
0000
0001
1000
0000
1001
0000
1000
0001
0000
0000
,
1001
0000
0000
0001
1000
0000
0010
0000
0100
0001
0100
0000
0101
0000
0000
0001
,
1000
0000
0100
0000
1100
0000
1000
0000
0001
0000
0010
0100
1000
0000
1000
0000
,
1001
0000
0000
1000
0001
0000
0101
0000
0000
0100
0000
0000
0101
0000
0000
0100
,
0001
0000
1000
0000
0010
0000
0000
1000
0010
0000
1010
0000
1000
0010
0000
0000
,
1010
0000
0000
1000
0001
0000
0100
0000
0001
1000
0000
0100
1000
0000
0000
1000
,
0001
1000
0002
0000
0000
0000
0000
0000
,
0000
2003
0000
0000
,
0000
0000
3001
0010
1000
0001
0100
1000
,
0001
0010
0100
0010
1000
0001
0100
1000
,
0010
0100
0001
0100
1000
0001
0010
1000
,
0100
0010
0001
0100
1000
0001
0100
1000
,
0100
0010
0001
0100
1000
0001
0010
1000
,
0100
0010
0001
0010
1000
0001
0010
1000
,
0010
0100
0001
0100
1000
0001
0010
1000
,
0001
0100
0010
0100
1000
0001
0010
1000
,
0100
0010
0001
0010
1000
0001
0010
1000
,
0100
0000
0010
0000
0001
1000
0001
1000
0010
0100
0010
1000
0001
1000
0001
0010
,
0100
1000
0100
1000
0010
0100
0001
0010
0001
0100
0001
1000
0100
0010
0001
0010
,
0100
1000
0001
1000
0010
0100
0001
0100
0010
1000
0100
0010
0001
0010
0100
1000
,
0001
1000
0010
0100
0010
1000
0001
0010
0100
1000
0100
0010
0001
1000
0010
0100
,
0010
1000
0001
0010
0001
1000
0100
0010
0001
1000
0010
0100
0001
0000
0000
0000
,
0000
0000
0000
0000
1000
0100
0010
0100
1000
0010
0100
0001
0010
0000
0000
0000
,
0001
0100
0010
1000
0010
0100
0001
1000
0001
1000
0100
0010
0001
0000
1000
0010
,
1000
0100
0010
0001
1000
0010
0100
0001
0010
0100
1000
0001
0100
0000
0001
1000
,
0000
1000
0002
0000
0103
0020
0000
1030
0100
0010
0001
0100
0010
0000
1000
0100
,
1000
0010
0100
0001
0010
0100
1000
0001
0100
0010
1000
0001
1000
0000
0000
0000
,
0001
0010
0100
0010
0001
1000
0100
0010
0001
0100
0010
0100
0001
0000
1000
0100
,
0010
0001
0010
0100
1000
0001
0100
0010
0100
0001
1000
0001
0010
0000
0001
1000
,
0010
0100
0002
0000
1003
0200
0000
1300
0001
0010
0100
1000
0010
0000
0100
0001
,
0100
0010
1000
0010
0100
0001
0010
0100
1000
0100
0010
0001
1000
0000
0000
0000
,
0001
0100
0010
1000
0010
0100
0001
1000
0100
1000
0001
0010
0100
0000
0010
0001
,
0100
0010
1000
0010
0100
0001
1000
0100
1000
0001
0010
0100
1000
0000
0001
1000
,
0000
1000
0002
0000
1003
0020
0000
1030
0001
0100
0010
0100
0001
0000
1000
0100
,
0010
0001
0010
0100
1000
0010
0100
0001
0100
0001
0010
0100
1000
0000
0000
0000
,
0001
0100
0010
0100
0001
1000
0001
0100
0010
1000
0100
0010
0100
0000
1000
0100
,
0010
0001
1000
0010
0100
0010
1000
0001
0010
0100
1000
0001
0100
0000
0001
1000
,
0000
1000
0002
0000
0103
0020
0000
1030
0001
0010
0100
1000
0001
0000
0100
0010
,
1000
0100
1000
0010
0100
0001
0010
0001
0100
0010
1000
0001
1000
0000
0000
0000
,
0001
0010
0100
0010
0001
1000
0100
0010
0001
0100
0010
1000
0010
0000
0100
0001
,
0010
0001
0100
0010
1000
0100
1000
0001
0010
0100
1000
0001
0100
0000
0001
0010
,
0100
1000
0002
0000
0013
0200
0000
1300
0001
0100
0010
1000
0001
0000
1000
0100
,
0010
0001
0010
0100
1000
0010
0100
0001
0100
0010
1000
0001
1000
0000
0000
0000
,
0001
0010
0100
0010
0001
1000
0001
0100
0010
1000
0100
0010
0001
0000
1000
0010
,
0100
0010
1000
0100
0010
0001
0010
0100
1000
0001
0100
0010
0100
0000
0001
1000
,
0000
1000
0002
0000
0013
0200
0000
1300
0001
0100
0010
1000
0100
0000
1000
0100
,
0010
0001
0010
0100
1000
0010
0100
0001
0100
0010
1000
0001
0010
0000
0000
0000
,
0100
1000
0100
0010
0001
0010
0100
1000
0001
0100
0010
1000
0001
0000
0010
0100
,
0010
0001
1000
0001
0100
0010
0100
0001
1000
0100
0010
0001
1000
0000
0001
0010
,
0100
1000
0002
0000
0103
0020
0000
1030
0100
0010
0001
1000
0002
0000
0000
0000
,
0100
0000
1003
1000
1001
1000
0010
1000
,
1010
0000
0000
1000
0001
0000
1000
0000
0001
1000
0000
0000
1001
0000
0000
1000
,
0001
0000
1000
0000
0001
0000
0000
1000
0001
0000
1001
0000
0001
1000
0000
0000
,
1001
0000
0000
1000
0001
0000
0100
0000
0010
1000
0010
0000
1010
0000
0000
1000
,
0001
0000
0010
0000
0011
0000
0010
0000
0001
0000
0010
0100
1000
0000
1000
0000
,
1001
0000
0000
1000
0001
0000
1000
0000
0001
1000
0000
0000
0011
0000
0000
0010
,
0001
0000
1000
0000
0001
0000
0000
1000
0010
0000
1010
0000
0010
1000
0000
0000
,
0011
0000
0000
0010
0100
0000
1000
0000
0001
1000
0000
0001
1000
0000
0000
1000
,
0001
0000
1000
0000
1010
0000
1000
0000
0100
0000
1000
0010
0100
0000
0001
0000
,
0011
0000
0000
0010
0001
0000
1001
0000
0000
1000
0000
0000
0011
0000
0000
0010
,
0001
0000
1000
0000
0001
0000
0000
0100
0001
0000
0101
0000
0001
0100
0000
0000
,
1001
0000
0000
1000
0100
0000
0010
0000
0001
0100
0000
0010
1000
0000
0000
1000
,
0001
0000
1000
0000
0001
0000
1000
0000
1001
0000
1000
0100
0010
0000
0010
0000
,
0011
0000
0000
1000
0001
0000
0101
0000
0000
1000
0000
0000
1001
0000
0000
1000
,
0100
0000
1000
0000
0001
0000
0000
1000
0010
0000
0110
0000
0010
1000
0000
0000
,
0011
0000
0000
0010
0100
0000
1000
0000
0001
1000
0000
0100
0010
0000
0000
0010
,
0001
0000
1000
0000
0010
0000
1000
0000
1010
0000
1000
0100
0010
0000
0010
0000
,
0011
0000
0000
1000
0001
0000
1001
0000
0000
1000
0000
0000
0011
0000
0000
0010
,
0001
0000
1000
0000
0001
0000
0000
0010
0001
0000
0011
0000
0001
0010
0000
0000
,
0011
0000
0000
0010
0100
0000
1000
0000
0001
1000
0000
0001
1000
0000
0000
1000
,
0001
0000
1000
0000
0001
0000
1000
0000
1001
0000
1000
0010
0100
0000
0100
0000
,
0101
0000
0000
1000
0001
0000
0011
0000
0000
1000
0000
0000
1001
0000
0000
1000
,
0010
0000
1000
0000
0001
0000
0000
1000
0001
0000
1001
0000
0001
1000
0000
0000
,
0011
0000
0000
0010
0100
0000
1000
0000
0001
1000
0000
0100
0010
0000
0000
0010
,
0001
1000
0020
0000
0000
0000
0000
0000
,
0030
0000
1000
0010
0001
1000
0010
0001
,
1000
0100
0010
0100
0001
1000
0010
0001
,
1000
0100
0010
0100
0001
1000
0100
0001
,
1000
0010
0100
0010
0001
1000
0010
0001
,
1000
0010
0100
0010
0001
1000
0010
0001
,
0010
0100
1000
0100
0001
1000
0100
0001
,
0010
0100
1000
0010
0001
1000
0100
0001
,
1000
0010
0100
0010
0001
1000
0010
0001
,
0010
0100
1000
0100
0001
1000
0100
0001
,
1000
0000
0010
0000
0100
0010
1000
0001
0010
0100
1000
0100
0010
0001
1000
0010
,
0100
0001
0100
0010
1000
0001
0010
0100
1000
0100
0010
0001
1000
0010
0100
0001
,
0100
0010
1000
0001
0010
0100
1000
0100
0010
0001
0100
0010
1000
0010
0100
0001
,
0010
0100
1000
0100
0010
0001
0100
0010
1000
0010
0100
0001
1000
0100
0010
0001
,
0010
0100
1000
0001
1000
0010
0100
0010
1000
0100
0010
0001
0010
0100
1000
0010
,
0100
0001
0010
0001
0100
0010
1000
0010
0100
0001
0010
0100
1000
0000
0000
0000
,
0000
0000
0000
0000
0001
0100
0010
0100
0001
1000
0100
0010
0001
0000
0000
0000
,
0000
0000
0000
0000
1000
0100
0010
0001
0010
0100
1000
0010
0100
0001
0100
0010
,
1000
0100
1000
0001
0010
0100
0010
0001
1000
0001
0100
0010
1000
0000
0000
0000
,
0001
0100
0010
0100
0001
1000
0100
0010
0100
1000
0001
0100
0010
1000
0100
1000
,
0010
0100
0001
0100
0010
1000
0100
1000
0001
0010
0100
1000
0001
0000
0000
0000
,
0000
0000
0000
0000
1000
0100
0010
0001
1000
0001
0100
0010
1000
0010
0100
0001
,
1000
0100
1000
0001
0010
0100
1000
0001
0100
0010
0100
0001
1000
0000
0000
0000
,
0001
0100
0010
0100
0001
1000
0100
0010
0100
1000
0010
0100
0001
1000
0010
0100
,
0001
1000
0100
1000
0001
0010
0100
1000
0001
0100
0010
0100
0001
0000
0000
0000
,
0000
0000
0000
0000
1000
0100
0010
0001
0010
0100
1000
0001
0100
0010
0100
0001
,
0010
0100
1000
0010
0100
0001
0100
0010
1000
0001
1000
0001
1000
0000
0000
0000
,
0001
0100
0010
0100
0001
1000
0100
0010
0100
1000
0001
0100
0010
1000
0100
1000
,
0001
0010
0100
1000
0001
0100
0001
1000
0010
0100
0010
1000
0001
0000
0000
0000
,
0000
0000
0000
0000
1000
0100
0010
0001
0010
0100
1000
0001
0100
0010
0100
0001
,
1000
0010
0100
0001
1000
0100
1000
0001
0010
0100
1000
0001
0100
0000
0000
0000
,
0010
1000
0010
0100
0001
1000
0100
0010
0001
0010
0100
1000
0010
0100
0001
1000
,
0002
0000
1003
1000
1001
1000
1010
1000
,
1010
0000
0000
1000
0001
0000
1000
0000
0001
1000
0000
0000
1001
0000
0000
1000
,
0001
0000
1000
0000
0001
0000
0000
1000
0001
0000
1001
0000
0001
1000
0000
0000
,
1001
0000
0000
1000
0001
0000
0100
0000
0010
1000
0010
0000
1010
0000
0000
1000
,
0001
0000
0010
0000
0011
0000
0010
0000
0001
0000
0010
0100
1000
0000
1000
0000
,
1001
0000
0000
1000
0001
0000
1000
0000
0001
1000
0000
0000
0011
0000
0000
0010
,
0001
0000
1000
0000
0001
0000
0000
1000
0010
0000
1010
0000
0010
1000
0000
0000
,
0011
0000
0000
0010
0100
0000
1000
0000
0001
1000
0000
0001
1000
0000
0000
1000
,
0001
1000
0010
0100
0001
1000
0010
0100
,
0001
0000
0000
1000
0000
0000
0100
0000
0000
0010
0000
0000
0001
0000
0000
1000
,
0000
0000
0010
0000
0100
0000
0000
0001
0000
0000
0010
0000
0000
0100
0000
0000
,
1000
0000
0000
0010
0000
0000
0100
0000
0000
0010
0000
0000
1000
0000
0000
0100
,
0000
0100
0000
0000
0000
0000
0000
0000
;
