#TITLE:Windmill Hut;
#SUBTITLE:;
#ARTIST:近藤浩治;
#TITLETRANSLIT:;
#SUBTITLETRANSLIT:;
#ARTISTTRANSLIT:Koji Kondo;
#CREDIT:;
#BANNER:;
#BACKGROUND:;
#LYRICSPATH:;
#CDTITLE:;
#MUSIC:57 - Windmill Hut.mp3;
#OFFSET:0.000;
#SAMPLESTART:0.040;
#SAMPLELENGTH:11.900;
#SELECTABLE:YES;
#BPMS:0.000=205.000;
#STOPS:;
#BGCHANGES:;
// cache tags:
#FIRSTBEAT:1.500;
#LASTBEAT:167.000;
#SONGFILENAME:Songs/newbie/ZOoT-Windmill/LOD_OOT-WINDHUT.sm;
#HASMUSIC:1;
#HASBANNER:0;
#MUSICLENGTH:52.976;
// end cache tags

//---------------dance-single - ----------------
#NOTES:
     dance-single:
     :
     Hard:
     6:
     0.558,0.591,0.132,1.000,0.000,145.000,7.000,55.000,0.000,4.000:
0000
0000
0000
2000
0000
3100
0000
0010
,
0000
1000
0100
0020
0000
0000
0030
0002
,
0000
0013
0000
0100
0000
1000
0100
0020
,
0000
0000
0030
0200
0000
0310
0000
0001
,
0000
0010
0100
2000
0000
0000
3000
0020
,
0000
0130
0000
1000
0000
0010
0001
0200
,
0000
0300
0000
0000
1000
0100
0020
0000
,
0000
0000
1030
0100
0020
0000
0000
0000
,
2032
0000
3003
0100
0010
0001
1000
0100
,
0020
0030
2000
3100
,
0010
0001
0020
0000
0000
0000
0000
0000
,
0030
0002
0000
0013
0000
0100
1000
0200
,
0000
0000
0000
0000
0300
1000
0100
0020
,
0000
0000
0000
1030
0100
0020
0000
0000
,
0000
2032
0000
3003
0100
0010
0001
1000
,
0100
0020
0000
0030
0000
0200
0000
0000
,
0301
0000
1000
0100
0002
0000
0000
0000
,
0003
0220
0000
0000
,
0000
0000
0000
0330
,
0000
0000
0000
0000
,
0000
0200
0310
0100
,
0001
0010
2000
0000
0000
3000
0000
2000
,
0000
0001
3000
0010
0000
1000
0001
0200
,
0000
0000
0300
1000
0100
0020
0000
0000
,
0000
1030
0100
0020
0000
0000
0000
2032
,
0000
3003
0010
0100
1000
0010
0001
0200
,
0000
0300
0000
0020
0000
0030
1000
0000
,
0001
0010
2000
0000
0000
0000
0000
0000
,
3200
0000
0310
0000
0001
1000
0020
0000
,
0000
0000
0000
0030
1000
0100
0020
0000
,
0000
0000
1030
0100
0020
0000
0000
0000
,
2032
0000
3003
0100
0010
0100
0010
0100
,
0000
2002
0000
3003
0000
1000
0000
0001
,
0000
0100
0001
0020
0000
0000
0000
0130
,
0000
2002
0000
0000
0000
0000
0000
0000
,
0000
0000
0000
0000
3003
1000
0000
0010
,
0000
0100
0000
0000
0100
0010
0002
0000
,
0003
0100
0010
0002
,
0010
0103
2000
0000
0000
3000
0010
0000
,
0100
0000
2000
0000
0100
3010
0002
0000
,
0000
0003
1000
0100
0020
0000
0000
0000
,
1030
0100
0020
0000
0000
0000
0030
0000
;
