#TITLE:WONDERLAND;
#SUBTITLE:(Bm 5th Mix ver);
#ARTIST:X-TREME;
#TITLETRANSLIT:;
#SUBTITLETRANSLIT:;
#ARTISTTRANSLIT:;
#CREDIT:;
#BANNER:WONDERLAND (Bm 5th Mix ver).png;
#BACKGROUND:WONDERLAND (Bm 5th Mix ver)-bg.png;
#LYRICSPATH:;
#CDTITLE:NVLM-cdtitle.png;
#MUSIC:WONDERLAND (Bm 5th Mix ver).mp3;
#OFFSET:-3.770;
#SAMPLESTART:14.986;
#SAMPLELENGTH:12.000;
#SELECTABLE:YES;
#BPMS:0.000=128.000;
#STOPS:;
#BGCHANGES:;
// cache tags:
#FIRSTBEAT:0.000;
#LASTBEAT:155.000;
#SONGFILENAME:Songs/newbie/WONDERLAND (Bm 5th Mix ver)/WONDERLAND (Bm 5th Mix ver).sm;
#HASMUSIC:1;
#HASBANNER:1;
#MUSICLENGTH:78.063;
// end cache tags

//---------------dance-single - ----------------
#NOTES:
     dance-single:
     :
     Hard:
     8:
     0.533,0.546,0.897,0.192,0.000,206.000,70.000,15.000,0.000,0.000:  // measure 1
1001
0000
0100
0100
1001
0000
0010
0010
,  // measure 2
1001
0000
0100
0100
0011
0000
1100
1100
,  // measure 3
1001
0101
0110
1010
,  // measure 4
1100
0110
0011
0101
,  // measure 5
0110
1010
1100
0101
,  // measure 6
2002
0000
3003
0000
,  // measure 7
0100
0010
1000
0100
1000
0001
0100
0010
,  // measure 8
0001
0010
0100
1000
0100
0001
1000
0100
,  // measure 9
0010
0001
0100
0010
1000
0001
0010
1000
,  // measure 10
0010
0100
1000
0001
1000
0100
0010
1000
,  // measure 11
1001
0000
0100
0110
0000
0001
0011
0000
,  // measure 12
0110
0000
1000
1100
0000
0001
0101
0000
,  // measure 13
1001
0000
1000
1010
0000
0010
0110
0000
,  // measure 14
0101
0000
1000
1100
0000
0001
1001
1000
,  // measure 15
0110
0000
0100
1100
0000
1000
1010
0000
,  // measure 16
0110
0000
0100
0101
0000
0001
1001
0000
,  // measure 17
1010
0000
0010
0110
0000
0100
1100
0000
,  // measure 18
1001
0000
0101
0000
1100
0000
0110
0110
,  // measure 19
0012
0000
1003
0000
0010
0100
0100
0100
,  // measure 20
2001
0000
3100
0000
0010
0010
0010
0001
,  // measure 21
0102
1003
0010
0100
,  // measure 22
2000
0000
3001
0000
0010
0010
0100
0000
,  // measure 23
2010
0000
3001
0000
0100
0100
0100
0010
,  // measure 24
1002
0000
0013
0000
0100
1000
0010
0100
,  // measure 25
0102
1003
0010
0100
,  // measure 26
1000
0010
2002
3003
,  // measure 27
0010
0100
0001
1000
0100
0010
0100
0001
,  // measure 28
0010
0100
1000
0010
0001
0010
0100
0001
,  // measure 29
1000
0100
0100
0010
1000
0001
0010
0100
,  // measure 30
1000
0010
0100
0100
0001
1000
0100
0010
,  // measure 31
1001
0000
0000
0000
0000
0000
0110
0110
,  // measure 32
0000
0000
0000
0000
,  // measure 33
1100
0110
0011
1001
,  // measure 34
1010
0110
0101
1100
,  // measure 35
2002
0000
3003
0000
,  // measure 36
0100
0010
1000
0001
0010
0100
1000
0010
,  // measure 37
0001
0001
0001
0001
0001
0001
0001
0001
,  // measure 38
1001
1000
1100
0000
0110
0010
0011
1001
,  // measure 39
2002
0000
0000
3003
;

//---------------dance-single - ----------------
#NOTES:
     dance-single:
     :
     Challenge:
     10:
     0.763,0.844,1.000,0.192,0.474,323.000,79.000,15.000,0.000,0.000:  // measure 1
1001
0000
0001
0000
0100
0010
0100
0010
1000
0000
0001
0000
0010
0100
0010
0100
,  // measure 2
1000
0000
0001
0000
0100
0010
0100
0010
1000
0000
0100
0000
0010
0001
0010
0000
,  // measure 3
1001
0010
0101
0000
0110
0001
1010
0000
,  // measure 4
1100
0001
0110
0000
0011
1000
0101
0000
,  // measure 5
0110
1000
0011
0000
1100
0010
0101
1000
,  // measure 6
2002
0000
0000
3003
,  // measure 7
0110
0000
0010
0000
1000
0001
0100
0000
1000
0000
0001
0000
0100
1000
0010
0000
,  // measure 8
0001
0000
0010
0000
0100
0001
1000
0000
0100
0000
0001
0000
1000
0010
0100
0000
,  // measure 9
0001
0000
0010
0000
0100
1000
0010
0000
1000
0000
0001
0000
0010
0100
1000
0000
,  // measure 10
0010
0000
0100
0000
1000
0010
0001
0000
1000
0000
0100
0000
0010
0100
1000
0000
,  // measure 11
1000
0001
0000
0000
0100
0000
0010
0100
1000
0000
0001
0000
0010
0001
0010
0000
,  // measure 12
0100
0010
0000
0000
1000
0000
0100
1000
0010
0000
0001
0000
0100
0001
0100
0000
,  // measure 13
0001
0010
0000
0000
1000
0000
0010
1000
0001
0000
0010
0000
0100
0010
0100
0000
,  // measure 14
1000
0001
0000
0000
1000
0000
0100
1000
0010
0000
0001
0000
1000
0001
1000
0000
,  // measure 15
0100
0010
0000
0000
0100
0000
1000
0100
0010
0000
1000
0000
0010
1000
0001
0000
,  // measure 16
0100
0010
0000
0000
0100
0000
0001
0100
1000
0000
0001
0000
1000
0001
0100
0000
,  // measure 17
0010
0100
0000
0000
0010
0000
0100
0010
0001
0000
0100
0000
1000
0100
0010
0000
,  // measure 18
1001
0010
0101
0010
1100
0001
0110
1100
,  // measure 19
0012
0010
0000
0000
1003
0000
0000
0000
1010
0000
0110
0000
0101
0000
0110
0000
,  // measure 20
2001
0001
0000
0000
3100
0000
0000
0000
0110
0000
1010
0000
0011
0000
1001
0000
,  // measure 21
0102
0100
0000
0000
1003
0000
0000
0000
0010
0100
1000
0001
0100
0000
0000
0000
,  // measure 22
2100
0100
0000
0000
3001
0000
0000
0000
0011
0000
0110
0000
1100
0000
0000
0000
,  // measure 23
2010
0010
0000
0000
3001
0000
0000
0000
0101
0000
0110
0000
1100
0000
0011
0000
,  // measure 24
1002
1000
0000
0000
0013
0000
0000
0000
0101
0000
1100
0000
1010
0000
0110
0000
,  // measure 25
0102
0100
0000
0000
1003
0000
0000
0000
0010
0001
1000
0010
0100
0000
0000
0000
,  // measure 26
1000
0100
0010
0001
0010
0100
1000
0010
2002
0000
0000
0000
3003
0000
0000
0000
,  // measure 27
0010
0000
0100
0000
0001
0010
1000
0000
0100
0000
0010
0000
0100
0010
0001
0000
,  // measure 28
0010
0000
0100
0000
1000
0100
0010
0000
0001
0000
0010
0000
0100
1000
0001
0000
,  // measure 29
1000
0000
0100
0000
0100
0001
0010
0000
1000
0000
0001
0000
0010
1000
0100
0000
,  // measure 30
1000
0000
0010
0000
0100
0001
1000
0000
0001
0000
1000
0000
0100
0001
0010
0000
,  // measure 31
1001
1001
0000
0000
0000
0000
0000
0000
1000
0000
0000
0000
0110
0000
0110
0110
,  // measure 32
0000
0000
0000
0000
1000
0100
0000
0000
0000
0000
0000
0000
0001
0010
0000
0000
,  // measure 33
1100
0101
0110
1010
0110
0101
1100
0011
,  // measure 34
1010
0011
0110
1100
0101
0011
0110
1100
,  // measure 35
2002
0000
3003
0000
,  // measure 36
0101
0000
0010
0000
1000
0100
0001
0000
0010
0000
0100
0000
1000
0100
0010
1000
,  // measure 37
0001
0100
0001
0100
0001
0100
0001
0100
0001
0100
0001
0100
0001
0100
0001
0100
,  // measure 38
1001
0011
1100
1010
0110
1100
0011
0101
,  // measure 39
2002
0000
0000
3003
;

//---------------dance-single - ----------------
#NOTES:
     dance-single:
     :
     Medium:
     6:
     0.425,0.472,0.781,0.192,0.000,156.000,61.000,15.000,0.000,0.000:  // measure 1
1001
0100
0010
0001
,  // measure 2
0010
0000
0100
0000
1000
0000
0100
1000
,  // measure 3
1001
0101
0110
1010
,  // measure 4
1100
0110
0011
0101
,  // measure 5
0110
1010
1100
0101
,  // measure 6
2002
0000
3003
0000
,  // measure 7
0100
0000
0010
0000
1000
0001
0000
0001
,  // measure 8
0010
0000
0100
0000
1000
0010
0000
0010
,  // measure 9
0100
0000
0001
0000
1000
0100
0000
0100
,  // measure 10
0010
0000
0001
0000
0100
0010
0000
0010
,  // measure 11
1001
0000
0000
0110
0000
0000
0011
0000
,  // measure 12
1001
0000
0000
1100
0000
0000
0101
0000
,  // measure 13
1001
0000
0000
1010
0000
0000
0110
0000
,  // measure 14
0011
0000
0000
1001
0000
0000
1010
0000
,  // measure 15
0110
0000
0000
0101
0000
0000
0011
0000
,  // measure 16
0110
0000
0000
1100
0000
0000
1001
0000
,  // measure 17
0101
0000
0000
0110
0000
0000
1100
0000
,  // measure 18
1001
0000
1001
0000
1100
0000
0110
0010
,  // measure 19
0012
0000
1003
0000
0010
0100
0001
0000
,  // measure 20
2001
0000
3100
0000
0010
0010
0001
0000
,  // measure 21
0102
1003
0010
0100
,  // measure 22
2000
0000
3001
0000
0010
0010
0100
0000
,  // measure 23
2001
0000
3100
0000
0010
0010
0001
0000
,  // measure 24
1002
0000
0013
0000
0100
1000
1000
0000
,  // measure 25
1002
0103
0010
0100
,  // measure 26
1000
0010
2002
3003
,  // measure 27
0010
0000
0001
1000
0000
0100
1000
0000
,  // measure 28
0010
0000
0100
0001
0000
1000
0001
0000
,  // measure 29
0010
0000
0100
1000
0000
0001
1000
0000
,  // measure 30
0010
0000
0100
0001
0000
0001
0010
0000
,  // measure 31
1001
0000
0000
0000
0000
0000
0100
0100
,  // measure 32
0000
0000
0000
0000
,  // measure 33
1100
0110
0011
1001
,  // measure 34
1010
0110
0101
1100
,  // measure 35
2002
0000
3003
0000
,  // measure 36
0100
0010
1000
0000
0100
0010
0001
0000
,  // measure 37
0001
1000
0001
1000
0001
1000
0001
1000
,  // measure 38
1001
0000
1100
0000
0110
0000
0011
0001
,  // measure 39
2002
0000
0000
3003
;

//---------------dance-single - ----------------
#NOTES:
     dance-single:
     :
     Easy:
     4:
     0.328,0.447,0.576,0.192,0.000,119.000,45.000,15.000,0.000,0.000:  // measure 1
1001
0100
0100
0100
,  // measure 2
0010
0010
0010
0010
,  // measure 3
1001
0101
0110
1010
,  // measure 4
1001
0101
0110
1010
,  // measure 5
1100
0110
0011
1001
,  // measure 6
2002
0000
3003
0000
,  // measure 7
0100
0010
1000
0100
,  // measure 8
0010
0100
1000
0010
,  // measure 9
0100
0001
1000
0100
,  // measure 10
0010
0001
0100
0010
,  // measure 11
1001
0000
0000
0010
,  // measure 12
0100
0000
0000
0010
,  // measure 13
0001
0000
0000
0100
,  // measure 14
0010
0000
0000
1000
,  // measure 15
0100
0000
0000
0010
,  // measure 16
0001
0000
0000
0010
,  // measure 17
0100
0000
0000
0100
,  // measure 18
1001
1001
1100
0110
,  // measure 19
0012
0003
0100
0100
,  // measure 20
2001
3000
0010
0010
,  // measure 21
0102
0003
0010
0100
,  // measure 22
2000
3000
0010
0100
,  // measure 23
2001
3000
0010
0010
,  // measure 24
1002
0003
0100
0010
,  // measure 25
1002
0003
0010
0100
,  // measure 26
1000
0010
2002
3003
,  // measure 27
0010
0001
0100
1000
,  // measure 28
0010
0100
0010
0001
,  // measure 29
0001
0100
0010
1000
,  // measure 30
0010
0100
0001
1000
,  // measure 31
1001
0000
0000
0100
,  // measure 32
0000
0000
0000
0000
,  // measure 33
1100
1001
0011
1010
,  // measure 34
0110
0101
1001
1100
,  // measure 35
2002
0000
3003
0000
,  // measure 36
0100
1000
0100
0001
,  // measure 37
1001
1001
1001
1001
,  // measure 38
1001
1100
0110
0011
,  // measure 39
2002
0000
0000
3003
;

//---------------dance-double - ----------------
#NOTES:
     dance-double:
     :
     Hard:
     7:
     0.498,0.496,0.820,0.243,0.000,189.000,64.000,19.000,0.000,0.000:  // measure 1
02000000
00000000
03100000
00010000
00002000
00000000
00003100
00000010
,  // measure 2
00000002
00000000
00000103
00001000
00020000
00000000
00130000
01000000
,  // measure 3
10010000
00110000
00101000
00011000
,  // measure 4
00010100
00001100
00001010
00000110
,  // measure 5
00000101
00000011
00001001
00001100
,  // measure 6
00022000
00000000
00033000
00000000
,  // measure 7
00100000
01000000
00001000
00010000
00000010
00000100
00000001
00000010
,  // measure 8
00000100
00001000
00010000
00100000
01000000
10000000
00010000
01000000
,  // measure 9
00001000
00010000
00000100
00000010
00000001
00000100
00001000
00010000
,  // measure 10
00100000
01000000
10000000
00010000
00100000
00001000
00010000
00000100
,  // measure 11
00001100
00000000
00000000
00000110
00000000
00000000
00010010
00000000
,  // measure 12
00011000
00000000
00000000
00101000
00000000
00000000
01010000
00000000
,  // measure 13
10010000
00000000
00000000
10100000
00000000
00000000
00110000
00000000
,  // measure 14
00011000
00000000
00000000
00001100
00000000
00000000
00000110
00000000
,  // measure 15
00000011
00000000
00000000
00001001
00000000
00000000
00001100
00000000
,  // measure 16
00011000
00000000
00000000
01010000
00000000
00000000
10010000
00000000
,  // measure 17
00110000
00000000
00000000
00011000
00000000
00000000
00001100
00000000
,  // measure 18
00000110
00000000
00000011
00000000
00001001
00000000
00001100
00010100
,  // measure 19
00012000
00000000
00103000
00000000
01000000
00010000
01000000
00010000
,  // measure 20
20100000
00000000
31000000
00000000
00100000
00010000
00100000
00010000
,  // measure 21
00012000
00003100
00000010
00000001
,  // measure 22
00000200
00000000
00001300
00000000
00010000
00100000
01000000
00000000
,  // measure 23
20100000
00000000
30010000
00000000
01000000
00100000
01000000
00100000
,  // measure 24
00021000
00000000
00130000
00000000
01000000
10000000
00100000
01000000
,  // measure 25
01020000
10030000
00100000
00010000
,  // measure 26
00000100
00000010
00002002
00003003
,  // measure 27
00000100
00000010
00010000
00001000
00100000
00010000
01000000
00100000
,  // measure 28
10000000
01000000
10000000
00010000
00100000
00001000
00010000
00000100
,  // measure 29
00001000
00000010
00000100
00000001
00000010
00001000
00000010
00000001
,  // measure 30
00000100
00001000
00010000
00100000
01000000
10000000
00010000
01000000
,  // measure 31
01100000
00000000
00000000
00000000
00000000
00000000
00011000
00011000
,  // measure 32
00000000
00000000
00000000
00000000
,  // measure 33
01100000
00011000
00000110
00001001
,  // measure 34
00000110
00011000
01100000
10010000
,  // measure 35
02200000
00000000
00000000
03300000
,  // measure 36
10000000
01000000
00100000
00010000
00001000
00000100
00000010
00000001
,  // measure 37
00000100
00000010
00010000
00001000
00100000
00010000
01000000
00100000
,  // measure 38
10100000
00000000
00110000
00000000
00011000
00000000
00001100
00000110
,  // measure 39
00000022
00000000
00000000
00000033
;

//---------------dance-double - ----------------
#NOTES:
     dance-double:
     :
     Challenge:
     8:
     0.662,0.695,1.000,0.295,0.128,250.000,89.000,23.000,0.000,0.000:  // measure 1
12000000
00000000
03100000
00010000
00012000
00000000
00003100
00000010
,  // measure 2
00000012
00000000
00000103
00001000
00021000
00000000
00130000
01000000
,  // measure 3
10010000
00010000
00110000
00100000
00101000
00001000
00011000
00010000
,  // measure 4
00010100
00000100
00001100
00001000
00001010
00000010
00000110
00000100
,  // measure 5
00000101
00000001
00000011
00000100
00001001
00001000
00001100
00010100
,  // measure 6
00022000
00000000
00000000
00033000
,  // measure 7
00100000
00000000
01000000
00000000
10000000
00010000
10000000
00000000
00010000
00000000
00100000
00000000
00001000
00010000
00001000
00000000
,  // measure 8
00010000
00000000
00000100
00000000
00000010
00000001
00000010
00000000
00000001
00000000
00000100
00000000
00000010
00001000
00000010
00000000
,  // measure 9
00001000
00000000
00000100
00000000
00010000
00001000
00010000
00000000
00001000
00000000
00100000
00000000
01000000
10000000
01000000
00000000
,  // measure 10
10000000
00000000
00010000
00000000
00100000
00001000
00100000
00000000
00001000
00000000
00010000
00000000
00000100
00001000
00000100
00000000
,  // measure 11
00001100
00000000
00000010
00000110
00000000
00001000
00010010
00010000
,  // measure 12
00011000
00000000
00100000
00101000
00000000
01000000
01010000
00010000
,  // measure 13
10010000
00000000
10000000
10100000
00000000
00100000
00110000
00010000
,  // measure 14
00011000
00000000
00001000
00001100
00000000
00000100
00000110
00000010
,  // measure 15
00000011
00000000
00000001
00001001
00000000
00000100
00001100
00001000
,  // measure 16
00011000
00000000
00010000
01010000
00000000
10000000
10010000
00010000
,  // measure 17
00110000
00000000
00001000
00011000
00000000
00001000
00001100
00000100
,  // measure 18
00000110
00000010
00000011
00000001
00001001
00001000
00001100
00010100
,  // measure 19
00012000
00000000
00103000
00000000
11000000
00010000
01010000
00010000
,  // measure 20
20100000
00000000
31000000
00000000
00110000
00010000
01100000
00010000
,  // measure 21
00012000
00000000
00000000
00000000
00003100
00000000
00000000
00000000
00000010
00000001
00000000
00000000
00000001
00000000
00000000
00000000
,  // measure 22
00000210
00000000
00001300
00000000
00110000
01100000
10000000
00000000
,  // measure 23
20100000
00000000
30010000
00000000
01010000
00100000
11000000
00100000
,  // measure 24
00021000
00000000
00130000
00000000
01010000
10000000
10100000
01000000
,  // measure 25
01020000
00000000
00000000
00000000
10030000
00000000
00000000
00000000
00100000
00010000
00000000
00000000
00010000
00000000
00000000
00000000
,  // measure 26
00000100
00000010
00002002
00003003
,  // measure 27
00000100
00000000
00010000
00000000
00001000
00100000
00001000
00000000
00100000
00000000
01000000
00000000
10000000
00010000
10000000
00000000
,  // measure 28
00010000
00000000
00100000
00000000
00001000
00010000
00001000
00000000
00010000
00000000
00000100
00000000
00000010
00000001
00000010
00000000
,  // measure 29
00000001
00000000
00000100
00000000
00001000
00010000
00001000
00000000
00010000
00000000
00100000
00000000
01000000
10000000
01000000
00000000
,  // measure 30
10000000
00000000
00010000
00000000
00100000
00001000
00100000
00000000
00001000
00000000
00010000
00000000
00100000
01000000
00100000
00000000
,  // measure 31
02200000
00000000
03300000
00000000
00000000
00000000
00011000
00022000
,  // measure 32
00000000
00033000
00000000
00000000
,  // measure 33
01100000
00010000
00011000
00000000
00000110
00001000
00001001
00000000
,  // measure 34
00000110
00001000
00011000
00000000
01100000
10000000
10010000
01010000
,  // measure 35
02200000
00000000
00000000
03300000
,  // measure 36
10000000
00000000
01000000
00000000
00100000
00010000
00100000
00000000
00001000
00000000
00010000
00000000
00000100
00001000
00000010
00000000
,  // measure 37
00011000
00001100
00010100
00011000
00101000
00110000
01010000
10100000
,  // measure 38
10100000
00000000
00110000
00000000
00011000
00000000
00001100
00000110
,  // measure 39
00000022
00000000
00000000
00000033
;
