#TITLE:Moonearth;
#SUBTITLE:;
#ARTIST:DJ Sharpnel;
#TITLETRANSLIT:;
#SUBTITLETRANSLIT:;
#ARTISTTRANSLIT:;
#CREDIT:;
#BANNER:moonearthbn.png;
#BACKGROUND:moonearthbg.png;
#LYRICSPATH:;
#CDTITLE:;
#MUSIC:moonearth.ogg;
#OFFSET:0.010;
#SAMPLESTART:184.420;
#SAMPLELENGTH:20.210;
#SELECTABLE:YES;
#DISPLAYBPM:190.000;
#BPMS:0.000=190.000;
#STOPS:;
#BGCHANGES:;
// cache tags:
#FIRSTBEAT:72.000;
#LASTBEAT:1238.000;
#SONGFILENAME:Songs/SHARPNELSTREAMZ v2/Moonearth/moonearth.sm;
#HASMUSIC:1;
#HASBANNER:1;
#MUSICLENGTH:391.000;
// end cache tags

//---------------dance-single - 17 (Archi)----------------
#NOTES:
     dance-single:
     17 (Archi):
     Challenge:
     17:
     1.000,1.000,0.102,0.090,1.000,3887.000,40.000,35.000,8.000,0.000:

0000
0000
0000
0000
,
0000
0000
0000
0000
,
0000
0000
0000
0000
,
0000
0000
0000
0000
,
0000
0000
0000
0000
,
0000
0000
0000
0000
,
0000
0000
0000
0000
,
0000
0000
0000
0000
,
0000
0000
0000
0000
,
0000
0000
0000
0000
,
0000
0000
0000
0000
,
0000
0000
0000
0000
,
0000
0000
0000
0000
,
0000
0000
0000
0000
,
0000
0000
0000
0000
,
0000
0000
0000
0000
,
0000
0000
0000
0000
,
0000
0000
0000
0000
,
0001
0010
0001
1000
0100
1000
0001
0100
0010
1000
0001
0100
0010
1000
0001
1000
,
0100
0010
0100
1000
0001
0100
0001
1000
0010
1000
0001
0010
0100
1000
0001
0100
,
0010
1000
0010
0100
0001
0100
0010
1000
0001
0010
0100
1000
0001
0010
0100
0010
,
0001
1000
0100
1000
0001
0010
0001
0100
0010
1000
0001
1000
0100
0010
0001
1000
,
0001
0100
0001
1000
0010
1000
0001
0010
0100
1000
0001
0010
0100
1000
0001
1000
,
0010
0100
0010
1000
0001
0010
0001
1000
0100
1000
0001
0100
0010
1000
0001
0010
,
0100
1000
0100
0010
0001
0010
0100
1000
0001
0100
0010
1000
0001
0100
0010
0100
,
0001
1000
0010
1000
0001
0100
0001
0010
0100
1000
0001
1000
0010
0100
0001
1000
,
0001
0100
0010
1000
0100
0010
0001
1000
0001
0100
0010
1000
0100
0010
0001
1000
,
0001
0100
0010
1000
0100
0010
0001
1000
0001
0100
0010
1000
0100
0010
0001
1000
,
0001
0010
0100
1000
0010
0100
0001
1000
0001
0010
0100
1000
0010
0100
0001
1000
,
0001
0010
0100
1000
0010
0100
0001
1000
0001
0010
0100
1000
0010
0100
0001
1000
,
0001
0100
0010
1000
0100
0010
0001
1000
0001
0100
0010
1000
0100
0010
0001
1000
,
0001
0100
0010
1000
0100
0010
0001
1000
0001
0100
0010
1000
0100
0010
0001
1000
,
0001
0010
0100
1000
0010
0100
0001
1000
0001
0010
0100
1000
0010
0100
0001
1000
,
0100
0000
0010
0000
0001
1000
0001
0000
0100
0000
0010
0000
1000
0001
1000
0000
,
0001
0100
0010
1000
0001
0100
0010
0100
0001
1000
0010
1000
0001
0100
0010
0100
,
0001
1000
0010
1000
0001
0100
0010
0100
0001
0100
0010
1000
0001
0100
0010
0100
,
0001
0010
0100
1000
0001
0010
0100
0010
0001
1000
0100
1000
0001
0010
0100
0010
,
0001
1000
0100
1000
0001
0010
0100
0010
0001
0010
0100
1000
0001
0010
0100
0010
,
0001
0100
0010
1000
0001
0100
0010
0100
0001
1000
0010
1000
0001
0100
0010
0100
,
0001
1000
0010
1000
0001
0100
0010
0100
0001
0100
0010
1000
0001
0100
0010
0100
,
0001
0010
0100
1000
0001
0010
0100
0010
0001
1000
0100
1000
0001
0010
0100
0010
,
0001
0100
0010
1000
0001
0010
0100
0010
0001
1000
0010
1000
0001
0010
0100
1000
,
0001
0100
0010
1000
0001
0100
0010
0100
0001
1000
0010
1000
0001
0100
0010
0100
,
0001
1000
0010
1000
0001
0100
0010
0100
0001
0100
0010
1000
0001
0100
0010
0100
,
0001
0010
0100
1000
0001
0010
0100
0010
0001
1000
0100
1000
0001
0010
0100
0010
,
0001
1000
0100
1000
0001
0010
0100
0010
0001
0010
0100
1000
0001
0010
0100
0010
,
0001
0100
0010
1000
0001
0100
0010
0100
0001
1000
0010
1000
0001
0100
0010
0100
,
0001
1000
0010
1000
0001
0100
0010
0100
0001
0100
0010
1000
0001
0100
0010
0100
,
0001
0010
0100
1000
0001
0010
0100
0010
0001
1000
0100
1000
0001
0010
0100
0010
,
0004
4000
0000
0000
0000
0000
0000
0000
0000
0000
0000
0000
0000
0000
0000
0000
0000
0000
3003
0000
0000
0000
0000
0000
,
0001
0100
0001
1000
0010
1000
0100
0010
0001
1000
0100
1000
0001
0010
0001
0100
,
0010
1000
0010
0100
0001
0100
0010
1000
0001
0010
0001
0100
0010
1000
0001
0010
,
0001
0100
0001
1000
0010
1000
0100
0010
0001
1000
0100
1000
0001
0010
0001
0100
,
0010
1000
0010
0100
0001
0100
0010
1000
0001
0010
0001
0100
0010
1000
0100
0010
,
0001
0100
0001
1000
0010
1000
0100
0010
0001
1000
0100
1000
0001
0010
0001
0100
,
0010
1000
0010
0100
0001
0100
0010
1000
0001
0010
0001
0100
0010
1000
0100
0010
,
0001
0100
0001
1000
0010
1000
0100
0010
0001
1000
0100
1000
0001
0010
0001
0100
,
0010
1000
0010
0100
0001
0100
0010
1000
0001
0010
0001
0100
0010
1000
0100
0010
,
0001
0010
0100
1000
0010
0100
0001
1000
0001
0010
0100
1000
0010
0100
0001
1000
,
0001
0010
0100
1000
0010
0100
0001
1000
0001
0010
0100
1000
0010
0100
0001
1000
,
0001
0100
0010
1000
0100
0010
0001
1000
0001
0100
0010
1000
0100
0010
0001
1000
,
0001
0100
0010
1000
0100
0010
0001
1000
0001
0100
0010
1000
0100
0010
0001
1000
,
0001
0100
0010
1000
0100
0010
0001
1000
0001
0100
0010
1000
0100
0010
0001
1000
,
0001
0100
0010
1000
0100
0010
0001
1000
0001
0100
0010
1000
0100
0010
0001
1000
,
0001
0010
0100
1000
0010
0100
0001
1000
0001
0010
0100
1000
0010
0100
0001
1000
,
0100
1000
0010
0100
0001
0100
0010
1000
0001
0010
0001
0100
0010
1000
0100
1000
,
0010
0100
0001
0010
0100
1000
0001
1000
0010
0100
0001
0010
0100
1000
0001
1000
,
0001
0010
0100
1000
0010
1000
0001
1000
0001
0010
0100
1000
0010
1000
0001
1000
,
0010
0100
0001
0010
0100
1000
0001
1000
0010
0100
0001
0010
0100
1000
0001
1000
,
0001
0010
0100
1000
0010
1000
0001
1000
0001
0010
0100
1000
0010
1000
0001
1000
,
0100
0010
0001
0100
0010
1000
0001
1000
0100
0010
0001
0100
0010
1000
0001
1000
,
0001
0100
0010
1000
0100
1000
0001
1000
0001
0100
0010
1000
0100
1000
0001
1000
,
0100
0010
0001
0100
0010
1000
0001
1000
0100
0010
0001
0100
0010
1000
0001
1000
,
0001
0100
0010
1000
0100
1000
0001
1000
0100
0010
0001
0100
0010
1000
0100
1000
,
0010
0100
0001
0010
0100
1000
0001
1000
0010
0100
0001
0010
0100
1000
0001
1000
,
0001
0010
0100
1000
0010
1000
0001
1000
0001
0010
0100
1000
0010
1000
0001
1000
,
0010
0100
0001
0010
0100
1000
0001
1000
0010
0100
0001
0010
0100
1000
0001
1000
,
0001
0010
0100
1000
0010
1000
0001
1000
0001
0010
0100
1000
0010
1000
0001
1000
,
0100
0010
0001
0100
0010
1000
0001
1000
0100
0010
0001
0100
0010
1000
0001
1000
,
0001
0100
0010
1000
0100
1000
0001
1000
0001
0100
0010
1000
0100
1000
0001
1000
,
0100
0010
0001
0100
0010
1000
0010
0100
0010
1000
0001
0010
0100
1000
0100
0010
,
0100
1000
0100
0010
0100
1000
0100
0010
0001
0100
0001
0010
0100
0010
0001
0100
,
0010
1000
0001
1000
0001
0010
0100
1000
0010
1000
0001
1000
0001
0010
0100
1000
,
0010
1000
0001
1000
0001
0010
0100
1000
0010
1000
0001
1000
0001
0100
0010
1000
,
0100
1000
0001
1000
0001
0100
0010
1000
0100
1000
0001
1000
0001
0100
0010
1000
,
0100
1000
0001
1000
0001
0100
0010
1000
0100
1000
0001
1000
0001
0010
0100
1000
,
0010
0100
0010
1000
0001
0010
0100
1000
0010
0100
0010
1000
0001
0010
0100
1000
,
0010
0100
0010
1000
0001
0010
0100
1000
0010
0100
0010
1000
0001
0100
0010
1000
,
0100
0010
0100
1000
0001
0100
0010
1000
0100
0010
0100
1000
0001
0100
0010
1000
,
0100
0010
0100
1000
0001
0100
0010
1000
0100
0010
0100
1000
0010
0100
0001
0100
,
0010
1000
0001
1000
0001
0010
0100
1000
0010
1000
0001
1000
0001
0010
0100
1000
,
0010
1000
0001
1000
0001
0010
0100
1000
0010
1000
0001
1000
0001
0100
0010
1000
,
0100
1000
0001
1000
0001
0100
0010
1000
0100
1000
0001
1000
0001
0100
0010
1000
,
0100
1000
0001
1000
0001
0100
0010
1000
0100
1000
0001
1000
0001
0010
0100
1000
,
0010
0100
0010
1000
0001
0010
0100
1000
0010
0100
0010
1000
0001
0010
0100
1000
,
0010
0100
0010
1000
0001
0010
0100
1000
0010
0100
0010
1000
0001
0100
0010
1000
,
0100
0010
0100
1000
0010
0100
0010
1000
0010
0100
0001
1000
0100
0010
0100
1000
,
0100
0010
0100
1000
0100
0010
0100
1000
0001
0100
0010
1000
0100
0010
0001
0100
,
0010
1000
0001
1000
0001
0010
0100
1000
0010
1000
0001
1000
0001
0010
0100
1000
,
0010
1000
0001
1000
0001
0010
0100
1000
0010
1000
0001
1000
0001
0100
0010
1000
,
0100
1000
0001
1000
0001
0100
0010
1000
0100
1000
0001
1000
0001
0100
0010
1000
,
0100
1000
0001
1000
0001
0100
0010
1000
0100
1000
0001
1000
0001
0010
0100
1000
,
0010
0100
0010
1000
0001
0010
0100
1000
0010
0100
0010
1000
0001
0010
0100
1000
,
0010
0100
0010
1000
0001
0010
0100
1000
0010
0100
0010
1000
0001
0100
0010
1000
,
0100
0010
0100
1000
0001
0100
0010
1000
0100
0010
0100
1000
0001
0100
0010
1000
,
0100
0010
0100
1000
0001
0100
0010
1000
0100
0010
0100
1000
0010
0100
0001
0100
,
0010
1000
0001
1000
0001
0010
0100
1000
0010
1000
0001
1000
0001
0010
0100
1000
,
0010
1000
0001
1000
0001
0010
0100
1000
0010
1000
0001
1000
0001
0100
0010
1000
,
0100
1000
0001
1000
0001
0100
0010
1000
0100
1000
0001
1000
0001
0100
0010
1000
,
0004
4000
0000
0000
0000
0000
0000
0000
0000
0000
0000
0000
0000
0000
0000
0000
0000
0000
3003
0000
0000
0000
0000
0000
,
0001
0010
0001
1000
0100
1000
0010
0100
0010
1000
0100
1000
0001
0010
0001
0100
,
0010
0100
0001
0010
0001
1000
0100
1000
0001
0010
0001
1000
0100
1000
0001
0100
,
0001
0010
0001
1000
0100
1000
0010
0100
0010
1000
0100
1000
0001
0010
0001
1000
,
0004
4000
0000
0000
0000
0000
0000
0000
0000
0000
0000
0000
0000
0000
0000
0000
0000
0000
3003
0000
0000
0000
0000
0000
,
0001
0000
0000
0200
0300
0000
0001
0000
0001
0000
0000
0200
0300
0000
0001
0000
,
0001
0000
0000
0200
0300
0000
0001
0000
0001
0000
0000
0200
0300
0000
0010
0000
,
1000
0000
0000
0200
0300
0000
1000
0000
1000
0000
0000
0200
0300
0000
1000
0000
,
1000
0000
0000
0200
0300
0000
1000
0000
1000
0000
0000
0200
0300
0000
0010
0000
,
0001
0000
0000
0020
0030
0000
0001
0000
0001
0000
0000
0020
0030
0000
0001
0000
,
0001
0000
0000
0020
0030
0000
0001
0000
0001
0000
0000
0020
0030
0000
0001
0000
,
0100
0000
0000
0020
0030
0000
0100
0000
0100
0000
0000
0020
0030
0000
0100
0000
,
0100
0000
0000
0020
0030
0000
0100
0000
0100
0000
0000
0020
0030
0000
0100
0000
,
0001
0000
0000
0020
0030
0000
0001
0000
0001
0000
0000
0020
0030
0000
0001
0000
,
0001
0000
0000
0020
0030
0000
0001
0000
0001
0000
0000
0020
0030
0000
0100
0000
,
1000
0000
0000
0020
0030
0000
1000
0000
1000
0000
0000
0020
0030
0000
1000
0000
,
1000
0000
0000
0020
0030
0000
1000
0000
1000
0000
0000
0020
0030
0000
0100
0000
,
0001
0000
0000
2000
3000
0000
0001
0000
0001
0000
0000
2000
3000
0000
0001
0000
,
0001
0000
0000
2000
3000
0000
0001
0000
0001
0000
0000
2000
3000
0000
0100
0000
,
0010
0000
0000
0002
0003
0000
0010
0000
0010
0000
0000
0002
0003
0000
0010
0000
,
0100
0000
0000
2000
3000
0000
0100
0000
0100
0000
0000
2000
3000
0000
0010
0000
,
0100
0001
0100
0001
1000
0100
0010
0001
,
0100
0001
0100
0001
1000
0010
0100
0001
,
0010
0001
0010
0001
1000
0010
0100
0001
,
0010
0000
0001
0000
0010
0000
0001
0000
1000
0000
0100
0010
0001
0000
1000
0000
,
0010
1000
0010
1000
0001
0010
0100
1000
,
0010
1000
0010
1000
0001
0100
0010
1000
,
0100
1000
0100
1000
0001
0100
0010
1000
,
0100
0000
1000
0000
0100
0000
1000
0000
0001
0000
0010
0100
1000
0000
0001
0000
,
1001
1000
0001
1000
1001
1000
1010
0001
,
1010
1000
0010
1000
1010
0010
0101
1000
,
0101
0001
0100
0001
0101
0001
0110
1000
,
0110
0000
0001
0000
1000
0000
0001
0000
0110
0000
0001
0100
0010
0000
1000
0000
,
0011
0000
0001
0000
0011
0000
1000
0000
0010
0000
0100
0010
1000
0000
0001
0010
,
0100
0000
1000
0000
1010
0000
0001
0000
0100
0000
0010
0100
0001
0000
1000
0100
,
0010
0000
0001
0000
1000
0000
0001
0000
1000
0100
1000
0010
0100
0010
1000
0100
,
4000
0004
0000
0000
0000
0000
0000
0000
0000
0000
0000
0000
0000
0000
0000
0000
0000
0000
3003
0000
0000
0000
0000
0000
,
1000
0001
0100
0001
0010
0001
1000
0100
1000
0001
0100
0001
0010
0001
1000
0100
,
1000
0001
0100
0001
0010
0001
1000
0100
1000
0001
0100
0001
0010
0001
1000
0010
,
1000
0001
0010
0001
0100
0001
1000
0010
1000
0001
0010
0001
0100
0001
1000
0010
,
1000
0001
0010
0001
0100
0001
1000
0010
1000
0001
0010
0001
0100
0001
1000
0100
,
1000
0010
1000
0001
0100
0001
0010
0100
1000
0010
1000
0001
0100
0001
0010
0100
,
1000
0010
1000
0001
0100
0001
0010
0100
1000
0010
1000
0001
0010
0001
0100
0010
,
1000
0100
1000
0001
0010
0001
0100
0010
1000
0100
1000
0001
0010
0001
0100
0010
,
1000
0100
1000
0001
0010
0001
0100
0010
1000
0100
1000
0001
0100
0001
1000
0100
,
1000
0001
0010
0001
0100
0001
1000
0010
1000
0001
0010
0001
0100
0001
1000
0010
,
1000
0001
0010
0001
0100
0001
1000
0010
1000
0001
0010
0001
0100
0001
1000
0100
,
1000
0001
0100
0001
0010
0001
1000
0100
1000
0001
0100
0001
0010
0001
1000
0100
,
1000
0001
0100
0001
0010
0001
1000
0100
1000
0001
0100
0001
0010
0001
1000
0010
,
1000
0100
1000
0001
0010
0001
0100
0010
1000
0100
1000
0001
0010
0001
0100
0010
,
1000
0100
1000
0001
0010
0001
0100
0010
1000
0100
1000
0001
0100
0001
0010
0100
,
1000
0010
1000
0001
0100
0001
0010
0100
1000
0010
1000
0001
0100
0001
0010
0100
,
4000
0004
0000
0000
0000
0000
0000
0000
0000
0000
0000
0000
0000
0000
0000
0000
0000
0000
3003
0000
0000
0000
0000
0000
,
1000
0001
0010
0001
0100
0001
1000
0010
1000
0001
0010
0001
0100
0001
1000
0010
,
1000
0001
0010
0001
0100
0001
1000
0010
1000
0001
0010
0001
0100
0001
1000
0100
,
1000
0001
0100
0001
0010
0001
1000
0100
1000
0001
0100
0001
0010
0001
1000
0100
,
1000
0001
0100
0001
0010
0001
1000
0100
1000
0001
0100
0001
0010
0001
1000
0010
,
1000
0100
1000
0001
0010
0001
0100
0010
1000
0100
1000
0001
0010
0001
0100
0010
,
1000
0100
1000
0001
0010
0001
0100
0010
1000
0100
1000
0001
0100
0001
0010
0100
,
1000
0010
1000
0001
0100
0001
0010
0100
1000
0010
1000
0001
0100
0001
0010
0100
,
1000
0010
1000
0001
0100
0001
0010
0100
1000
0010
1000
0001
0100
0001
0010
0100
,
1000
0001
0100
0001
0010
0001
1000
0100
1000
0001
0100
0001
0010
0001
1000
0100
,
1000
0001
0100
0001
0010
0001
1000
0100
1000
0001
0100
0001
0010
0001
1000
0010
,
1000
0001
0010
0001
0100
0001
1000
0010
1000
0001
0010
0001
0100
0001
1000
0010
,
1000
0001
0010
0001
0100
0001
1000
0010
1000
0001
0010
0001
0100
0001
1000
0100
,
1000
0010
1000
0001
0100
0001
0010
0100
1000
0010
1000
0001
0100
0001
0010
0100
,
1000
0010
1000
0001
0100
0001
0010
0100
1000
0010
1000
0001
0010
0001
0100
0010
,
1000
0100
1000
0001
0010
0001
0100
0010
1000
0100
1000
0001
0010
0001
0100
0010
,
4000
0004
0000
0000
0000
0000
0000
0000
0000
0000
0000
0000
0000
0000
0000
0000
0000
0000
3003
0000
0000
0000
0000
0000
,
1000
0010
1000
0001
0100
0001
0010
0100
1000
0001
0010
0001
1000
0100
1000
0010
,
0100
0001
0100
0010
1000
0010
0100
0001
1000
0100
1000
0010
0100
0001
1000
0100
,
1000
0010
1000
0001
0100
0001
0010
0100
1000
0001
0010
0001
1000
0100
1000
0010
,
0100
0001
0100
0010
1000
0010
0100
0001
1000
0100
1000
0010
0100
0001
0010
0100
,
1000
0010
1000
0001
0100
0001
0010
0100
1000
0001
0010
0001
1000
0100
1000
0010
,
0100
0001
0100
0010
1000
0010
0100
0001
1000
0100
1000
0010
0100
0001
0010
0100
,
1000
0010
1000
0001
0100
0001
0010
0100
1000
0001
0010
0001
1000
0100
1000
0010
,
0100
0001
0100
0010
1000
0010
0100
0001
1000
0100
1000
0010
0100
0001
0010
0100
,
1000
0100
0010
0001
0100
0010
1000
0001
1000
0100
0010
0001
0100
0010
1000
0001
,
1000
0100
0010
0001
0100
0010
1000
0001
1000
0100
0010
0001
0100
0010
1000
0001
,
1000
0010
0100
0001
0010
0100
1000
0001
1000
0010
0100
0001
0010
0100
1000
0001
,
1000
0010
0100
0001
0010
0100
1000
0001
1000
0010
0100
0001
0010
0100
1000
0001
,
1000
0010
0100
0001
0010
0100
1000
0001
1000
0010
0100
0001
0010
0100
1000
0001
,
1000
0010
0100
0001
0010
0100
1000
0001
1000
0010
0100
0001
0010
0100
1000
0001
,
1000
0100
0010
0001
0100
0010
1000
0001
1000
0100
0010
0001
0100
0010
1000
0001
,
0010
0001
0100
0010
1000
0010
0100
0001
1000
0100
1000
0010
0100
0001
0010
0001
,
0100
0010
1000
0100
0010
0001
1000
0001
0100
0010
1000
0100
0010
0001
1000
0001
,
1000
0100
0010
0001
0100
0001
1000
0001
1000
0100
0010
0001
0100
0001
1000
0001
,
0100
0010
1000
0100
0010
0001
1000
0001
0100
0010
1000
0100
0010
0001
1000
0001
,
1000
0100
0010
0001
0100
0001
1000
0001
1000
0100
0010
0001
0100
0001
1000
0001
,
0010
0100
1000
0010
0100
0001
1000
0001
0010
0100
1000
0010
0100
0001
1000
0001
,
1000
0010
0100
0001
0010
0001
1000
0001
1000
0010
0100
0001
0010
0001
1000
0001
,
0010
0100
1000
0010
0100
0001
1000
0001
0010
0100
1000
0010
0100
0001
1000
0001
,
1000
0010
0100
0001
0010
0001
1000
0001
0010
0100
1000
0010
0100
0001
0010
0001
,
0100
0010
1000
0100
0010
0001
1000
0001
0100
0010
1000
0100
0010
0001
1000
0001
,
1000
0100
0010
0001
0100
0001
1000
0001
1000
0100
0010
0001
0100
0001
1000
0001
,
0100
0010
1000
0100
0010
0001
1000
0001
0100
0010
1000
0100
0010
0001
1000
0001
,
1000
0100
0010
0001
0100
0001
1000
0001
1000
0100
0010
0001
0100
0001
1000
0001
,
0010
0100
1000
0010
0100
0001
1000
0001
0010
0100
1000
0010
0100
0001
1000
0001
,
1000
0010
0100
0001
0010
0001
1000
0001
1000
0010
0100
0001
0010
0001
1000
0001
,
1000
0100
1000
0010
0100
0010
1000
0100
1000
0001
0010
0001
1000
0100
1000
0010
,
4000
0004
0000
0000
0000
0000
0000
0000
0000
0000
0000
0000
0000
0000
0000
0000
0000
0000
3003
0000
0000
0000
0000
0000
,
1000
0100
0100
0000
0001
0100
0100
0000
,
0001
1000
0001
1000
0000
0000
0000
0000
0000
0000
0000
0000
,
0010
0000
0000
1000
0100
1000
0100
0000
0000
0010
0000
0000
,
0001
0100
0001
0100
0000
0000
0000
0000
0000
0000
0000
0000
,
0010
0000
0000
0100
0001
0100
0001
0000
0000
0010
0000
0000
,
0100
1000
0100
1000
0000
0000
0000
0000
0000
0000
0000
0000
,
0010
0000
0000
1000
0001
1000
0001
0000
0000
0010
0000
0000
,
0001
1000
0001
1000
0000
0000
0000
0000
0000
0000
0000
0000
,
0100
0000
0000
1000
0010
1000
0010
0000
0000
0100
0000
0000
,
0001
0010
0001
0010
0000
0000
0000
0000
0000
0000
0000
0000
,
0100
0000
0000
0010
0001
0010
0001
0000
0000
0100
0000
0000
,
0010
1000
0010
1000
0000
0000
0000
0000
0000
0000
0000
0000
,
0001
0001
0001
0100
0100
0100
0010
0010
,
1000
1000
1000
0010
0010
0010
0100
0100
,
0001
0001
0001
0010
0010
0010
0100
0100
,
1000
1000
1000
0100
0100
0100
0010
0010
,
0100
1000
0100
1000
0001
0100
0010
1000
,
0100
1000
0100
1000
0001
0010
0100
1000
,
0010
1000
0010
1000
0001
0010
0100
1000
,
0010
0000
1000
0000
0010
0000
1000
0000
0001
0000
0100
0010
1000
0000
0001
0000
,
0010
0001
0010
0001
1000
0010
0100
0001
,
0010
0001
0010
0001
1000
0100
0010
0001
,
0100
0001
0100
0001
1000
0100
0010
0001
,
0100
0000
0001
0000
0100
0000
0001
0000
1000
0000
0010
0100
0001
0000
1000
0000
,
1001
0001
1000
0001
1001
0001
0011
1000
,
0011
0001
0010
0001
0011
0010
1100
0001
,
1100
1000
0100
1000
1100
1000
0110
0001
,
0110
0000
1000
0000
0001
0000
1000
0000
0110
0000
1000
0100
0010
0000
0001
0000
,
1010
0000
1000
0000
1010
0000
0001
0000
0010
0000
0100
0010
0001
0000
1000
0010
,
0100
0000
0001
0000
0011
0000
1000
0000
0100
0000
0010
0100
1000
0000
0001
0100
,
0010
0000
1000
0000
0001
0000
1000
0000
0001
0100
0001
0010
0100
0010
0001
0100
,
0004
4000
0000
0000
0000
0000
0000
0000
0000
0000
0000
0000
0000
0000
0000
0000
0000
0000
3003
0000
0000
0000
0000
0000
,
0001
1000
0100
1000
0010
1000
0001
0100
0001
1000
0100
1000
0010
1000
0001
0100
,
0001
1000
0100
1000
0010
1000
0001
0100
0001
1000
0100
1000
0010
1000
0001
0010
,
0001
1000
0010
1000
0100
1000
0001
0010
0001
1000
0010
1000
0100
1000
0001
0010
,
0001
1000
0010
1000
0100
1000
0001
0010
0001
1000
0010
1000
0100
1000
0001
0100
,
0001
0010
0001
1000
0100
1000
0010
0100
0001
0010
0001
1000
0100
1000
0010
0100
,
0001
0010
0001
1000
0100
1000
0010
0100
0001
0010
0001
1000
0010
1000
0100
0010
,
0001
0100
0001
1000
0010
1000
0100
0010
0001
0100
0001
1000
0010
1000
0100
0010
,
0001
0100
0001
1000
0010
1000
0100
0010
0001
0100
0001
1000
0010
1000
0100
0010
,
0001
1000
0010
1000
0100
1000
0001
0010
0001
1000
0010
1000
0100
1000
0001
0010
,
0001
1000
0010
1000
0100
1000
0001
0010
0001
1000
0010
1000
0100
1000
0001
0100
,
0001
1000
0100
1000
0010
1000
0001
0100
0001
1000
0100
1000
0010
1000
0001
0100
,
0001
1000
0100
1000
0010
1000
0001
0100
0001
1000
0100
1000
0010
1000
0001
0010
,
0001
0100
0001
1000
0010
1000
0100
0010
0001
0100
0001
1000
0010
1000
0100
0010
,
0001
0100
0001
1000
0010
1000
0100
0010
0001
0100
0001
1000
0100
1000
0010
0100
,
0001
0010
0001
1000
0100
1000
0010
0100
0001
0010
0001
1000
0100
1000
0010
0100
,
0001
0010
0100
1000
0001
0100
0010
0100
0001
0010
0100
1000
0001
0010
0100
0010
,
0001
1000
0010
1000
0100
1000
0001
0010
0001
1000
0010
1000
0100
1000
0001
0010
,
0001
1000
0010
1000
0100
1000
0001
0010
0001
1000
0010
1000
0100
1000
0001
0100
,
0001
1000
0100
1000
0010
1000
0001
0100
0001
1000
0100
1000
0010
1000
0001
0100
,
0001
1000
0100
1000
0010
1000
0001
0100
0001
1000
0100
1000
0010
1000
0001
0010
,
0001
0100
0001
1000
0010
1000
0100
0010
0001
0100
0001
1000
0010
1000
0100
0010
,
0001
0100
0001
1000
0010
1000
0100
0010
0001
0100
0001
1000
0100
1000
0010
0100
,
0001
0010
0001
1000
0100
1000
0010
0100
0001
0010
0001
1000
0100
1000
0010
0100
,
0001
0010
0001
1000
0100
1000
0010
0100
0001
0010
0001
1000
0010
1000
0001
0010
,
0001
1000
0100
1000
0010
1000
0001
0100
0001
1000
0100
1000
0010
1000
0001
0100
,
0001
1000
0100
1000
0010
1000
0001
0100
0001
1000
0100
1000
0010
1000
0001
0010
,
0001
1000
0010
1000
0100
1000
0001
0010
0001
1000
0010
1000
0100
1000
0001
0010
,
0001
1000
0010
1000
0100
1000
0001
0010
0001
1000
0010
1000
0100
1000
0001
0100
,
0001
0010
0001
1000
0100
1000
0010
0100
0001
0010
0001
1000
0100
1000
0010
0100
,
0001
0010
0001
1000
0100
1000
0010
0100
0001
0010
0001
1000
0010
1000
0100
0010
,
0001
0100
0001
1000
0010
1000
0100
0010
0001
0100
0001
1000
0010
1000
0001
0010
,
0200
M00M
M00M
M00M
M00M
0300
1001
0000
,
0001
1000
0001
1000
0001
1000
0100
1000
0100
1000
0100
1000
0010
0100
0010
0100
,
0001
1000
0001
1000
0001
1000
0100
1000
0100
1000
0100
1000
0010
0100
0001
1000
,
0100
0010
0100
0010
0100
0010
0001
1000
0001
1000
0001
1000
0010
1000
0010
1000
,
0100
0010
0100
0010
0100
0010
0001
1000
0001
1000
0001
1000
0010
0100
0001
1000
,
0010
0100
0010
0100
0010
0100
0001
1000
0001
1000
0001
1000
0100
1000
0100
1000
,
0010
0100
0010
0100
0010
0100
0001
1000
0001
1000
0001
1000
0010
1000
0100
0010
,
0001
1000
0001
1000
0001
1000
0100
1000
0100
1000
0100
1000
0010
0100
0010
0100
,
0001
1000
0001
1000
0001
1000
0100
1000
0100
1000
0100
1000
0010
1000
0100
0010
,
0001
1000
0001
1000
0001
1000
0010
1000
0010
1000
0010
1000
0100
0010
0100
0010
,
0001
1000
0001
1000
0001
1000
0010
1000
0010
1000
0010
1000
0100
0010
0001
1000
,
0010
0100
0010
0100
0010
0100
0001
1000
0001
1000
0001
1000
0100
1000
0100
1000
,
0010
0100
0010
0100
0010
0100
0001
1000
0001
1000
0001
1000
0010
1000
0100
0010
,
0001
0100
0001
0100
0001
0100
0010
1000
0010
1000
0010
1000
0100
0010
0100
0010
,
0001
0100
0001
0100
0001
0100
0010
1000
0010
1000
0010
1000
0100
0010
0001
0100
,
0010
1000
0010
1000
0010
1000
0010
1000
0010
1000
0010
1000
0100
0010
0100
0010
,
0001
0100
0001
0100
0001
0100
0010
1000
0010
1000
0010
1000
0100
0010
0100
0010
,
0001
1000
0001
1000
0001
1000
0010
1000
0010
1000
0010
1000
0100
0010
0100
0010
,
0001
1000
0001
1000
0001
1000
0010
1000
0010
1000
0010
1000
0100
0010
0001
1000
,
0010
0100
0010
0100
0010
0100
0001
1000
0001
1000
0001
1000
0100
1000
0100
1000
,
0010
0100
0010
0100
0010
0100
0001
1000
0001
1000
0001
1000
0100
0010
0001
1000
,
0100
0010
0100
0010
0100
0010
0001
1000
0001
1000
0001
1000
0010
1000
0010
1000
,
0100
0010
0100
0010
0100
0010
0001
1000
0001
1000
0001
1000
0100
1000
0010
0100
,
0001
1000
0001
1000
0001
1000
0010
1000
0010
1000
0010
1000
0100
0010
0100
0010
,
0001
1000
0001
1000
0001
1000
0010
1000
0010
1000
0010
1000
0100
1000
0010
0100
,
0001
1000
0001
1000
0001
1000
0100
1000
0100
1000
0100
1000
0010
0100
0010
0100
,
0001
1000
0001
1000
0001
1000
0100
1000
0100
1000
0100
1000
0010
0100
0001
1000
,
0100
0010
0100
0010
0100
0010
0001
1000
0001
1000
0001
1000
0010
1000
0010
1000
,
0004
4000
0000
0000
0000
0000
0000
0000
0000
0000
0000
0000
0000
0000
0000
0000
0000
0000
3003
0000
0000
0000
0000
0000
,
0001
0010
0001
1000
0100
1000
0010
0100
0010
1000
0100
1000
0001
0010
0001
0100
,
0010
0100
0001
0010
0001
1000
0100
1000
0001
0010
0001
1000
0100
1000
0001
0100
,
0001
0010
0001
1000
0100
1000
0010
0100
0010
1000
0100
1000
0001
0010
0001
1000
,
0004
4000
0000
0000
0000
0000
0000
0000
0000
0000
0000
0000
0000
0000
0000
0000
0000
0000
3003
0000
0000
0000
0000
0000
,
0220
0000
0000
0000
,
0000
0000
0000
0000
,
0000
0000
0000
0000
,
0000
0000
0330
0000
;

//---------------dance-single - 15- (Zaia)----------------
#NOTES:
     dance-single:
     15- (Zaia):
     Hard:
     15:
     1.000,1.000,0.077,0.110,1.000,3028.000,30.000,43.000,0.000,0.000:
0000
0000
0000
0000
,
0000
0000
0000
0000
,
0000
0000
0000
0000
,
0000
0000
0000
0000
,
0000
0000
0000
0000
,
0000
0000
0000
0000
,
0000
0000
0000
0000
,
0000
0000
0000
0000
,
0000
0000
0000
0000
,
0000
0000
0000
0000
,
0000
0000
0000
0000
,
0000
0000
0000
0000
,
0000
0000
0000
0000
,
0000
0000
0000
0000
,
0000
0000
0000
0000
,
0000
0000
0000
0000
,
0000
0000
0000
0000
,
0000
0000
0000
0000
,
1000
0100
1000
0000
0001
0100
0001
0000
1000
0000
0010
0000
1000
0001
1000
0000
,
0001
0010
0001
0000
1000
0010
1000
0000
0001
0000
0010
0000
0100
0010
0100
0000
,
1000
0001
1000
0000
0001
0010
0001
0000
1000
0000
0010
0000
1000
0001
1000
0000
,
0010
1000
0001
1000
0001
0000
0010
0000
0100
0000
1000
0001
1000
0000
0010
0000
,
1000
0100
1000
0000
0001
0100
0001
0000
1000
0000
0010
0000
1000
0001
1000
0000
,
0001
0010
0001
0000
1000
0010
1000
0000
0001
0000
0010
0000
0001
1000
0001
0000
,
0100
0010
0100
0000
0001
1000
0001
0000
1000
0000
0100
0000
1000
0010
1000
0000
,
0001
0010
0001
0000
1000
0100
1000
0000
0010
0000
0100
0000
0001
0000
1000
0000
,
0100
0000
1000
0000
0010
1000
0010
0000
0100
0000
0001
0000
0010
0001
0010
0000
,
0100
0000
1000
0000
0010
1000
0010
0000
0100
0000
0001
0000
0010
0001
0010
0000
,
0100
0000
1000
0000
0010
1000
0010
0000
0100
0000
0001
0000
0010
0001
0010
0000
,
0100
0000
1000
0001
1000
0000
0010
0000
0100
0000
0010
1000
0001
0000
0010
0000
,
0001
0000
1000
0000
0100
0010
0100
0000
0010
0000
0001
0000
0100
0010
0100
0000
,
0010
0000
1000
0000
0100
0010
0100
0000
0010
0000
0001
0000
0100
0010
0100
0000
,
0010
0000
1000
0000
0100
0010
0100
0000
0010
0000
0001
0000
0100
0010
0100
0000
,
0010
0000
0000
0010
,
1000
0100
1000
0000
0001
1000
0001
0000
0100
0000
0001
0000
1000
0010
1000
0000
,
0001
1000
0001
0000
1000
0100
1000
0000
0001
0000
1000
0000
0001
0100
0001
0000
,
1000
0001
1000
0000
0001
0010
0001
0000
1000
0000
0100
0000
1000
0010
1000
0000
,
0001
0000
1000
0100
1000
0000
0001
0000
0100
0000
0010
1000
0001
0000
0010
0000
,
0001
1000
0001
0000
0100
0001
0100
0000
0001
0000
0010
0000
0001
0100
0001
0000
,
1000
0001
1000
0000
0001
0010
0001
0000
1000
0000
0001
0000
1000
0010
1000
0000
,
0001
1000
0001
0000
1000
0100
1000
0000
0001
0000
0100
0000
0001
0010
0001
0000
,
1000
0001
1000
0000
0002
0000
0203
0000
0302
0000
2003
0000
3200
0000
0320
0000
,
0031
0100
0001
0000
1000
0001
1000
0000
0100
0000
1000
0000
0001
0010
0001
0000
,
1000
0001
1000
0000
0001
0100
0001
0000
1000
0000
0001
0000
1000
0100
1000
0000
,
0001
1000
0001
0000
1000
0010
1000
0000
0001
0000
0100
0000
0001
0010
0001
0000
,
1000
0000
0001
0100
0001
0000
1000
0000
0100
0000
0010
0001
1000
0000
0010
0000
,
1000
0001
1000
0000
0100
1000
0100
0000
1000
0000
0001
0000
1000
0100
1000
0000
,
0001
1000
0001
0000
1000
0010
1000
0000
0001
0000
1000
0000
0001
0010
0001
0000
,
1000
0010
0100
0001
1000
0010
0100
0010
1000
0001
0100
0001
1000
0010
0100
0010
,
4000
0004
0000
0000
0000
0000
0000
0000
0000
0000
0000
0000
0000
0000
0000
0000
0000
0000
0000
0000
0000
3000
0003
0000
,
1000
0010
0100
0010
1000
0001
1000
0001
1000
0100
0010
0100
1000
0001
1000
0001
,
0100
0010
0100
0001
1000
0001
1000
0001
1000
0100
1000
0010
0100
0010
1000
0001
,
1000
0100
0010
0100
1000
0001
1000
0001
1000
0010
0100
0010
1000
0001
1000
0001
,
0010
0100
0010
0001
1000
0001
1000
0001
1000
0010
1000
0100
0010
0001
0100
0001
,
1000
0010
0100
0010
1000
0001
1000
0001
1000
0100
0010
0100
1000
0001
1000
0001
,
0100
0010
0100
0001
1000
0001
1000
0001
1000
0100
1000
0001
0100
0001
1000
0010
,
1000
0100
0010
0100
1000
0001
1000
0001
1000
0010
0100
0010
1000
0001
1000
0001
,
0010
0100
0010
0001
1000
0001
1000
0001
1000
0010
1000
0100
0010
0001
0100
0010
,
1000
0001
1000
0100
0010
0100
1000
0001
1000
0001
1000
0010
0100
0010
1000
0001
,
1000
0001
1000
0100
0010
0100
1000
0001
1000
0001
1000
0010
0100
0010
1000
0001
,
1000
0001
1000
0100
0010
0100
1000
0001
1000
0001
1000
0010
0100
0010
1000
0001
,
1000
0001
1000
0100
0010
0100
1000
0001
1000
0010
0100
0001
0100
0010
1000
0001
,
1000
0001
1000
0100
0010
0100
1000
0001
1000
0001
1000
0010
0100
0010
1000
0001
,
1000
0001
1000
0100
0010
0100
1000
0001
1000
0001
1000
0010
0100
0010
1000
0001
,
1000
0001
1000
0100
0010
0100
1000
0001
1000
0001
1000
0010
0100
0010
1000
0001
,
1000
0000
0000
0001
,
0001
0000
0010
0100
0010
0000
0001
0000
1000
0000
0010
0100
0010
0000
1000
0000
,
0001
0000
0010
0100
0010
0000
0001
0000
1000
0000
0100
1000
0010
1000
0001
0000
,
1000
0000
0010
0100
0010
0000
1000
0000
0001
0000
0010
0100
0010
0000
0001
0000
,
1000
0000
0010
0100
0010
0000
1000
0000
0001
0000
1000
0001
0100
0000
0010
0000
,
1000
0000
0010
0100
0010
0000
1000
0000
0001
0000
0010
0100
0010
0000
0001
0000
,
1000
0000
0010
0100
0010
0000
0100
0001
1000
0001
1000
0000
0010
0000
0100
0000
,
0001
0000
0010
0100
0010
0000
0001
0000
1000
0000
0010
0100
0010
0000
1000
0000
,
0001
0000
0010
0100
0010
0000
0001
0000
1000
0000
0010
0000
0100
0000
0001
0000
,
1000
0100
1000
0000
0001
0100
0001
0000
1000
0000
0010
0000
1000
0001
1000
0000
,
0001
0010
0001
0000
1000
0010
1000
0000
0001
0000
0010
0000
0100
0010
0100
0000
,
1000
0001
1000
0000
0001
0010
0001
0000
1000
0000
0010
0000
1000
0001
1000
0000
,
0010
1000
0001
1000
0001
0000
0010
0000
0100
0000
1000
0001
1000
0000
0010
0000
,
1000
0100
1000
0000
0001
0100
0001
0000
1000
0000
0010
0000
1000
0001
1000
0000
,
0001
0010
0001
0000
1000
0010
1000
0000
0001
0000
0010
0000
0001
1000
0001
0000
,
0100
0010
0100
0000
0001
0000
1000
0000
0001
0000
0000
0000
1000
0000
0010
0000
,
1000
0000
0100
0000
1000
0000
0001
0000
0100
0001
1000
0001
0000
0000
0000
0000
,
1000
0000
0001
0100
0001
0000
0010
0000
0100
0000
1000
0010
1000
0000
0001
0000
,
1000
0000
0001
0100
0001
0000
0010
0000
0100
0000
1000
0010
1000
0000
0001
0000
,
0100
0000
0010
0100
0010
0000
1000
0000
0100
0000
0010
0100
0010
0000
0001
0000
,
0100
0000
0010
0100
0010
0000
1000
0000
0100
0000
0010
0100
0010
0000
0001
0000
,
1000
0000
0010
1000
0010
0000
0100
0000
0001
0000
0010
0001
0010
0000
0100
0000
,
1000
0000
0010
1000
0010
0000
0100
0000
0001
0000
0010
0001
0010
0000
0001
0000
,
1000
0000
0001
0010
0001
0000
0100
0000
0010
0000
1000
0100
1000
0000
0010
0000
,
0100
0000
0001
0010
0001
0000
0100
0000
0010
0000
1000
0100
1000
0000
0001
0000
,
0010
0000
0001
0100
0001
0000
0010
0000
0100
0000
1000
0010
1000
0000
0001
0000
,
1000
0000
0001
0100
0001
0000
0010
0000
0100
0000
1000
0010
1000
0000
0001
0000
,
0010
0000
0100
0010
0100
0000
1000
0000
0010
0000
0100
0010
0100
0000
0001
0000
,
0010
0000
0100
0010
0100
0000
1000
0000
0010
0000
0100
0010
0100
0000
0001
0000
,
1000
0000
0100
1000
0100
0000
0010
0000
0001
0000
0100
0001
0100
0000
0010
0000
,
1000
0000
0100
1000
0100
0000
0010
0000
0001
0000
0100
0001
0100
0000
0001
0000
,
1000
0000
0001
0100
0001
0000
1000
0000
0001
0000
0000
0000
0100
0000
0010
0000
,
1000
0000
0001
0000
1000
0000
0001
0000
0100
0001
1000
0001
1000
0001
1000
0001
,
1000
0000
0001
0100
0001
0000
0010
0000
0100
0000
1000
0010
1000
0000
0001
0000
,
1000
0000
0001
0100
0001
0000
0010
0000
0100
0000
1000
0010
1000
0000
0001
0000
,
0100
0000
0010
0100
0010
0000
1000
0000
0100
0000
0010
0100
0010
0000
0001
0000
,
0100
0000
0010
0100
0010
0000
1000
0000
0100
0000
0010
0100
0010
0000
0001
0000
,
1000
0000
0010
1000
0010
0000
0100
0000
0001
0000
0010
0001
0010
0000
0100
0000
,
1000
0000
0010
1000
0010
0000
0100
0000
0001
0000
0010
0001
0010
0000
0001
0000
,
1000
0000
0001
0010
0001
0000
0100
0000
0010
0000
1000
0100
1000
0000
0010
0000
,
0100
0000
0001
0010
0001
0000
0100
0000
0010
0000
1000
0100
1000
0000
0001
0000
,
0010
0000
0001
0100
0001
0000
0010
0000
0100
0000
1000
0010
1000
0000
0001
0000
,
1000
0000
0001
0100
0001
0000
0010
0000
0100
0000
1000
0010
1000
0000
0001
0000
,
0010
0000
0100
0010
0100
0000
1000
0000
0010
0000
0100
0010
0100
0000
0001
0000
,
4000
0004
0000
0000
0000
0000
0000
0000
0000
0000
0003
3000
,
0001
0010
0001
1000
0100
1000
0010
0100
0010
1000
0100
1000
0001
0010
0001
0100
,
0010
0100
0001
0010
0001
1000
0100
1000
0001
0010
0001
1000
0100
1000
0001
0100
,
0001
0010
0001
1000
0100
1000
0010
0100
0010
1000
0100
1000
0001
0010
0001
1000
,
0004
4000
0000
0000
0000
0000
0000
0000
0000
0000
0003
3000
,
0001
0000
0000
0200
0300
0000
0001
0000
0001
0000
0000
0200
0300
0000
0001
0000
,
0001
0000
0000
0200
0300
0000
0001
0000
0001
0000
0000
0200
0300
0000
0010
0000
,
1000
0000
0000
0200
0300
0000
1000
0000
1000
0000
0000
0200
0300
0000
1000
0000
,
1000
0000
0000
0200
0300
0000
1000
0000
1000
0000
0000
0200
0300
0000
0010
0000
,
0001
0000
0000
0020
0030
0000
0001
0000
0001
0000
0000
0020
0030
0000
0001
0000
,
0001
0000
0000
0020
0030
0000
0001
0000
0001
0000
0000
0020
0030
0000
0001
0000
,
0100
0000
0000
0020
0030
0000
0100
0000
0100
0000
0000
0020
0030
0000
0100
0000
,
0100
0000
0000
0020
0030
0000
0100
0000
0100
0000
0000
0020
0030
0000
0100
0000
,
0001
0000
0000
0020
0030
0000
0001
0000
0001
0000
0000
0020
0030
0000
0001
0000
,
0001
0000
0000
0020
0030
0000
0001
0000
0001
0000
0000
0020
0030
0000
0100
0000
,
1000
0000
0000
0020
0030
0000
1000
0000
1000
0000
0000
0020
0030
0000
1000
0000
,
1000
0000
0000
0020
0030
0000
1000
0000
1000
0000
0000
0020
0030
0000
0100
0000
,
0001
0000
0000
2000
3000
0000
0001
0000
0001
0000
0000
2000
3000
0000
0001
0000
,
0001
0000
0000
2000
3000
0000
0001
0000
0001
0000
0000
2000
3000
0000
0100
0000
,
0010
0000
0000
0002
0003
0000
0010
0000
0010
0000
0000
0002
0003
0000
0010
0000
,
0100
0000
0000
2000
3000
0000
0100
0000
0100
0000
0000
2000
3000
0000
0010
0000
,
0100
0001
0100
0001
1000
0100
0010
0001
,
0100
0001
0100
0001
1000
0010
0100
0001
,
0010
0001
0010
0001
1000
0010
0100
0001
,
0010
0000
0001
0000
0010
0000
0001
0000
1000
0000
0100
0010
0001
0000
1000
0000
,
0010
1000
0010
1000
0001
0010
0100
1000
,
0010
1000
0010
1000
0001
0100
0010
1000
,
0100
1000
0100
1000
0001
0100
0010
1000
,
0100
0000
1000
0000
0100
0000
1000
0000
0001
0000
0010
0100
1000
0000
0001
0000
,
1001
0000
0000
1001
0000
0000
1010
0000
,
1010
0000
0000
0110
0000
0000
0101
0000
,
1001
0000
0000
1001
0000
0000
0011
0000
,
1100
0000
0000
0000
0000
0000
1100
0000
0000
0000
1000
0001
0010
0000
0100
0000
,
1000
0000
0001
0000
0000
0000
1000
0000
0010
0000
0100
0001
1000
0000
0001
0100
,
0010
0000
1000
0000
0000
0000
0001
0000
0010
0000
0000
0000
0001
0000
1000
0100
,
0010
0000
0001
0000
1000
0000
0001
0000
1000
0100
1000
0010
0100
0010
1000
0100
,
4000
0004
0000
0000
0000
0000
0000
0000
0000
0000
0000
0000
0000
0000
0000
0000
0000
0000
0000
0000
3003
0000
0000
0000
,
1000
0001
1000
0001
0010
0001
1000
0010
1000
0001
1000
0001
0010
0001
1000
0010
,
1000
0001
1000
0001
0010
0001
1000
0010
1000
0001
1000
0001
0010
0001
1000
0010
,
1000
0001
1000
0001
0100
0001
1000
0100
1000
0001
1000
0001
0100
0001
1000
0100
,
1000
0001
1000
0001
0100
0001
1000
0100
1000
0001
1000
0001
0100
0001
1000
0001
,
1000
0010
0100
0010
1000
0001
1000
0100
0010
0100
1000
0001
1000
0001
1000
0010
,
0100
0010
1000
0001
1000
0001
1000
0100
0010
0100
1000
0001
1000
0100
1000
0010
,
0100
0001
1000
0001
0010
0100
1000
0001
1000
0001
1000
0010
0100
0001
1000
0001
,
1000
0001
1000
0100
0010
0001
1000
0001
1000
0010
0100
0001
0010
0100
1000
0010
,
1000
0001
1000
0001
0100
0001
1000
0100
1000
0001
1000
0001
0100
0001
1000
0100
,
1000
0001
1000
0001
0100
0001
1000
0100
1000
0001
1000
0001
0100
0001
1000
0100
,
1000
0001
1000
0001
0010
0001
1000
0010
1000
0001
1000
0001
0010
0001
1000
0010
,
1000
0001
1000
0001
0010
0001
1000
0010
1000
0001
1000
0001
0010
0001
1000
0001
,
1000
0100
0010
0100
1000
0001
1000
0010
0100
0010
1000
0001
1000
0001
1000
0100
,
0010
0100
1000
0001
1000
0001
1000
0010
0100
0010
1000
0001
1000
0100
1000
0010
,
0100
0010
1000
0001
0100
0001
0010
0100
1000
0010
1000
0001
0100
0001
0010
0100
,
4000
0004
0000
0000
0000
0000
0000
0000
0000
0000
0000
0000
0000
0000
0000
0000
0000
0000
3003
0000
0000
0000
0000
0000
,
1000
0001
1000
0001
0010
0001
1000
0010
1000
0001
1000
0001
0010
0001
1000
0010
,
1000
0001
1000
0001
0010
0001
1000
0010
1000
0001
1000
0001
0010
0001
1000
0010
,
1000
0001
1000
0001
0100
0001
1000
0100
1000
0001
1000
0001
0100
0001
1000
0100
,
1000
0001
1000
0001
0100
0001
1000
0100
1000
0001
1000
0001
0100
0001
1000
0001
,
1000
0010
0100
0010
1000
0001
1000
0100
0010
0100
1000
0001
1000
0001
1000
0010
,
0100
0010
1000
0001
1000
0001
1000
0100
0010
0100
1000
0001
1000
0100
1000
0010
,
0100
0001
1000
0001
0010
0100
1000
0001
1000
0001
1000
0010
0100
0001
1000
0001
,
1000
0001
1000
0100
0010
0001
1000
0001
1000
0010
0100
0001
0010
0100
1000
0010
,
1000
0001
1000
0001
0100
0001
1000
0100
1000
0001
1000
0001
0100
0001
1000
0100
,
1000
0001
1000
0001
0100
0001
1000
0100
1000
0001
1000
0001
0100
0001
1000
0100
,
1000
0001
1000
0001
0010
0001
1000
0010
1000
0001
1000
0001
0010
0001
1000
0010
,
1000
0001
1000
0001
0010
0001
1000
0010
1000
0001
1000
0001
0010
0001
1000
0001
,
1000
0100
0010
0100
1000
0001
1000
0010
0100
0010
1000
0001
1000
0001
1000
0100
,
0010
0100
1000
0001
1000
0001
1000
0010
0100
0010
1000
0001
1000
0001
0010
0001
,
1000
0100
1000
0001
0010
0001
0100
0010
1000
0100
1000
0001
0010
0001
0100
0010
,
4000
0004
0000
0000
0000
0000
0000
0000
0000
0000
0000
0000
0000
0000
0000
0000
0000
0000
3003
0000
0000
0000
0000
0000
,
1000
0100
1000
0000
0001
0100
0001
0000
1000
0000
0010
0000
1000
0001
1000
0000
,
0001
0010
0001
0000
1000
0010
1000
0000
0001
0000
0010
0000
0100
0010
0100
0000
,
1000
0001
1000
0000
0001
0010
0001
0000
1000
0000
0010
0000
1000
0001
1000
0000
,
0010
1000
0001
1000
0001
0000
0010
0000
0100
0000
1000
0001
1000
0000
0010
0000
,
1000
0100
1000
0000
0001
0100
0001
0000
1000
0000
0010
0000
1000
0001
1000
0000
,
0001
0010
0001
0000
1000
0010
1000
0000
0001
0000
0010
0000
0001
1000
0001
0000
,
0100
0010
0100
0000
0001
1000
0001
0000
1000
0000
0100
0000
1000
0010
1000
0000
,
0001
0010
0001
0000
1000
0100
1000
0000
0010
0000
0100
0000
0001
0000
1000
0000
,
0100
0000
1000
0000
0010
1000
0010
0000
0100
0000
0001
0000
0010
0001
0010
0000
,
0100
0000
1000
0000
0010
1000
0010
0000
0100
0000
0001
0000
0010
0001
0010
0000
,
0100
0000
1000
0000
0010
1000
0010
0000
0100
0000
0001
0000
0010
0001
0010
0000
,
0100
0000
1000
0001
1000
0000
0010
0000
0100
0000
0010
1000
0001
0000
0010
0000
,
0001
0000
1000
0000
0100
0010
0100
0000
0010
0000
0001
0000
0100
0010
0100
0000
,
0010
0000
1000
0000
0100
0010
0100
0000
0010
0000
0001
0000
0100
0010
0100
0000
,
0010
0000
1000
0000
0100
0010
0100
0000
0010
0000
0001
0000
0100
0010
0100
0000
,
0010
0000
0000
0010
,
1000
0100
1000
0000
0001
1000
0001
0000
0100
0000
0001
0000
1000
0010
1000
0000
,
0001
1000
0001
0000
1000
0100
1000
0000
0001
0000
1000
0000
0001
0100
0001
0000
,
1000
0001
1000
0000
0001
0010
0001
0000
1000
0000
0100
0000
1000
0010
1000
0000
,
0001
0000
1000
0100
1000
0000
0001
0000
0100
0000
0010
1000
0001
0000
0010
0000
,
0001
1000
0001
0000
0100
0001
0100
0000
0001
0000
0010
0000
0001
0100
0001
0000
,
1000
0001
1000
0000
0001
0010
0001
0000
1000
0000
0001
0000
1000
0010
1000
0000
,
0001
1000
0001
0000
1000
0100
1000
0000
0001
0000
0100
0000
0001
0010
0001
0000
,
1000
0001
1000
0000
0001
0000
0100
0000
0001
0000
0010
0000
0100
0000
1000
0000
,
0001
0100
0001
0000
1000
0001
1000
0000
0100
0000
1000
0000
0001
0010
0001
0000
,
1000
0001
1000
0000
0001
0100
0001
0000
1000
0000
0001
0000
1000
0100
1000
0000
,
0001
1000
0001
0000
1000
0010
1000
0000
0001
0000
0100
0000
0001
0010
0001
0000
,
1000
0000
0001
0100
0001
0000
1000
0000
0100
0000
0010
0001
1000
0000
0010
0000
,
1000
0001
1000
0000
0100
1000
0100
0000
1000
0000
0001
0000
1000
0100
1000
0000
,
0001
1000
0001
0000
1000
0010
1000
0000
0001
0000
1000
0000
0001
0010
0001
0000
,
1000
0100
1000
0010
0100
0010
1000
0100
1000
0001
0010
0001
1000
0100
1000
0010
,
4000
0004
0000
0000
0000
0000
0000
0000
0000
0000
0000
0000
0000
0000
0000
0000
0000
0000
0000
0000
3000
0000
0003
0000
,
1000
0100
0100
0000
0001
0100
0100
0000
,
0001
1000
0001
1000
0000
0000
0000
0000
0000
0000
0000
0000
,
0010
0000
0000
1000
0100
1000
0100
0000
0000
0010
0000
0000
,
0001
0100
0001
0100
0000
0000
0000
0000
0000
0000
0000
0000
,
0010
0000
0000
0100
0001
0100
0001
0000
0000
0010
0000
0000
,
0100
1000
0100
1000
0000
0000
0000
0000
0000
0000
0000
0000
,
0010
0000
0000
1000
0001
1000
0001
0000
0000
0010
0000
0000
,
0001
1000
0001
1000
0000
0000
0000
0000
0000
0000
0000
0000
,
0100
0000
0000
1000
0010
1000
0010
0000
0000
0100
0000
0000
,
0001
0010
0001
0010
0000
0000
0000
0000
0000
0000
0000
0000
,
0100
0000
0000
0010
0001
0010
0001
0000
0000
0100
0000
0000
,
0010
1000
0010
1000
0000
0000
0000
0000
0000
0000
0000
0000
,
0001
0001
0001
0100
0100
0100
0010
0010
,
1000
1000
1000
0010
0010
0010
0100
0100
,
0001
0001
0001
0010
0010
0010
0100
0100
,
1000
1000
1000
0100
0100
0100
0010
0010
,
0100
1000
0100
1000
0001
0100
0010
1000
,
0100
1000
0100
1000
0001
0010
0100
1000
,
0010
1000
0010
1000
0001
0010
0100
1000
,
0010
0000
1000
0000
0010
0000
1000
0000
0001
0000
0100
0010
1000
0000
0001
0000
,
0010
0001
0010
0001
1000
0010
0100
0001
,
0010
0001
0010
0001
1000
0100
0010
0001
,
0100
0001
0100
0001
1000
0100
0010
0001
,
0100
0000
0001
0000
0100
0000
0001
0000
1000
0000
0010
0100
0001
0000
1000
0000
,
1001
0000
0000
1001
0000
0000
0011
0000
,
0011
0000
0000
0110
0000
0000
1100
0000
,
1001
0000
0000
1001
0000
0000
1010
0000
,
0101
0000
0000
0000
0000
0000
0101
0000
0000
0000
0001
1000
0010
0000
0100
0000
,
0001
0000
1000
0000
0000
0000
0001
0000
0010
0000
0100
1000
0001
0000
1000
0100
,
0010
0000
0001
0000
0000
0000
1000
0000
0010
0000
0000
0000
1000
0000
0001
0100
,
0010
0000
1000
0000
0001
0000
1000
0000
0001
0100
0001
0010
0100
0010
0001
0100
,
0004
4000
0000
0000
0000
0000
0000
0000
0000
0000
0000
0000
0000
0000
0000
0000
0000
0000
0000
0000
3003
0000
0000
0000
,
1000
0001
1000
0001
0100
0001
1000
0100
1000
0001
1000
0001
0100
0001
1000
0100
,
1000
0001
1000
0001
0100
0001
1000
0100
1000
0001
1000
0001
0100
0001
1000
0100
,
1000
0001
1000
0001
0010
0001
1000
0010
1000
0001
1000
0001
0010
0001
1000
0010
,
1000
0001
1000
0001
0010
0001
1000
0010
1000
0001
1000
0001
0010
0001
1000
0001
,
1000
0100
0010
0100
1000
0001
1000
0010
0100
0010
1000
0001
1000
0001
1000
0100
,
0010
0100
1000
0001
1000
0001
1000
0010
0100
0010
1000
0001
1000
0010
1000
0100
,
0010
0001
1000
0001
0100
0010
1000
0001
1000
0001
1000
0100
0010
0001
1000
0001
,
1000
0001
1000
0010
0100
0001
1000
0001
1000
0100
0010
0001
0100
0010
1000
0100
,
1000
0001
1000
0001
0010
0001
1000
0010
1000
0001
1000
0001
0010
0001
1000
0010
,
1000
0001
1000
0001
0010
0001
1000
0010
1000
0001
1000
0001
0010
0001
1000
0010
,
1000
0001
1000
0001
0100
0001
1000
0100
1000
0001
1000
0001
0100
0001
1000
0100
,
1000
0001
1000
0001
0100
0001
1000
0100
1000
0001
1000
0001
0100
0001
1000
0001
,
1000
0010
0100
0010
1000
0001
1000
0100
0010
0100
1000
0001
1000
0001
1000
0010
,
0100
0010
1000
0001
1000
0001
1000
0100
0010
0100
1000
0001
1000
0010
1000
0100
,
0010
0001
1000
0001
0100
0010
1000
0001
1000
0001
1000
0100
0010
0001
1000
0001
,
1000
0001
1000
0010
0100
0001
1000
0001
1000
0100
0010
0001
1000
0000
0000
0000
,
0001
1000
0001
1000
0100
1000
0001
0100
0001
1000
0001
1000
0100
1000
0001
0100
,
0001
1000
0001
1000
0100
1000
0001
0100
0001
1000
0001
1000
0100
1000
0001
0100
,
0001
1000
0001
1000
0010
1000
0001
0010
0001
1000
0001
1000
0010
1000
0001
0010
,
0001
1000
0001
1000
0010
1000
0001
0010
0001
1000
0001
1000
0010
1000
0001
1000
,
0001
0100
0010
0100
0001
1000
0001
0010
0100
0010
0001
1000
0001
1000
0001
0100
,
0010
0100
0001
1000
0001
1000
0001
0010
0100
0010
0001
1000
0001
0010
0001
0100
,
0010
1000
0001
1000
0100
0010
0001
1000
0001
1000
0001
0100
0010
1000
0001
1000
,
0001
1000
0001
0010
0100
1000
0001
1000
0001
0100
0010
1000
0100
0010
0001
0100
,
0001
1000
0001
1000
0010
1000
0001
0010
0001
1000
0001
1000
0010
1000
0001
0010
,
0001
1000
0001
1000
0010
1000
0001
0010
0001
1000
0001
1000
0010
1000
0001
0010
,
0001
1000
0001
1000
0100
1000
0001
0100
0001
1000
0001
1000
0100
1000
0001
0100
,
0001
1000
0001
1000
0100
1000
0001
0100
0001
1000
0001
1000
0100
1000
0001
1000
,
0001
0010
0100
0010
0001
1000
0001
0100
0010
0100
0001
1000
0001
1000
0001
0010
,
0100
0010
0001
1000
0001
1000
0001
0100
0010
0100
0001
1000
0001
1000
0100
1000
,
0001
0010
0001
1000
0100
1000
0010
0100
0001
0010
0001
1000
0100
1000
0010
0100
,
0002
0000
0000
1003
,
0001
1000
0001
0100
0001
0100
0010
0100
,
0010
1000
0010
1000
0100
1000
0001
0010
,
0100
1000
0100
1000
0001
1000
0010
0100
,
0001
1000
0001
0100
0001
0100
0010
1000
,
0001
0010
0001
1000
0100
1000
0001
1000
,
0010
1000
0010
0100
0001
0100
0010
1000
,
0100
0010
0100
1000
0001
1000
0010
0100
,
0001
1000
0001
0010
0001
0010
0100
1000
,
0001
1000
0001
1000
0100
1000
0010
0100
,
0001
1000
0001
0010
0100
0010
0100
1000
,
0010
0100
0010
1000
0001
1000
0010
0100
,
0001
1000
0001
0010
0100
0010
0001
1000
,
0010
0100
0010
1000
0001
1000
0100
0010
,
0001
1000
0001
0100
0010
0100
0001
0010
,
0100
1000
0100
1000
0100
1000
0001
1000
,
0100
1000
0100
1000
0001
1000
1010
0000
,
1001
0001
1000
0100
1000
0100
0010
0100
,
0010
0001
0010
0001
0100
0001
1000
0010
,
0100
0001
0100
0001
1000
0001
0010
0100
,
1000
0001
1000
0100
1000
0100
0010
0001
,
1000
0010
1000
0001
0100
0001
1000
0001
,
0010
0001
0010
0100
1000
0100
0010
0001
,
0100
0010
0100
0001
1000
0001
0010
0100
,
1000
0001
1000
0010
1000
0010
0100
0001
,
1000
0001
1000
0001
0100
0001
0010
0100
,
1000
0001
1000
0010
0100
0010
0100
0001
,
1000
0010
1000
0001
0100
0001
0010
0100
1000
0010
1000
0001
0100
0001
0010
0100
,
2000
0002
0000
0000
0000
0000
0000
0000
0000
0000
0000
0000
0000
0000
0000
0000
0000
0000
0000
0000
0000
3003
0000
0000
,
0001
0010
0001
1000
0100
1000
0010
0100
0010
1000
0100
1000
0001
0010
0001
0100
,
0010
0100
0001
0010
0001
1000
0100
1000
0001
0010
0001
1000
0100
1000
0001
0100
,
0001
0010
0001
1000
0100
1000
0010
0100
0010
1000
0100
1000
0001
0010
0001
1000
,
0004
4000
0000
0000
0000
0000
0000
0000
0000
0000
0000
0000
0000
0000
0000
0000
0000
0000
0000
0000
0000
0000
3003
0000
,
0220
0000
0000
0000
,
0000
0000
0000
0000
,
0000
0000
0000
0000
,
0000
0000
0330
0000
;
