#TITLE:Galaxy Friends;
#SUBTITLE:;
#ARTIST:Kobaryo;
#TITLETRANSLIT:;
#SUBTITLETRANSLIT:;
#ARTISTTRANSLIT:;
#CREDIT:owenviau1;
#BANNER:../Banner.PNG;
#BACKGROUND:../BG.png;
#LYRICSPATH:;
#CDTITLE:../CDTitleOV1.png;
#MUSIC:Kobaryo - Galaxy Friends.ogg;
#OFFSET:-0.501;
#SAMPLESTART:32.101;
#SAMPLELENGTH:29.999;
#SELECTABLE:YES;
#BPMS:0.000=150.000,47.000=300.000,123.000=150.000,125.000=300.000,137.000=150.000,139.000=300.000,151.000=150.000,153.000=300.000,169.000=150.000,241.000=300.000,289.000=150.000,313.000=300.000,325.000=150.000,327.000=200.000,487.000=100.000,488.000=105.000,489.000=110.000,490.000=115.000,491.000=116.000,492.000=120.000,493.000=125.000,496.000=130.000,497.000=135.000,498.000=140.000,500.000=145.000,501.000=148.000,502.000=150.000,583.000=300.000,711.000=150.000;
#STOPS:;
#BGCHANGES:;
// cache tags:
#FIRSTBEAT:9.000;
#LASTBEAT:775.250;
#SONGFILENAME:Songs/Index Fusion/Galaxy Friends - [owenviau1]/Galaxy Friends.sm;
#HASMUSIC:1;
#HASBANNER:1;
#MUSICLENGTH:242.625;
// end cache tags

//---------------dance-single - ----------------
#NOTES:
     dance-single:
     :
     Challenge:
     24:
     1.000,1.000,0.045,0.441,1.000,1768.000,11.000,107.000,104.000,0.000:
0000
0000
0000
0000
,
0000
0000
0000
0000
,
0000
MMMM
0000
0000
,
0000
0000
0000
0000
0000
0000
0000
0000
0000
0000
0000
0000
1000
0100
0010
0001
,
0100
0001
1000
0010
0100
0001
0100
0010
1000
0001
1000
0100
0010
0001
1000
0100
,
1000
0001
0010
0001
0100
0010
1000
0001
0100
0001
1000
0100
0010
0001
1000
0100
,
1000
0010
0100
0001
1000
0001
0010
0100
1000
0001
0010
0001
0100
0010
0100
0001
,
1000
0001
0100
0010
1000
0010
0200
0000
0302
0000
2003
0000
3002
0000
0000
0000
,
0000
0023
0230
2300
,
0000
3020
0230
0302
,
0000
0000
0000
0000
0000
0000
0000
2003
0000
0000
0000
0000
0000
0000
0000
0000
,
0000
3040
0000
0000
0130
0000
0001
0010
,
0100
1000
0001
0010
0001
1000
0100
0010
,
0001
1000
0010
0100
0001
1000
0001
1000
,
0001
0100
0010
0100
0001
1000
0010
1000
,
0100
0000
0010
0000
0001
0000
1000
0000
0010
0100
0010
1000
0001
0000
0010
0000
,
0100
1000
0001
0100
0001
1000
0010
0100
,
0010
1000
0001
0100
0010
1000
0010
1000
,
0010
0100
0001
1000
0100
1000
0001
0010
,
0100
0000
1000
0000
0001
0000
0100
0000
0010
1000
0010
0100
0001
0000
1000
0000
,
0001
0100
0010
0100
0001
1000
0100
1000
,
0001
0010
0100
1000
0001
0010
0001
0010
,
0001
1000
0010
0100
0010
1000
0001
1000
,
0010
0000
0100
0000
0010
0000
1000
0000
0001
0100
0001
1000
0010
0000
0100
0000
,
0001
1000
0001
0100
0010
1000
0010
0100
,
0001
0000
1000
0000
0100
0010
0001
1000
0001
0000
0100
0000
0020
0000
0000
0030
,
1000
0000
0001
0000
0100
0000
0002
0000
0003
0000
0020
0000
0030
0000
0200
0300
,
2000
3000
0000
0000
0001
0010
0001
0100
0010
1000
0001
1000
0100
0000
0010
0000
,
0001
1000
0001
0100
0010
1000
0010
0100
0001
1000
0001
0010
0100
1000
0001
0100
,
0001
1000
0010
0100
0001
1000
0001
0100
0010
0100
0001
1000
0010
1000
0100
0010
,
0001
1000
0001
0100
0010
1000
0001
0100
0001
1000
0100
0010
0002
0000
2003
0000
,
3020
0000
0230
0000
0301
0000
1000
0000
0001
0100
0010
0100
0001
1000
0010
1000
,
0100
0010
0001
1000
0100
1000
0001
0100
0010
1000
0010
0100
0001
1000
0001
0010
,
0100
1000
0100
0010
0001
1000
0010
1000
0001
0100
0001
1000
0010
0100
0001
0100
,
0010
1000
0100
0010
0002
0000
2003
0000
3200
0000
0320
0000
0031
0000
0100
0000
,
0010
1000
0001
0100
0001
1000
0100
1000
0010
0100
0001
0100
0010
1000
0001
1000
,
0100
0010
0001
1000
0100
1000
0001
0100
0010
1000
0010
0100
0001
1000
0001
0010
,
0100
1000
0001
0100
0001
1000
0010
0100
0010
1000
0001
0100
0002
0000
0203
0000
,
0320
0000
2030
0000
3100
0000
0010
0000
0001
0100
0010
1000
0010
0100
0001
1000
,
0100
1000
0001
0010
0001
0100
0010
0100
0001
1000
0100
0010
0001
1000
0100
1000
,
0010
0100
0001
1000
0002
0000
0000
0000
0203
0000
0000
0000
0320
0000
0000
0000
,
4030
3002
0000
1003
,
0010
0100
0001
0000
1000
0000
0001
0000
,
0100
0000
0000
0000
0010
0000
0000
0000
0100
0001
1000
0001
0010
0100
1000
0001
,
0100
0010
1000
0001
0100
0001
1000
0100
0010
0001
1000
0100
1000
0001
0100
0010
,
0100
0001
1000
0100
1000
0001
0010
0001
0100
0010
0100
0001
1000
0100
1000
0001
,
0010
0100
1000
0001
0010
0001
0100
0010
1000
0001
0100
0001
1000
0010
0100
0001
,
0100
0010
1000
0001
1000
0100
0010
0001
1000
0100
1000
0001
0010
0001
0100
0010
,
1000
0000
0001
0000
0100
0000
0001
0000
1000
0100
0010
0001
1000
0001
0100
0010
0100
0001
1000
0100
1000
0001
0010
0001
0100
0010
1000
0001
0100
0001
1000
0100
,
0010
0001
1000
0010
0100
0001
0100
0010
4000
0000
0000
0000
0000
0000
0000
0000
3000
0000
0000
0000
00M0
0000
0000
0000
0M00
0000
0000
0000
0000
00M0
0000
0000
,
0001
0000
1000
0010
0100
0000
0001
0000
2000
0000
0000
0000
0001
0000
0000
0000
,
0100
0000
0000
3000
0010
0000
0200
0000
0301
0000
2000
0000
3010
0000
0200
0000
,
0302
1003
0010
1000
0002
0000
1000
0000
,
0100
0000
0000
0000
1003
0010
0100
0001
0100
0010
1000
0001
0100
0001
1000
0000
,
0020
0000
1030
0001
0200
0000
0010
0000
,
0010
0000
0310
2000
3001
0200
0310
2000
,
3002
0013
0001
1000
0020
0000
0100
0000
,
0100
0000
0000
0000
0130
0001
1000
0001
0100
0010
1000
0010
0100
0001
1000
0001
,
0010
0100
1000
0001
1000
0100
0010
0100
1000
0001
0100
0010
0100
0001
1000
0010
,
0100
0001
1000
0001
0010
0100
1000
0001
0010
0001
0100
0010
2000
0000
3002
0000
,
2003
3004
1003
0100
0010
0001
1000
0010
,
0100
0001
0100
0010
1000
0001
1000
0100
,
0010
0001
1000
0001
0100
0010
0100
0001
,
1000
0010
1000
0100
0010
0001
1000
0100
,
1000
0001
0010
0001
0100
0010
0100
0001
,
1000
0001
0010
0100
1000
0010
0100
0001
,
0010
0000
0100
0000
1000
0001
0100
0010
1000
0010
0100
0001
1000
0001
0010
0100
,
1000
0001
0010
0001
0100
0010
0100
0001
1000
0010
1000
0100
0010
0001
1000
0001
,
0100
0010
1000
0000
0001
0000
0010
0000
0200
0000
0000
0000
1300
0000
0004
0000
,
0103
0010
0100
0001
1000
0100
0010
0001
1000
0001
0100
0010
0100
0001
1000
0010
,
1000
0100
0010
0001
0200
0000
0000
0000
0000
0000
0000
0000
0340
0000
0000
0000
,
0000
1030
0001
0100
,
0010
0000
1000
0000
0001
0010
0100
1000
0001
0100
0001
1000
0010
0100
0010
1000
,
0001
0010
0001
0100
0010
0100
0001
1000
0010
1000
0100
0010
0001
1000
0100
1000
,
0001
0100
0010
0100
0002
0000
0000
0000
2003
3000
0010
0100
0040
0000
0000
0000
,
0M30
2000
3004
0000
0403
0340
1030
0001
,
2000
0000
3020
0000
0000
0100
0130
0000
,
0002
0000
0000
0000
2003
0000
0000
0010
3000
0000
0020
0000
0000
0000
0000
0000
,
0430
0000
0000
0000
0301
1000
0001
0010
0100
1000
0010
1000
0001
0000
0100
0000
,
0010
0000
1000
0000
0010
0100
0001
1000
0001
0010
0100
1000
0001
0100
0001
1000
,
0010
0100
0001
1000
0100
0000
0010
0000
0001
0000
1000
0000
0000
0000
0010
0000
,
0100
0000
0000
0000
0000
0000
0000
0000
0001
0000
0000
0000
0000
0000
0000
0000
0200
0000
0000
0000
0000
0000
0000
0000
0320
0000
0000
0000
0000
0000
0000
0000
1030
0000
0000
0000
0000
0000
0000
0000
0001
0000
0000
0000
1000
0000
0000
0000
0001
0000
0000
0000
0000
0000
0000
0000
0000
0000
0000
00M0
0000
0000
0000
0000
,
0000
0000
0000
0000
0000
0000
0M00
0000
0000
0000
0000
0000
0000
0000
0000
0000
M000
0000
0000
0000
0000
0000
0000
0000
0000
0000
0000
0M00
0000
0000
0000
0000
0000
0000
0000
0000
0000
0000
00M0
0000
0000
0000
0000
0000
0000
0000
0000
0000
000M
0000
0000
0000
0000
0000
0000
0000
0000
0000
0000
00M0
0000
0000
0000
0000
,
0000
0000
0000
0000
0000
0000
0M00
0000
0000
0000
0000
0000
0000
0000
0000
0000
M000
0000
0000
0000
0000
0000
0000
0000
0000
0000
0000
0M00
0000
0000
0000
0000
0000
0000
0000
0000
0000
0000
00M0
0000
0000
0000
0000
0000
0000
0000
0000
0000
000M
0000
0000
0000
0000
0000
0000
0000
0000
0000
0000
00M0
0000
0000
0000
0000
,
0000
0000
0000
0000
0000
0000
0M00
0000
0000
0000
0000
0000
0000
0000
0000
0000
M000
0000
0000
0000
0000
0000
0000
0000
0000
0000
0M00
0000
0000
0000
0000
0000
0000
0000
0000
00M0
0000
0000
0000
0000
0000
0000
0000
0000
0000
0000
0000
0000
000M
0000
0000
0000
0000
0000
0000
0000
0000
00M0
0000
0000
0000
0000
0000
0000
,
0000
0000
0M00
0000
0000
0000
0000
0000
0000
0000
0000
0000
0000
0000
0000
0000
M000
0000
0000
0000
0000
0000
0000
0000
0000
0M00
0000
0000
0000
0000
0000
0000
0000
0000
00M0
0000
0000
0000
0000
0000
0000
0000
0000
0000
0000
0000
0000
0000
000M
0000
0000
0000
0000
0000
0000
0000
0000
00M0
0000
0000
0000
0000
0000
0000
,
0000
0000
0M00
0000
0000
0000
0000
0000
0000
0000
0000
0000
0000
0000
0000
0000
M000
0000
0000
0000
0000
0000
0000
0000
0000
0M00
0000
0000
0000
0000
0000
0000
0000
0000
00M0
0000
0000
0000
0000
0000
0000
0000
0000
0000
0000
0000
0000
0000
000M
0000
0000
0000
0000
0000
0000
0000
0000
00M0
0000
0000
0000
0000
0000
0000
,
0000
0000
0M00
0000
0000
0000
0000
0000
0000
0000
0000
0000
0000
0000
0000
0000
M000
0000
0000
0000
0000
0000
0000
0000
0000
0000
0M00
0000
0000
0000
0000
0000
0000
0000
0000
00M0
0000
0000
0000
0000
0000
0000
0000
0000
0000
0000
0000
0000
000M
0000
0000
0000
0000
0000
0000
0000
0000
00M0
0000
0000
0000
0000
0000
0000
,
0000
0000
0M00
0000
0000
0000
0000
0000
0000
0000
0000
0000
0000
0000
0000
0000
M000
0000
0000
0000
0000
0000
0000
0000
0000
0M00
0000
0000
0000
0000
0000
0000
0000
0000
00M0
0000
0000
0000
0000
0000
0000
0000
0000
0000
0000
0000
0000
0000
000M
0000
0000
0000
0000
0000
0000
0000
00M0
0000
0000
0000
0000
0000
0000
0000
,
0M00
0000
M000
0M00
00M0
0000
0001
1000
,
0001
0100
0010
0100
0001
1000
0010
1000
,
0001
0100
0001
1000
0100
0010
0001
1000
,
0100
1000
0001
0010
0001
0100
0010
0100
,
0001
1000
0001
0100
0010
1000
0010
0100
,
0001
1000
0001
0100
0010
0100
0001
1000
,
0100
0000
1000
0000
0001
0000
0010
0000
0001
0000
0100
0000
0010
1000
0010
0100
,
0001
1000
0001
0010
0100
1000
0001
0100
0001
1000
0010
0100
0002
0000
0000
0000
,
0000
0000
0000
0000
1003
0000
0000
0000
0100
0000
0010
0000
0001
1000
0001
0100
,
0010
0100
0001
1000
0010
1000
0100
0010
0001
1000
0100
1000
0001
0100
0010
0100
,
0001
1000
0001
0100
0010
1000
0001
0100
0001
1000
0100
0010
0001
1000
0010
1000
,
0100
0010
0001
1000
0100
1000
0001
0010
0001
0100
0010
1000
0001
0100
0001
1000
,
0100
0010
0001
1000
0010
0000
0400
0000
0302
0000
0000
0000
1003
0100
0010
0001
,
1000
0100
1000
0010
0100
0001
1000
0001
0100
0010
0100
0001
1000
0010
1000
0100
,
0010
0001
0100
0010
1000
0001
0100
0001
0010
0100
1000
0001
0010
0001
0100
0010
,
1000
0001
0100
0001
1000
0100
1000
0010
0100
0001
0100
0010
4000
3000
4000
3000
,
0400
0300
0400
0300
0020
0000
0000
0000
0031
0000
1000
0000
0002
0000
0000
0000
,
0000
0103
0010
0000
1000
0100
0000
0010
,
0001
1000
0040
0130
0010
1000
0001
0100
,
0002
0000
0013
0000
0200
0300
0200
0300
1000
0000
0002
0003
0002
0003
0200
0300
,
0200
0300
0010
0000
2000
0000
3001
0100
0020
0000
0000
0000
1030
0000
0100
0000
,
1000
0001
0100
0010
0100
0001
1000
0100
,
1000
0000
0001
0000
0010
0000
0100
0000
1000
0000
0001
0000
1000
0010
0100
0001
,
0100
0010
1000
0001
1000
0100
0010
0001
1000
0010
0100
0001
0200
0000
0000
0000
,
0000
0000
0000
0000
0310
0000
0000
0000
1000
0000
0001
0000
1000
0100
0010
0001
,
1000
0010
0100
0001
0100
0010
1000
0001
1000
0100
0010
0001
1000
0100
1000
0001
,
0010
0001
0100
0010
0100
0001
1000
0010
1000
0001
0100
0010
0100
0001
1000
0100
,
0010
0001
0100
0001
1000
0010
0100
0001
0100
0010
1000
0001
4000
0000
0000
0000
,
0000
0000
0000
0000
0000
0000
3200
0000
0310
0000
0001
1000
0001
0000
0010
0000
,
0100
0000
1000
0010
1000
0000
0001
0000
0100
0000
0001
1000
0001
0000
0100
0000
,
0010
0000
1000
0100
1000
0000
0001
0000
0100
0000
0001
0000
1000
0010
0100
0001
,
0100
0010
1000
0001
1000
0100
0010
0001
1000
0100
1000
0001
0010
0001
0100
0010
,
2000
0000
3001
0100
0002
0000
2003
0000
3040
0000
0430
0000
0301
00M0
0M00
0000
,
M000
0M00
00M0
0000
000M
00M0
0M00
0000
M000
0M00
00M0
0000
000M
00M0
0M00
0000
,
M000
0M00
00M0
0000
000M
00M0
0M00
0000
M000
0M00
00M0
0000
000M
00M0
0M00
0000
,
M000
0M00
00M0
0000
000M
00M0
0M00
0000
M000
0M00
00M0
0000
000M
00M0
0M00
0000
,
M000
0M00
00M0
0000
000M
00M0
0200
0000
2300
0000
3020
0000
0230
0000
0000
0000
,
0000
0320
0230
0302
,
0000
0023
0230
2300
,
0000
0000
0000
0000
0000
0000
0000
3020
0000
0000
0000
0000
0000
0000
0000
0000
,
0000
0000
0230
0000
0000
0000
0000
0000
0301
0000
0000
0000
1000
0010
0100
0000
,
0001
0000
1000
0100
0000
0010
0001
0000
1000
0000
0010
1000
0000
0001
0100
0000
,
0010
0000
1000
0100
0000
1000
0001
0000
0100
0000
0010
1000
0000
0001
0100
0000
,
0010
0000
1000
0100
0000
1000
0010
0000
0100
0000
0001
1000
0000
0010
0100
0000
,
0001
0000
1000
0100
0000
0010
0001
0000
1000
0010
0100
0001
0100
0010
1000
0000
,
0010
0000
0100
0001
0000
1000
0100
0000
0010
0000
0001
1000
0000
0001
0100
0000
,
0010
0000
1000
0100
0000
1000
0010
0000
0100
0000
0001
0010
0000
0100
1000
0000
,
0001
0000
0100
0001
0000
1000
0010
0000
0100
0000
0001
1000
0000
0001
0100
0000
,
0010
0000
1000
0100
0000
0010
0001
0000
1000
0000
0010
0100
0000
0001
0100
0000
,
0010
0000
1000
0100
0000
1000
0001
0000
0100
0000
0010
0100
00M2
1003
0100
0000
,
0010
0000
0001
0100
002M
1030
0010
0000
0100
0000
0001
1000
0M02
0013
0100
0000
,
1000
0000
0100
0010
0000
0001
0100
0000
0010
0000
1000
0001
M200
0310
1000
0000
,
0001
0000
0010
0100
20M0
3001
0100
0000
0020
0000
0000
0000
1030
0100
1000
0001
,
0100
0010
0100
0001
1000
0010
1000
0100
0010
0001
0100
0001
1000
0010
0100
0001
,
1000
0000
0100
0000
0010
0000
0001
0000
1000
0000
0010
0000
1000
0000
0001
0000
0100
0000
0010
0000
0100
0000
0001
0000
1000
0100
0010
0001
1000
0100
1000
0010
,
0100
0001
0100
0010
1000
0001
1000
0100
0010
0001
1000
0010
0100
0010
1000
0001
0100
0001
1000
0010
0100
0010
1000
0001
0400
0000
0000
0000
0000
0000
0300
0000
,
0020
0030
0200
0000
0000
0000
0000
0000
0302
0000
0000
0000
1003
0000
0100
0000
,
0010
0001
1000
0010
0100
0010
1000
0001
,
0100
0001
1000
0010
0100
0001
0100
0010
,
1000
0100
1000
0001
0100
0001
0010
0100
,
1000
0000
0001
0000
0100
0010
0100
0001
1000
0000
0010
0000
0100
0000
0001
0000
,
1000
0100
1000
0001
0010
0001
0100
0010
,
1000
0001
1000
0010
0100
0001
0100
0010
,
1000
0000
0001
0000
1000
0100
0010
0000
0001
0000
1000
0000
0010
0000
0100
0000
,
0001
0000
1000
0000
0010
0100
0010
0000
1000
0001
1000
0000
0100
0000
0010
0000
,
0001
1000
0010
0100
0001
0100
0010
1000
,
0100
1000
0001
0010
0100
1000
0100
0010
,
0001
1000
0010
0100
0001
0100
0010
1000
,
0001
0000
0100
0000
0010
1000
0001
0100
0001
0000
0010
0000
0100
0000
1000
0000
,
0001
0000
0100
0000
0010
0000
0100
0000
0001
0000
1000
0000
0010
0100
0001
0000
,
1000
0000
0100
0000
0010
0000
0001
0000
1000
0010
1000
0001
0100
0000
0010
0000
,
1000
0001
0100
0010
0100
0001
1000
0100
,
0010
0001
0100
0010
2000
0000
3001
0100
,
0010
0000
0100
0000
0001
0000
1000
0000
0010
0000
0100
0001
0100
0000
0010
0000
,
1000
0000
0001
0000
0100
0000
0010
1000
0010
0000
1000
0001
1000
0000
0100
0000
,
0010
0000
0001
0000
1000
0000
0010
0000
0100
0000
0001
1000
0001
0000
0010
0000
,
0100
1000
0100
0000
0010
0000
0001
0000
0200
0000
0000
0000
0310
0000
1000
0000
,
0100
0000
1000
0000
0001
0000
0010
0000
0001
0000
1000
0010
1000
0000
0100
0000
,
0010
0000
0001
0000
0100
0000
0010
1000
0010
0000
1000
0001
1000
0000
0010
0100
,
0010
0000
1000
0100
1000
0000
0001
0100
0001
0000
1000
0010
1000
0000
0100
0000
,
0010
0001
0010
0000
0100
0000
1000
0000
0020
0000
0000
0000
1030
0100
1000
0001
,
0100
0000
0010
1000
0010
0000
0100
0000
0001
1000
0100
1000
0010
0100
0001
1000
,
0001
0000
0010
0000
0100
0000
1000
0000
0001
0000
0100
0000
0010
1000
0010
0100
,
0001
0000
1000
0001
0100
0010
0100
0000
0001
1000
0010
0100
0010
0000
1000
0000
,
0001
0010
0100
1000
0002
0000
0103
0010
,
1000
0001
0100
0010
0100
0001
1000
0100
1000
0010
0100
0001
1000
0001
0010
0100
,
1000
0001
0010
0001
0100
0010
0100
0001
1000
0010
0100
0010
2000
0000
0000
0000
,
0000
3002
0000
0023
,
0000
0000
0000
0000
0130
0000
0000
0000
1000
0000
0001
0000
1000
0100
0010
0000
,
0001
0000
0100
0010
0000
1000
0010
0000
0100
0000
0001
1000
0000
0001
0100
0000
,
0010
0000
1000
0100
0000
0010
0001
0000
1000
0000
0100
1000
0000
0010
0100
0000
,
0001
0000
1000
0010
0000
0100
0001
0000
1000
0000
0100
0010
0000
0001
0100
0000
,
0010
0000
1000
0001
0000
1000
0100
0000
0010
0001
1000
0001
0100
0010
1000
0000
,
0001
0000
0010
0100
0000
1000
0100
0000
0010
0000
0001
1000
0000
0001
0100
0000
,
0010
0000
1000
0100
0000
1000
0010
0000
0100
0000
0001
0010
0000
0100
1000
0000
,
0001
0000
0100
0010
0000
1000
0010
0000
0100
0000
0001
1000
0000
0001
0100
0000
,
0010
0000
0100
0001
0000
1000
0100
0000
0010
0000
0001
1000
0001
0010
0100
0000
,
1000
0000
0010
0000
0000
0100
0001
0000
1000
0000
0100
0000
0000
0010
0001
0000
,
1000
0000
0010
0000
0000
0100
0001
0000
1000
0000
0100
0000
0000
0010
0001
0000
,
1000
0000
0010
0000
0000
0100
0001
0000
1000
0000
0010
0000
0000
1000
0001
0000
,
0100
0000
0010
0000
0000
1000
0100
0000
0010
0000
0001
0000
1000
0000
0010
0000
,
0100
0001
0000
0000
0000
0000
1000
0100
,
0010
0001
1000
0010
0100
0000
0001
0010
,
0001
1000
0000
0000
0000
0000
0010
0100
,
0010
0000
2000
0000
0000
0000
0000
0000
0000
0000
0000
0000
3001
000M
0000
0000
,
0000
0000
0000
0000
,
0000
0000
0000
0000
,
0000
0000
0000
0000
,
0000
0000
0000
0000
,
0000
0000
0000
0000
;
