#TITLE:Yakitate!! Japan;
#SUBTITLE:- Yakitate!! Japan;
#ARTIST:岩崎琢;
#TITLETRANSLIT:;
#SUBTITLETRANSLIT:;
#ARTISTTRANSLIT:Taku Iwasaki;
#CREDIT:;
#BANNER:Yakitate!! Japan.png;
#BACKGROUND:Yakitate!! Japan-bg.jpg;
#LYRICSPATH:;
#CDTITLE:Dj DMA Otaku Original.png;
#MUSIC:Yakitate!! Japan.mp3;
#OFFSET:0.096;
#SAMPLESTART:55.679;
#SAMPLELENGTH:12.000;
#SELECTABLE:YES;
#BPMS:0.000=107.760;
#STOPS:;
#BGCHANGES:;
// cache tags:
#FIRSTBEAT:3.000;
#LASTBEAT:237.000;
#SONGFILENAME:Songs/Otaku's Dream 1st Anime Mix/DJ DMAxel - Yakitate!! Japan/Yakitate!! Japan.sm;
#HASMUSIC:1;
#HASBANNER:1;
#MUSICLENGTH:137.409;
// end cache tags

//---------------dance-single - ----------------
#NOTES:
     dance-single:
     :
     Challenge:
     7:
     0.355,0.388,0.007,0.000,0.648,340.000,1.000,0.000,0.000,0.000:
0000
0000
0000
0000
0000
0000
0000
0000
0000
0000
0000
0000
0100
0010
0000
0000
,
0000
0000
0000
0000
0000
0000
0000
0000
0001
1000
0000
0000
0000
0000
0000
0000
,
0000
0000
0000
0000
0000
0000
1000
0000
0010
0000
0100
0000
0000
0001
0000
0010
,
0000
0000
0000
0000
0000
0000
0001
0010
0000
0100
1000
0000
0000
0000
0001
0100
,
1000
0010
0001
0000
0000
1000
0000
0000
0000
1000
0010
1000
0010
0000
0010
0000
,
0000
0000
0010
0000
0000
0000
0100
0010
0100
0010
0001
0000
0000
0010
1000
0000
,
0010
0000
1000
0000
0001
0000
0100
0000
1000
0000
0000
0000
0000
0000
1000
0001
,
1000
0001
1000
0100
0000
0000
0010
0000
0000
0000
0100
0010
0100
0010
0000
0001
,
0000
0010
0000
1000
0000
0000
0000
0001
0000
1000
0000
0010
0000
0000
0000
1000
,
0000
0000
0000
1000
0000
0010
0000
0100
0000
0000
0000
0001
0000
0010
0000
0000
,
0001
0010
0000
0100
0000
0000
1000
0000
0000
0010
0000
0000
0000
0000
1000
0000
,
0000
0010
0000
0000
1000
0000
0010
0000
0100
0000
0001
0000
0010
0000
0000
0010
,
0001
0000
0010
0000
0000
0000
0010
0000
0000
0000
0000
0010
0000
1000
0000
0000
,
0000
0000
0000
0000
0000
0000
0100
0000
0010
0000
0100
0000
0001
0000
0000
1000
,
0010
0000
0000
0000
0001
0000
0000
0100
1000
0000
0010
0000
0000
1000
0000
0000
,
1000
0000
0010
0000
0100
0000
0001
0000
0000
0010
0001
0000
0010
0000
0100
0010
,
0000
0001
0100
1000
0010
1000
0100
0000
0000
0010
0000
0000
1000
0000
0010
1000
,
0000
0010
0000
0000
0000
0100
0000
0000
0000
0100
0010
0100
0010
0001
0010
0000
,
0000
0010
0000
1000
0000
0010
0000
1000
0000
0010
0000
0100
0000
0000
0000
0000
,
0000
0100
0001
0100
0001
1000
0010
0000
0000
0001
0000
0000
0000
0001
0000
0010
,
0100
1000
0010
0000
1000
0000
0010
0000
0000
0000
1000
0000
0010
0000
0001
0000
,
0000
0001
0000
0010
0001
0010
0000
0100
,
0000
0100
0000
0000
1000
0000
0000
0000
0010
0000
0000
1000
0000
0010
0000
0000
,
0000
0000
0100
0000
0000
0000
0010
0001
0000
0010
0000
0100
0000
1000
0000
0010
,
0000
1000
0000
0010
0000
1000
0000
0000
0000
0000
0100
0000
0000
0000
0000
0010
,
0001
0010
0000
0000
1000
0010
1000
0010
1000
0000
0000
1000
0000
0000
0000
0100
,
0001
0100
0000
0001
0000
0000
0000
0001
0000
0010
0000
0000
0000
1000
0000
0010
,
0000
0000
0000
0001
0000
0010
0000
0000
0000
0000
0000
0000
0000
0000
0001
0000
,
0100
0000
1000
0000
0000
0000
0000
1000
0010
0000
0000
0000
0000
0100
0010
0000
,
0001
0000
0000
0010
0000
1000
0000
0000
0000
1000
0000
0001
0000
0000
0000
0001
,
0000
0010
0000
0000
0000
0000
0001
0000
0000
0010
0000
1000
0000
0010
0000
1000
,
0000
0000
0001
0000
1000
0000
0000
0000
1000
0010
0000
0000
0000
0000
1000
0000
,
0010
0000
0100
0010
0000
0000
0001
0000
0000
0010
0000
0001
0000
0000
0000
0000
,
0000
0010
0000
0000
0000
0000
0000
0001
0000
0000
0000
0000
0000
0100
0000
0000
,
0000
0000
0000
0001
0100
1000
0010
1000
,
0010
0000
0000
0000
0100
0000
0000
0000
0000
0000
0000
0000
0000
0010
0000
0000
,
0001
0000
0010
0000
0000
1000
0010
0000
0000
0001
0000
0000
0100
0000
0000
0000
,
1000
0000
0000
0000
0010
0000
1000
0000
0010
0000
1000
0000
0000
0010
0000
1000
,
0000
0000
0000
0000
0000
0100
0000
0000
0000
0001
0000
0010
0000
1000
0010
0000
,
0000
0000
0000
0000
0000
0000
0000
0000
0000
0001
0010
0000
0000
0000
0000
0000
,
0000
0000
0000
0000
0000
0000
0000
0100
0000
0000
0010
0000
1000
0000
0000
0001
,
0000
1000
0000
0000
0000
0000
0000
1000
0000
0010
0000
0100
0010
0000
0000
0001
,
0100
1000
0010
0001
0100
0000
0000
0010
0000
0000
0000
0010
0000
0001
0000
0010
,
0000
0000
0000
0100
0000
0000
0000
0000
0100
0001
0100
0001
0100
0000
0000
1000
,
0000
0010
1000
0010
0100
0010
0000
0000
,
1000
0010
1000
0010
1000
0000
0000
0000
0100
0000
0000
0000
0100
0010
0100
0010
,
0100
0010
0000
0000
0000
0001
0000
0000
0000
0010
1000
0100
1000
0001
0000
0100
,
0000
0010
0000
0001
0000
0000
0000
0010
0000
0100
0000
0010
0000
0000
0000
0010
,
0000
0000
0000
0001
0000
0010
0000
1000
0000
0000
0000
0100
0000
0000
0000
0010
,
0000
0000
0000
0000
0000
1000
0000
0000
0010
0000
0100
0000
0001
0000
0000
0000
,
0010
0000
0000
0000
0001
0000
0100
0000
0010
0000
0000
0000
0001
0000
0000
0010
,
0000
0000
0000
0000
0000
0000
1000
0000
0010
0000
0100
0000
0001
0000
0000
0010
,
0000
0000
0000
0000
1000
0000
0000
0000
0000
0000
0000
0000
0000
0010
0000
0000
,
0000
1000
0000
0100
0000
0010
0000
0000
0000
0000
0000
0000
0000
0001
0000
0000
,
0000
0000
0000
0000
0000
1000
0000
0000
0000
0000
0000
0000
0000
0010
0000
0000
,
0000
0010
0000
1000
0000
0100
0000
0000
0000
0000
0000
0000
0000
0001
0000
0000
,
0000
0100
0000
0000
1000
0010
0000
0000
0000
0000
0000
0000
0000
0000
0001
0000
,
0100
0000
0000
1000
0000
0010
0000
0000
0000
0000
0000
0000
0000
0100
0000
0000
,
0010
0000
0000
0001
0000
0000
1000
0000
0000
0000
0000
0000
0000
0000
0000
0000
,
0000
1001
0000
0000
;

//---------------dance-single - ----------------
#NOTES:
     dance-single:
     :
     Hard:
     6:
     0.298,0.410,0.007,0.160,0.466,264.000,1.000,22.000,0.000,0.000:
0000
0000
0000
0000
,
0000
0000
0000
0000
,
0000
0000
0000
0000
,
0000
0000
0000
0000
0000
0100
0000
0000
0010
0000
0000
0000
0000
0001
0000
0100
,
0000
1000
0000
0000
0000
0010
0000
0000
0000
0000
0001
0100
1000
0000
0010
0000
,
0000
0000
1000
0000
0000
0000
0000
1000
0000
0010
0000
0100
0000
0000
0010
0000
,
0000
0001
0000
0010
0000
0100
0000
0010
0000
0001
0000
0000
0000
0000
0001
0100
,
1000
0010
1000
0010
0000
0000
0000
0100
0000
0000
0000
0100
0010
0001
1000
0010
,
0000
0000
0001
0000
0010
0000
0000
1000
0000
0010
0000
0100
0000
0000
0000
0000
,
0010
0000
0000
0000
0010
0000
0001
0000
0010
0000
0000
1000
0000
0000
0002
0000
,
0000
0000
0000
0013
0100
2000
0000
0000
,
0000
0000
3000
0020
0000
0000
0000
0000
,
0030
0000
0200
0000
0000
0000
0000
0000
0000
0300
0000
0001
0010
0000
2000
0000
,
0000
0000
0000
0000
0000
3000
0000
0001
0000
0100
0000
0002
0000
0000
0000
0000
,
0000
0000
0003
0020
0000
0000
0000
0000
,
0000
0030
0000
2000
0000
0000
0000
0000
0000
0000
0000
0000
0000
3000
0000
0000
,
0100
0010
0001
0100
1000
0000
0010
0000
0000
0001
0000
0000
0000
1000
0100
0010
,
0001
0000
0010
0000
0000
1000
0000
0000
0000
0000
0001
0100
0010
0001
0010
0000
,
0010
0000
0100
1000
0010
0100
0010
0000
,
0000
0000
0001
0100
0010
0001
0100
0010
0000
0000
1000
0000
0000
0000
1000
0010
,
0100
0010
0100
0000
0001
0000
0010
0000
0000
0000
0100
0000
0000
0010
0000
0100
,
0000
0000
0000
1000
0000
0000
0000
1000
0000
0010
0000
0001
0000
0000
0010
0000
,
0000
2000
0000
0000
0000
0000
0000
0000
0000
3000
0010
0000
0200
0000
0000
0000
,
0000
0000
0000
0000
0000
0000
0000
0300
0000
0002
0000
0000
0000
0000
0000
0000
,
0010
0000
0000
0000
0003
2000
0000
0000
0000
0000
0000
0000
0000
0000
3000
0010
,
0000
0200
0000
0000
0000
0000
0000
0300
0002
0000
0000
0000
0003
0000
0000
0001
,
0100
0000
1000
0010
0000
0000
0001
0000
0000
2000
0000
0000
0000
0000
0000
0000
,
0020
0000
0000
0000
0000
3000
0030
0000
0000
0000
0000
0000
0000
0000
0100
0000
,
0001
0000
0000
0010
0000
0000
0000
0000
0001
0010
0000
0000
0000
0000
1000
0100
,
0000
0000
0010
0000
0001
0010
0000
0000
0000
0100
0000
0000
0010
0000
0000
0000
,
1000
0010
0000
0000
0000
0000
0000
0100
0000
0010
0000
0001
0000
0010
0000
1000
,
0000
0000
0000
0000
1000
0000
0000
0000
0000
0000
0010
0000
0000
0000
0000
0100
,
0000
0001
0000
0010
0000
0001
0000
0100
0000
0000
0000
0010
0001
0000
0000
0000
,
0000
0010
0000
0000
0000
0000
0000
0000
0100
0000
0000
0000
0000
0000
0010
0000
,
0000
0000
0100
0010
0001
0100
0000
0010
,
1000
0000
0000
0000
0000
1000
0000
0010
0000
0000
0000
0000
0000
0010
0000
0100
,
0000
0010
0000
0001
0000
0000
0000
0010
0000
1000
0000
0000
0010
0000
0000
0000
,
0100
0000
0000
0000
0010
0000
0000
0000
0001
0000
0000
1000
0000
0010
0000
1000
,
0000
0010
0000
0000
0100
0000
0000
0010
0000
0000
0001
0000
0000
0000
0100
0010
,
0000
0000
0000
0000
0000
0000
0000
0000
0000
1000
0001
0000
0000
0000
0000
0000
,
0000
0000
0000
0000
0010
0100
1000
0000
,
0010
0000
1000
0000
0000
0000
0000
1000
0000
0000
0000
0000
0010
0000
0000
0000
,
0100
0000
0001
0000
0010
0000
0000
0000
1000
0000
0000
0000
0001
0100
1000
0000
,
0010
0000
0000
0000
1000
0000
0000
0000
0000
1000
0000
0010
0000
0100
0000
0000
,
0000
0010
0000
0001
0000
0010
0000
0100
0000
0010
0000
0001
0000
0000
0000
0000
,
0001
0100
1000
0010
0001
0000
0010
0000
0000
0010
0000
0000
0000
1000
0010
0001
,
0010
0100
0000
0000
0000
0100
0000
0000
0000
1000
0000
0010
0000
0100
0000
0000
,
0000
0010
0100
0000
0000
0000
0000
0000
0000
0000
0000
0000
0000
0000
0000
0000
,
0000
0000
1000
0000
0010
0000
0100
0000
0010
0000
0000
0000
0001
0000
0000
0010
,
0000
0000
0000
0000
0000
0001
0000
0000
0100
0000
1000
0000
0010
0000
0000
0000
,
0000
0000
1000
0000
0010
0000
0100
0000
0001
0000
0000
0000
0010
0000
0000
1000
,
0000
0000
0000
0001
0100
0010
1000
0000
,
0000
0010
0100
0000
0000
0000
0000
0001
,
0100
0000
0000
1000
0000
0002
0000
0000
0000
0000
0000
0000
0003
2000
0000
0000
,
0000
0000
0000
0000
3000
0020
0000
0000
0000
0000
0000
0000
0030
0000
0000
0000
,
0100
0001
0000
0010
0000
0000
2000
0000
0000
0000
0000
0000
3000
0200
0000
0000
,
0000
0000
0000
0300
0000
0002
0000
0000
0000
0000
0000
0003
0000
0000
0010
0000
,
0100
0000
0000
1000
0000
0000
0010
0000
0000
0000
0000
0000
0000
0001
0000
0000
,
0000
0010
0000
1000
0000
0001
0000
0000
0000
0000
0000
0000
0000
0000
0000
0000
,
0000
1001
0000
0000
;

//---------------dance-single - ----------------
#NOTES:
     dance-single:
     :
     Medium:
     5:
     0.203,0.259,0.015,0.000,0.342,193.000,2.000,0.000,0.000,0.000:
0000
0000
0000
0000
,
0000
0000
0000
0000
,
0000
0000
0000
0000
,
0000
0000
0000
0000
0000
0000
0000
0000
0000
0000
0000
0000
0000
0100
0000
0010
,
0000
0000
1000
0000
0000
0000
0001
0000
0000
0000
0010
0000
0000
1000
0000
0010
,
0000
0000
0100
0000
0000
0000
0000
0010
0000
0001
0000
0010
0000
0000
0000
0000
,
1000
0000
0000
0000
0000
0000
0001
0000
0010
0000
0000
0000
0000
0000
0000
0100
,
0000
0010
0000
1000
0000
0000
0000
0001
0000
0000
0000
0000
0100
0000
0010
0000
,
0001
0000
0010
0000
0000
0000
0000
1000
0000
0010
0000
1000
0000
0000
0000
0000
,
0100
0000
0000
0001
0000
0010
0000
0000
0100
0000
0000
0010
0000
0000
0001
0000
,
0000
0000
0000
1000
0010
0100
0000
0000
,
0000
0000
0000
0000
0000
0000
0010
0000
0000
0000
0000
0000
0000
0001
0000
0000
,
0000
0000
0000
1000
0000
0000
0000
0000
0000
0000
0000
0000
0000
0000
0001
0000
,
0000
0000
0000
0000
0000
0000
0000
0010
0000
0001
0000
0100
0000
1000
0000
0010
,
0000
1000
0000
0000
0000
0000
0000
1000
0000
0000
0000
0000
0000
0010
0000
0000
,
0000
0000
0000
0010
0000
0000
0000
0000
0000
0000
0001
0000
0000
0000
0000
0010
,
0000
0000
0000
0000
0000
0000
0000
0000
0000
0000
0000
0000
0000
0100
0000
0010
,
0000
0001
0000
0000
0000
0010
0000
0000
0000
0000
1000
0000
0010
0000
1000
0000
,
0000
0001
0010
0100
0010
0001
0010
0000
,
0000
1000
0010
1000
0000
0100
0000
1000
,
0001
0000
1000
0000
0010
0000
1000
0000
0000
0000
1000
0000
0000
0000
0000
0010
,
0000
0000
0000
0000
0000
0000
0100
0000
0000
0010
0000
0001
0000
0000
0010
0000
,
0000
1000
0000
0000
0000
0000
0000
0000
0000
0000
0100
0000
0010
0000
0001
0000
,
0000
0000
0000
0000
0000
0000
0000
0000
0000
0010
0000
0000
0000
0000
0000
1000
,
0000
0000
0000
0010
0000
0000
0000
0000
,
0000
0001
0000
0000
0000
0000
0010
0000
0000
1000
0000
0000
0100
0000
0000
0000
,
0001
0000
0010
0000
1000
0000
0000
0010
0000
0000
1000
0000
0000
0000
0000
0100
,
0000
0000
0000
0001
0000
0000
0000
0000
,
0000
0000
0000
0000
0000
1000
0000
0000
0000
0000
0000
0000
0000
0010
0000
0000
,
0000
0000
0000
0000
0000
0100
0000
0000
0000
0000
0000
0000
0001
0000
0000
0000
,
0000
0010
0000
0000
0000
0000
0000
1000
0000
0000
0000
0000
0000
0010
0000
0000
,
0000
0000
0000
0100
0000
0000
0000
0000
0000
0001
0000
0000
0000
0000
0000
1000
,
0000
0000
0000
0000
0000
0010
0000
0000
0000
0000
0000
0000
0100
0000
0000
0000
,
0000
0000
0010
0000
0000
0000
0000
0001
0000
0000
0000
0000
0000
0000
1000
0000
,
0000
0000
0100
0000
0000
0001
0000
0000
,
0000
1000
0000
0000
0000
0000
0000
0010
0000
0000
0000
0000
0000
1000
0000
0000
,
0000
0000
0000
0010
0000
0000
0000
0000
0000
0100
0000
0000
0000
0001
0000
0000
,
0010
0000
0000
0000
1000
0000
0000
0000
0000
0000
0000
0010
0000
0000
0000
0000
,
0000
0000
0001
0000
0000
0000
0000
0000
1000
0000
0000
0000
0000
0000
0100
0010
,
0000
0000
0000
0000
0000
0000
0000
0000
0000
0000
0001
1000
0000
0000
0000
0000
,
0000
0000
0000
0000
0000
0000
0000
0010
0000
1000
0000
0000
0001
0000
0000
0010
,
0000
0000
0100
0000
0000
0000
1000
0000
0000
0000
0000
0010
0000
0000
0000
0000
,
0100
0001
0010
0000
1000
0000
1000
0010
,
1000
0000
0000
0000
0010
0000
0000
0000
0100
0000
0010
0000
0001
0000
0000
0010
,
0000
0000
1000
0000
0000
0010
0000
0100
0000
0010
0000
1000
0000
0000
0000
0000
,
0010
0000
0000
0001
0000
0010
0000
0000
0100
0000
0000
0000
0010
0000
0000
1000
,
0000
0010
0000
1000
0000
0000
0000
0000
0000
0100
0000
0001
0000
0010
0000
0000
,
0000
1000
0000
0000
0010
0000
0000
0000
0000
0100
0000
0000
0000
0000
0000
0000
,
0010
0000
0000
0000
0000
0000
0000
0000
0000
0000
0000
0010
0000
0000
0000
0101
,
0000
0000
0000
0000
1000
0000
0000
0000
0000
0000
0000
0010
0000
0000
0000
0000
,
0000
1000
0000
0000
0000
0000
0000
0010
0000
1000
0000
0000
0010
0000
0000
0100
,
0000
0000
0000
0000
0001
0000
0000
0000
0000
0000
0000
0010
0000
0000
0000
0000
,
0000
0000
1000
0000
0000
0000
0000
0000
0000
0010
0000
0000
0000
0000
0000
0000
,
0000
0100
0000
0000
0000
0000
0000
0000
0001
0000
0000
0000
0000
0000
0000
0000
,
0000
0010
0000
0000
0000
0000
0000
0000
,
0000
0001
0000
0000
,
0000
0000
0000
1000
0000
0000
0000
0100
,
0000
0010
0000
0000
0001
0000
1000
0000
0000
0000
0000
0000
0000
0000
0100
0000
,
0000
0010
0000
0000
0001
0000
1000
0000
0000
0000
0000
0000
0000
0000
0000
0000
,
0000
1001
0000
0000
;

//---------------dance-single - ----------------
#NOTES:
     dance-single:
     :
     Easy:
     3:
     0.161,0.280,0.051,0.058,0.000,140.000,7.000,8.000,0.000,0.000:
0000
0000
0000
0000
,
0000
0000
0000
0000
,
0000
0000
0000
0000
,
0000
0000
0000
0000
0000
0000
0000
1010
,
0000
0001
0010
0000
0000
1000
0010
1000
,
0000
0100
0000
0010
0001
0010
0000
0000
,
0000
1010
1000
0000
0110
0000
0000
0010
,
0001
0010
0000
1000
0000
1000
0010
1000
,
0010
0100
0000
0010
0001
0000
0010
0000
,
0100
0000
0010
0001
0010
0000
1000
0010
,
0000
0000
0000
0000
,
0000
0000
0000
0100
0000
0000
0000
0000
,
0000
0000
0000
0000
0000
0000
0000
0001
,
0000
0000
0000
0000
,
0000
0000
0000
1000
0000
0000
0000
0000
,
0000
0000
0000
0000
0000
1100
0000
0000
,
0010
0000
0000
0000
0000
0000
0000
0010
,
0001
0100
0000
1000
0000
1000
0010
1000
,
0010
0000
0100
0010
0001
0010
1000
0000
,
1000
0000
0100
0010
0000
0001
0000
0010
,
0001
0100
1000
0010
0000
1000
0010
1000
,
0000
0010
0000
0100
0010
0001
0000
0010
,
0100
0000
0000
0001
,
0000
0000
0000
0000
0000
1000
0000
0000
,
0000
0000
0000
0010
0000
0000
0000
0000
,
0000
0100
0000
0000
0000
0000
0000
0000
,
0001
0000
0000
0000
0000
0010
0000
0000
,
0100
0000
0000
0001
0000
0000
0000
1000
,
0100
0010
0000
0000
0000
0010
0000
0000
,
0100
0001
0000
1000
,
0000
0010
0000
0100
0000
0000
0001
0000
,
0000
0000
1000
0000
0000
0001
0000
1000
,
0000
0000
0000
0010
0000
0000
0100
0000
,
0000
0001
0000
0000
1000
0000
0000
0010
,
0000
0100
0000
0000
,
0001
0000
0000
0000
0000
0000
0000
1000
,
0000
0000
0000
0000
0000
0100
0000
0000
,
0010
0000
0002
0000
,
1003
0000
0000
0000
0000
0000
0000
0100
,
0000
0000
0000
0000
0000
0010
0000
0000
,
0000
0000
2002
0000
,
0000
3003
0000
0000
0000
0000
0000
1000
,
0000
0010
0000
0100
,
0001
0000
0100
0000
0010
1000
0010
0000
,
0100
0010
1000
0010
0100
0010
0000
0000
,
0001
0100
1000
0000
0010
0000
1000
0100
,
0010
0001
0000
0000
0010
0001
0000
0000
,
1000
0010
0000
0000
0010
0000
0000
0000
,
0200
0000
0000
0000
,
0300
0000
0000
0002
0000
0000
0000
0000
,
0000
0003
0000
0000
,
0000
0020
0000
0000
,
0000
0000
0030
0000
,
0000
2000
0000
0000
,
0000
0000
0000
0000
,
0000
0000
0000
0002
0000
0000
0000
0000
,
0000
0000
0000
3003
0000
0000
0000
0100
,
0000
0000
0000
0010
0000
0000
0000
0100
,
0000
0000
0000
0011
0000
0000
0000
0000
,
0000
1100
0000
0000
;
