#TITLE:Last Battle;
#SUBTITLE:Final Fantasy 4;
#ARTIST:S.S.H.;
#TITLETRANSLIT:;
#SUBTITLETRANSLIT:;
#ARTISTTRANSLIT:;
#CREDIT:;
#BANNER:Last Battle.png;
#BACKGROUND:Last Battle-bg.png;
#LYRICSPATH:;
#CDTITLE:!macTitle.png;
#MUSIC:Last Battle.MP3;
#OFFSET:-0.240;
#SAMPLESTART:98.753;
#SAMPLELENGTH:12.000;
#SELECTABLE:YES;
#BPMS:0.000=98.000,16.000=196.000;
#STOPS:;
#BGCHANGES:;
// cache tags:
#FIRSTBEAT:16.000;
#LASTBEAT:518.000;
#SONGFILENAME:Songs/VGMP 2/Last Battle (MacGravel)/Last Battle.sm;
#HASMUSIC:1;
#HASBANNER:1;
#MUSICLENGTH:166.424;
// end cache tags

//---------------dance-single - Blank----------------
#NOTES:
     dance-single:
     Blank:
     Hard:
     11:
     1.000,1.000,1.000,1.000,0.583,1178.000,269.000,250.000,0.000,85.000:

0000
0000
0000
0000
,
0000
0000
0000
0000
,
0000
0000
0000
0000
,
0000
0000
0000
0000
,
1000
1000
0101
0001
0010
0010
1001
0001
,
0100
0000
0100
0000
1001
0000
1000
0000
0010
0100
0010
0000
1001
0000
0001
0000
,
1000
1000
0110
0010
0100
0100
1001
1000
,
0001
0010
0001
0010
0100
1000
0100
1000
0010
0100
0010
0100
0001
1000
0001
1000
,
0010
0010
0101
0100
0001
0001
0110
0010
,
1000
0000
1000
0000
0110
0000
0010
0000
0100
0001
0100
0000
0011
0000
0001
0000
,
0100
0100
1010
0010
1000
1000
0101
0001
,
0010
0100
0010
0100
1000
0001
1000
0001
0100
0010
0100
0010
1000
0001
1000
0001
,
2010
0010
0001
0001
3120
0100
1032
1000
,
0213
0010
2301
0001
3120
0100
1032
1000
,
0213
0010
0001
0001
1320
1000
0132
0100
,
1023
1000
0100
0100
1030
1200
0321
0231
,
1320
1000
0100
0100
1030
1200
0321
2031
,
3120
0100
1000
1000
0231
0001
0010
0010
,
1300
0001
1000
0001
1000
0001
1000
0001
0210
0000
0010
0000
0001
0000
0000
0000
,
0010
0010
0001
0010
0001
0010
0001
0310
,
0001
0010
0001
0010
1001
0000
1000
0000
0001
0000
0001
0000
0110
0000
0100
0000
,
0010
0000
0010
0000
1001
0000
1000
0000
0010
0100
0010
0000
1001
0000
1000
0000
,
0001
0001
1010
0010
0100
0100
0011
0001
,
1000
0010
1000
0010
0100
0001
0100
0001
1000
0100
1000
0100
0010
0001
0010
0001
,
0100
0100
1010
0010
1000
1000
0110
0100
,
0001
0000
0001
0000
1010
0000
1000
0000
0010
0100
0010
0000
1001
0000
0001
0000
,
0010
0010
0101
0100
1000
1000
0110
0100
,
0001
0010
0001
0010
0100
1000
0100
1000
0010
0100
0010
0100
0001
1000
0001
1000
,
0120
1000
0100
1000
0132
0010
1000
0100
,
1023
0100
1000
0100
2031
0001
0100
0010
,
3102
0010
0100
1000
0010
0100
1000
0103
,
0010
0100
0010
0000
1000
0000
0100
0010
0100
0000
1000
0000
0010
0100
0010
0000
,
2100
0001
0100
0010
3102
0010
1000
0010
,
1203
0010
0001
0010
1302
1000
0010
0100
,
2013
0010
0010
0100
0100
0100
0001
0001
,
0001
0010
0010
0010
0001
0001
0100
0100
,
3012
0100
1000
0010
2103
0010
0001
0100
,
3012
0100
1000
0010
1203
0010
1000
0010
,
1302
1000
1000
0100
0100
0100
0010
0010
,
0010
1000
1000
1000
0010
0010
0010
0010
,
1203
1000
1000
1000
1320
1000
1000
1000
,
1032
0000
1000
0000
1000
0000
1000
0000
1023
0000
1000
0000
2030
3200
2300
3020
,
0232
0303
0120
0030
2100
3000
0102
0003
0120
0030
0100
0000
0102
0003
0100
0000
,
0120
0030
0100
0000
2100
3000
0102
0003
0100
0000
0120
0030
0102
0003
0120
0030
,
2001
0001
0001
0001
3201
0001
0001
0001
,
0321
0000
0001
0000
0001
0000
0001
0000
0231
0000
0001
0000
0302
0023
0032
2003
,
3220
0330
0102
0003
2100
3000
0120
0030
0102
0003
0100
0000
0120
0030
0100
0000
,
2100
3000
0100
0000
0120
0030
0102
0003
0100
0000
0120
0030
2100
3000
0102
0003
,
2010
0010
0010
0010
3210
0010
0010
0010
,
0312
0000
0010
0000
0010
0000
0010
0000
2013
0000
0010
0000
3020
0230
0320
2030
,
3102
0003
0021
0030
2001
3000
0201
0300
0021
0030
0001
0000
2001
3000
0201
0000
,
0001
0000
0001
0000
0001
0000
0001
0000
0001
0000
0001
0000
0320
2030
3002
0203
,
1320
0030
0210
0300
2010
3000
0012
0003
0210
0300
0010
0000
2010
3000
0210
0000
,
0010
0000
0000
0010
0000
0000
0010
0000
0000
0010
0000
0000
0010
0000
0000
0310
0000
0000
0100
0000
0010
0000
0100
0000
,
0002
2000
3200
0320
,
2033
0000
3001
0010
0100
1000
0010
0100
0001
1000
0010
0100
0010
1000
0100
0010
,
2001
3001
0011
0001
0201
0301
1001
0001
,
0021
0031
2001
3001
0210
0310
0011
0010
,
2010
3010
0110
0010
0210
0310
2010
3010
,
0201
0301
1001
0001
0021
0031
0101
0001
,
0201
0301
0021
0031
2010
3010
0110
0010
,
0012
0013
1010
0010
0210
0310
2010
3010
,
1002
0000
0000
0003
0000
0000
1000
0000
0100
0000
0010
0000
2001
0000
0000
3000
0000
0000
0210
0000
0000
0300
0000
0000
,
0001
0000
0000
0000
0010
0000
0000
0000
0100
0000
0000
0000
1002
0000
0000
0000
0000
0000
0003
0000
0000
0000
0000
0000
1020
0000
0000
0000
0000
0000
0030
0000
0000
0000
0000
0000
1000
0000
0000
0100
0000
0000
0010
0000
0000
0000
0000
0000
,
0201
0000
0300
0000
0001
0010
0100
0000
2001
0000
0001
0000
0001
0000
0001
0000
,
3201
0001
0001
0001
0321
0001
0001
0001
,
0231
0001
0001
0001
2310
0001
0100
0010
,
0100
0000
0001
0000
0010
0000
0100
0000
3001
0000
0100
0010
0100
0000
0001
0000
,
0010
0100
0010
0000
0001
0000
0100
0010
0102
0000
1000
0000
0010
0000
0100
0000
,
2013
0100
0001
0100
3021
0100
1000
0100
,
2031
0001
0100
0010
3102
0100
0100
0010
,
0010
0010
1000
1000
1000
0100
0100
0100
,
1000
1000
0010
0010
2103
0010
0001
0100
,
3012
0100
1000
0010
2103
0010
0001
0100
,
3021
0100
0001
0100
2031
0001
0001
0010
,
0010
0010
0100
0100
0100
0001
0001
0001
,
0100
0100
0100
0100
3021
0001
0001
0001
,
0231
0001
0001
0001
2301
0001
0001
0001
,
3201
0000
0001
0000
0302
0023
0032
0203
2320
3030
0210
0300
0012
0003
2010
3000
,
0210
0300
0010
0000
2010
3000
0010
0000
0210
0300
0010
0000
0012
0003
2010
3000
,
0010
0000
0210
0300
2010
3000
0210
0300
1002
0000
1000
0000
1000
0000
1000
0000
,
1023
1000
1000
1000
1230
1000
1000
1000
,
1320
0000
1000
0000
2030
3200
2300
3002
0223
0330
2010
3000
0012
0003
0210
0300
,
2010
3000
0010
0000
0210
0300
0010
0000
0012
0003
0010
0000
0210
0300
2010
3000
,
0010
0000
0210
0300
0012
0003
2010
3000
0102
0000
0100
0000
0100
0000
0100
0000
,
0123
0100
0100
0100
2130
0100
0100
0100
,
3102
0000
0100
0000
0203
0320
0230
0302
2013
3000
1200
0300
1002
0003
1020
0030
,
1200
0300
1000
0000
1002
0003
1020
0000
1000
0000
1000
0000
1000
0000
1000
0000
,
1000
0000
1000
0000
0230
0302
2003
3020
0231
0300
0120
0030
0102
0003
2100
3000
,
0120
0030
0100
0000
0102
0003
0120
0000
0100
0000
0100
0000
0100
0000
0100
0000
,
0100
0000
0000
0130
0000
0000
0010
0000
0100
0000
0010
0000
2000
0000
0000
0000
0000
0000
0002
0000
0000
0000
0000
0000
,
0023
0000
0230
0000
3312
0100
2013
0001
,
3102
0010
1203
0010
1302
1003
1100
1000
,
1020
1030
1001
1000
1200
1300
1002
1003
,
0120
0130
1100
0100
0102
0103
0110
0100
,
0120
0130
0102
0103
1020
1030
1001
1000
,
1200
1300
1010
1000
1020
1030
1200
1300
,
0102
0103
0110
0100
2100
3100
0101
0100
,
0120
0130
0102
0103
1020
1030
1200
1300
,
1020
1030
1002
1003
1020
1030
1200
1300
,
0001
0001
1010
1000
0100
0100
1001
1000
,
0010
0000
0010
0000
1001
0000
0001
0000
0100
0010
0100
0000
1001
0000
1000
0000
,
0001
0001
0110
0100
0010
0010
1001
0001
,
1000
0100
1000
0100
0010
0001
0010
0001
0100
0010
0100
0010
1000
0001
1000
0001
,
0100
0100
1010
0010
1000
1000
0110
0100
,
0001
0000
0001
0000
0110
0000
0100
0000
0010
1000
0010
0000
1100
0000
1000
0000
,
0010
0010
0101
0100
0001
0001
1010
1000
,
0100
0010
0100
0010
0001
1000
0001
1000
0010
0100
0010
0100
0001
1000
0001
1000
,
0001
0010
0100
0001
0010
0100
0001
0010
0100
0001
0010
0100
0001
0010
0100
0001
,
0010
0100
1000
0010
0100
1000
0010
0100
1000
0010
0100
1000
0010
0100
1000
0010
,
0100
0010
0001
0100
0010
0001
0100
0010
0001
0100
0010
0001
0100
0010
0001
0100
,
1000
0100
0010
1000
0100
0010
1000
0100
0010
1000
0100
0010
1000
0100
0010
1000
,
0001
0010
0100
0001
0010
0100
0001
0010
0100
0001
0010
0100
0001
0010
0100
0001
,
0010
0100
1000
0010
0100
1000
0010
0100
1000
0010
0100
1000
0010
0100
1000
0010
,
0100
0010
0001
1000
0010
0100
0001
0010
0100
1000
0010
0100
0001
1000
0010
0100
,
0010
1000
0100
0010
0001
0100
0001
0010
0100
1000
0010
0100
0001
1000
0010
0100
,
0001
0001
0110
0010
1000
1000
0110
0010
,
0100
0000
0100
0000
1001
0000
0001
0000
0100
0010
0100
0000
1001
0000
0001
0000
,
1000
1000
0101
0100
0010
0010
1100
1000
,
0001
0100
0001
0100
0010
1000
0010
1000
0001
0010
0001
0010
0100
1000
0100
1000
,
0010
0010
0101
0100
0001
0001
0110
0010
,
1000
0000
1000
0000
0101
0000
0001
0000
0100
0010
0100
0000
1001
0000
1000
0000
,
0100
0100
1010
0010
0001
0001
0110
0010
,
1000
0100
1000
0100
0010
0001
0010
0001
0100
0010
0100
0010
1000
0001
1000
0001
,
0210
0001
0010
0001
2310
0100
0001
0010
,
3201
0010
0001
0010
1302
1000
0010
0100
,
2013
0100
0010
0001
0100
0010
0001
3010
,
0100
0010
0100
0000
0001
0000
0010
0100
0010
0000
0001
0000
0100
0010
0100
0001
,
1000
0010
0100
0001
1000
0100
0010
0001
0100
0010
1000
0001
0100
0001
0010
0100
,
2000
0000
0000
0000
0000
0000
3100
0010
1001
0000
0000
0000
0000
0000
0000
0000
;
