#TITLE:V3;
#SUBTITLE:(O2 version);
#ARTIST:Beautiful Day;
#TITLETRANSLIT:;
#SUBTITLETRANSLIT:;
#ARTISTTRANSLIT:;
#CREDIT:;
#BANNER:V3 (O2 version).png;
#BACKGROUND:V3 (O2 version)-bg.png;
#LYRICSPATH:;
#CDTITLE:NVLM-cdtitle.png;
#MUSIC:V3 (O2 version).mp3;
#OFFSET:-6.670;
#SAMPLESTART:39.052;
#SAMPLELENGTH:12.000;
#SELECTABLE:YES;
#DISPLAYBPM:80.000:160.000;
#BPMS:0.000=80.000,28.000=160.000;
#STOPS:300.000=0.800
;
#BGCHANGES:;
// cache tags:
#FIRSTBEAT:0.000;
#LASTBEAT:403.500;
#SONGFILENAME:Songs/toune 1 (2010)/V3 (O2 version)/V3 (O2 version).sm;
#HASMUSIC:1;
#HASBANNER:1;
#MUSICLENGTH:171.894;
// end cache tags

//---------------dance-single - ----------------
#NOTES:
     dance-single:
     :
     Hard:
     9:
     0.523,0.643,0.570,0.227,0.108,492.000,98.000,39.000,0.000,0.000:
1000
0000
0010
0000
,
0100
0000
0001
0000
,
0010
0000
0100
0000
,
1000
0000
0001
0000
,
0100
0100
0000
0000
0010
0010
0000
0000
,
1000
1000
0000
0000
0100
0100
0000
0000
,
0010
0010
0000
0000
0000
0000
0000
0000
,
1000
0000
0100
0000
0010
0000
1000
0000
1000
0000
0000
0001
0000
0000
0001
0000
,
0010
0000
0100
0000
1000
0000
0010
0000
0100
0000
0000
0001
0000
0000
0001
0000
,
0010
0000
0100
0000
0001
0000
0100
0000
1000
0000
0000
1000
0000
0000
0010
0000
,
0100
0001
1100
0000
0110
0000
0011
0000
,
1001
0000
0000
0000
1000
0000
0000
0000
0100
0010
0000
0010
0000
0000
0001
0000
,
1000
0000
1000
0000
0100
0000
0000
0000
0001
1000
0000
1000
0000
0000
0010
0000
,
0100
0000
0001
0000
0010
0000
0100
0000
1000
0010
0000
0010
0000
0000
0001
0000
,
0010
0000
0100
0000
0000
1000
0100
0010
,
1002
0000
0000
0013
0200
0000
0000
1300
,
0020
0000
0000
0000
0130
0001
1000
0100
,
0010
0001
1000
0010
0101
0000
1001
0000
,
2200
0000
0000
0000
3300
0000
0001
1000
,
0200
0000
0000
0000
0310
0000
0001
0100
,
2000
0000
0000
0000
3010
0000
0100
0001
,
1010
0000
0001
0100
1100
0000
0010
0100
,
1001
0000
1100
0000
0110
0001
0010
0100
,
2001
0000
0000
3100
0020
0000
0000
0031
,
0200
0000
0000
0000
0310
1000
0001
0010
,
1000
0100
0010
0001
0101
0000
1100
0000
,
2020
0000
0000
0000
3030
0000
0001
0100
,
0020
0000
0000
0000
1030
0000
0100
0010
,
0002
0000
0000
0000
1003
0000
0010
0100
,
1001
0000
0100
0010
0011
0000
1000
0001
,
0101
0110
1010
0000
,
1000
0001
0100
1000
0100
0010
1000
0001
,
0010
0100
0001
0100
0010
0001
1000
0010
,
0100
0001
0001
0010
1000
0100
0010
0001
,
0100
0010
1000
0001
0020
0000
0000
0000
,
0130
1000
0001
0010
1000
0001
0100
0010
,
0001
0010
1000
0100
0001
0100
0010
1000
,
0001
0010
0100
1000
0010
0100
0001
0010
,
1100
0000
0000
1001
0000
0000
0101
0000
,
0110
0000
0000
0000
0000
0000
0000
1100
,
0101
0000
0000
0000
,
1001
0000
0000
0000
0000
0000
0000
1100
,
1010
0000
0000
0000
,
0101
0010
1000
0100
0001
0100
0010
0000
,
1100
0001
0100
1000
0010
0100
0001
0000
,
1100
0000
0000
1001
0000
0000
1010
0000
,
0000
0110
0000
0000
0101
0000
1001
0000
,
1100
0000
0000
0110
0000
0000
0011
0000
,
0000
0101
0000
0000
0110
0000
1010
0000
,
1100
0000
0100
0000
0010
0000
0001
0000
0100
0010
0000
1000
0000
0001
0100
0000
,
0001
0000
0010
0000
0100
0000
1000
0000
0010
0100
0000
0100
0000
0001
1000
0000
,
0100
0000
0010
0000
0001
0000
0001
0000
1000
0010
0000
1000
0000
0100
0010
0000
,
0001
0000
0100
0000
1000
0000
0100
0000
0010
1000
0000
1000
0000
0001
0100
0000
,
0001
0000
0010
0000
1000
0000
0010
0000
0001
0100
0000
0010
0000
0010
1000
0000
,
0100
0000
0010
0000
1000
0000
0001
0000
0010
0100
0000
0100
0000
1000
0001
0000
,
1000
0000
0100
0000
0010
0000
0001
0000
0100
1000
0000
1000
0000
0100
0010
0000
,
0001
0000
1000
0000
0010
0000
0100
0000
1000
0001
0000
0001
0000
0010
0100
0000
,
2100
0000
0000
0000
,
3002
0000
0000
0000
,
0203
0000
0000
0000
,
0320
0000
0000
0000
,
2030
0000
0000
0000
,
3200
0000
0000
0000
,
0320
0000
0000
0000
,
0032
0000
0000
0000
,
1003
0110
0001
1100
,
0010
1001
0100
0011
,
0001
1010
0100
0011
,
1000
0101
0010
1100
,
0001
1010
0100
0011
,
1000
0101
0010
1001
,
0100
0011
0001
1100
,
0010
1001
0100
0011
,
1000
0101
0010
1100
,
0001
0010
0001
0000
0100
1000
0100
0000
0001
0010
0001
0000
1000
0001
1000
0000
,
1001
0000
0000
0000
0000
1000
0100
0010
,
2001
0000
0000
3100
0020
0000
0000
0031
,
0200
0000
0000
0000
0310
1000
0001
0010
,
0110
1000
0001
0100
0110
0000
1010
0000
,
2200
0000
0000
0000
3300
0000
0010
0001
,
0200
0000
0000
0000
0310
0000
1000
0001
,
0020
0000
0000
0000
1030
0000
0100
0010
,
0011
1000
0100
0010
1001
1000
0010
0100
,
0011
0000
1001
0000
1100
0010
0001
0100
,
0120
0000
0000
1030
0002
0000
0000
0013
,
0200
0000
0000
0000
1300
0010
0100
0001
,
0010
0100
1000
0010
0011
0000
0101
0000
,
2200
0000
0000
0000
3300
0000
0010
0001
,
0200
0000
0000
0000
0310
0000
1000
0100
,
0002
0000
0000
0000
0013
0000
0100
1000
,
1001
0010
0100
1000
1010
0001
0100
0010
,
1001
1100
0010
1001
,
1000
0100
0001
0010
1000
0100
0010
1000
,
0001
0010
0110
0000
1000
0000
0011
0000
,
0100
0010
0001
0100
1000
0010
0001
0100
,
1001
0000
0100
0100
0011
0000
0001
0001
,
1100
0000
1000
1000
0110
0000
0001
0010
,
1100
1000
1001
0001
0011
0010
0110
0100
,
1100
1000
0001
0010
0100
0001
0100
0010
,
2002
0000
0000
0000
,
0000
3003
0110
0000
;

//---------------dance-single - ----------------
#NOTES:
     dance-single:
     :
     Challenge:
     10:
     0.731,0.821,0.768,0.454,0.343,669.000,132.000,78.000,0.000,0.000:
1000
1000
0100
0100
0010
0010
0001
0001
,
0100
0100
0010
0010
1000
1000
0001
0001
,
0010
0010
0100
0100
1000
1000
0010
0010
,
0001
0001
0100
0100
0010
0010
1000
1000
,
0101
0022
0033
0000
0110
2020
3030
0000
,
1100
2002
3003
0000
1100
0202
0303
0000
,
0011
0220
0000
0000
0000
0000
0330
0000
,
1001
0000
0001
0010
0100
0000
0010
0000
0001
1000
0000
1000
0000
0100
0010
0000
,
0001
0000
1000
0010
1000
0000
0100
0000
0010
0001
0000
0001
0000
1000
0010
0000
,
0100
0000
0001
0010
0001
0000
0010
0000
0100
1000
0000
1000
0000
0010
0100
0000
,
0100
0001
1001
0000
1100
0000
0110
0011
,
1001
0000
1000
0100
0010
0000
0010
0000
0001
1000
0000
1000
0000
0100
0010
0000
,
0100
0000
1000
0001
0010
0000
0001
0000
1000
0100
0000
1000
0000
1000
0001
0000
,
0100
0000
0010
1000
0010
0000
1000
0000
0100
0010
0000
0010
0000
0001
1000
0000
,
0010
0100
0000
0100
0001
0000
0010
0000
0000
0000
1001
0000
0100
0000
0010
0000
,
1002
0000
0000
0013
2000
0000
0000
3100
,
0020
0000
0000
0000
0000
0000
0000
0000
0130
0000
0001
0000
1000
0100
0010
0000
,
0100
1000
0010
0100
0101
0000
1001
0100
,
2020
0000
0000
0000
3030
0000
0001
1000
,
2200
0000
0000
0000
0000
0000
3300
0000
0010
0001
0000
0000
0001
0000
0100
0000
,
2002
0000
0000
0000
0000
0000
3003
0000
0010
0100
0000
0000
0100
0000
0001
0000
,
1010
0100
0001
0010
1100
0001
1000
0100
,
1001
0010
1100
0000
0110
0001
0010
0100
,
2001
0000
0000
3100
0002
0000
0000
0013
,
0200
0000
0000
0000
0000
0000
0000
0000
1300
0000
0010
0000
0001
0010
0100
0000
,
1000
0100
0010
0001
1100
0010
1001
1000
,
0220
0000
0000
0000
0330
0000
0001
0010
,
2200
0000
0000
0000
0000
0000
3300
0000
0010
0100
0000
0000
0100
0000
0010
0000
,
0022
0000
0000
0000
0000
0000
0033
0000
1000
0010
0000
0000
0010
0000
0100
0000
,
1001
0010
0100
0010
1100
0001
0010
0100
,
1010
1000
0101
0000
1100
1000
0001
0100
,
1010
0000
0010
0000
0100
0000
0001
0000
0001
0000
1000
0000
0100
0010
0001
0000
,
1000
0000
0010
0000
0100
0000
1000
0000
0001
0000
0100
0000
0010
1000
0010
0000
,
1000
0000
0100
0000
0001
0000
0100
0000
0010
0000
1000
0000
0100
0010
0001
0000
,
0100
0000
0010
0000
1000
0000
0100
0000
0020
0002
0000
0000
0000
0000
0033
0000
,
1100
0000
1000
0000
0001
0000
0100
0000
0010
0000
0001
0000
1000
0100
0010
0000
,
0001
0000
0100
0000
1000
0000
0010
0000
0100
0000
0001
0000
1000
0100
0010
0000
,
0001
0000
0001
0000
0100
0000
0010
0000
1000
0000
0100
0000
0010
0001
1000
0000
,
1100
0000
1000
1001
0000
0001
0101
1000
,
0220
0000
0000
0000
0000
0330
0000
1100
,
0022
0000
0000
0000
0000
0000
0033
1100
,
2002
0000
0000
0000
0000
3003
0000
1010
,
0202
0000
0000
0000
0000
0000
0303
1000
,
0101
0010
1000
0100
0001
0100
0010
1001
,
1100
0010
0001
1000
0010
0100
0001
1010
,
1100
0100
0010
1001
0000
0100
1010
0000
,
0001
0110
0000
1000
0101
0001
1001
1000
,
1100
0000
0001
0110
0000
1000
0011
0000
,
0001
1100
0000
0001
0110
0010
1010
0001
,
1100
0000
0000
1000
0001
0000
0000
0001
0010
0100
0010
0000
0100
1000
0100
0000
,
1000
0010
0000
1000
0001
0000
0000
0001
0100
0010
0100
0000
1000
0001
1000
0000
,
0100
0001
0000
0100
0010
0000
0000
0010
0001
0100
0001
0000
1000
0010
1000
0000
,
0100
1000
0000
0100
0010
0000
0000
0001
1000
0001
0100
0000
0010
0100
0010
0000
,
0001
0010
0000
0100
1000
0000
0000
1000
0010
0100
0001
0000
0001
1000
0100
0000
,
0010
1000
0000
0010
0001
0000
0000
1000
0100
0010
0001
0000
1000
0010
1000
0000
,
0001
1000
0000
0001
0100
0000
0000
1000
0010
0100
0001
0000
0001
0010
0100
0000
,
1000
0001
0000
0010
0100
0000
0000
0100
0001
0010
0100
0000
1000
0001
1000
0000
,
2000
0200
0000
0000
0000
0000
0000
0000
0000
0000
0000
0000
3300
0000
0001
0000
,
0020
0002
0000
0000
0000
0000
0000
0000
0000
0000
0000
0000
0033
0000
1000
0000
,
0200
0020
0000
0000
0000
0000
0000
0000
0000
0000
0000
0000
0330
0000
1000
0000
,
0020
2000
0000
0000
0000
0000
0000
0000
0000
0000
0000
0000
3030
0000
0001
0000
,
2000
0002
0000
0000
0000
0000
0000
0000
0000
0000
0000
0000
3003
0000
0100
0000
,
0002
0200
0000
0000
0000
0000
0000
0000
0000
0000
0000
0000
0303
0000
0000
0010
,
2000
0200
0000
0000
0000
0000
0000
0000
0000
0000
0000
0000
3300
0000
0001
0000
,
0200
0002
0000
0000
0000
0000
0000
0000
0000
0000
0000
0000
0303
0000
0010
0000
,
1000
0001
0110
0000
0001
0010
1100
0000
,
0010
0100
1001
0000
0100
1000
0011
0000
,
0100
0001
1010
0000
0001
0010
1100
0000
,
1000
0001
0101
0000
0010
1000
1100
0000
,
0001
0100
1010
0000
0100
0001
0011
0000
,
1000
0010
0101
0000
0010
1000
1001
0000
,
0100
0001
0110
0000
0001
1000
1100
0000
,
0010
0100
0011
0000
0100
1000
1001
0000
,
1000
0010
0101
0000
0010
1000
1100
0000
,
0010
0001
0010
0001
0100
0010
0100
0010
1000
0100
1000
0100
1000
0001
1000
0001
,
2002
0000
3003
0000
0000
1001
0100
0010
,
2001
0000
0100
3100
0002
0000
0010
0013
,
0200
0000
0000
0000
0001
0000
0000
0000
1300
0001
1000
0001
0100
0001
0100
0000
,
0011
0001
1010
0100
1001
0000
0101
0010
,
2200
0000
0000
0000
0000
0000
0000
0000
3300
0000
0000
0001
0010
0000
0100
0000
,
2200
0000
0000
0000
0000
0000
3300
0000
0001
0100
0000
0000
0100
0000
0001
0000
,
2002
0000
0000
0000
0000
0000
3003
0000
0010
0100
0000
0000
0100
0000
0010
0000
,
1001
0010
0100
1000
0101
0010
1001
0100
,
0011
0000
1001
1000
1100
0010
0001
0100
,
0120
0000
0000
1030
0200
0000
0000
0310
,
0002
0000
0000
0000
0000
0000
0000
0000
1003
0100
0010
0000
0100
0010
0001
0000
,
0010
0100
1000
0010
0011
1000
0101
0010
,
2200
0000
0000
0000
3300
0000
0010
1000
,
0202
0000
0000
0000
0000
0000
0303
0000
0010
1000
0000
0000
1000
0000
0010
0000
,
2002
0000
0000
0000
0000
0000
3003
0000
0010
0100
0000
0000
0100
0000
1000
0000
,
1001
0100
0011
0100
1010
1000
0101
0010
,
1001
0000
0010
0000
1100
0000
0000
0000
0010
1000
0100
0000
1001
0000
0000
0000
,
0001
0010
0100
0000
0010
0000
1000
0000
0100
0000
0001
0000
0100
0000
0010
0000
,
0001
0000
0100
0000
0110
0000
0000
0000
1000
0001
0100
0000
0011
0000
0000
0000
,
0001
1000
0100
0000
0010
0000
0001
0000
0100
0000
1000
0000
0010
0000
0100
0000
,
1001
0000
0000
0000
0100
0001
0010
0000
1001
0000
0000
0000
0001
0010
0100
0000
,
1001
0000
0000
0000
1000
0010
0100
0000
1001
0000
0000
0000
0001
0100
0010
0000
,
1100
0110
0011
1001
1010
0110
0101
1001
,
1100
0000
1000
0100
0010
0000
0001
0010
0100
0000
1000
0001
1000
0100
0010
0001
,
2002
0000
0000
0000
,
0000
3003
0220
0330
;

//---------------dance-single - ----------------
#NOTES:
     dance-single:
     :
     Medium:
     8:
     0.480,0.528,0.372,0.558,0.000,417.000,64.000,96.000,0.000,0.000:
2000
3000
0020
0030
,
0002
0003
0200
0300
,
0020
0030
2000
3000
,
0200
0300
0002
0003
,
0100
0100
0000
0000
0100
0100
0000
0000
,
0010
0010
0000
0000
0010
0010
0000
0000
,
0100
0200
0000
0000
0000
0000
0300
0000
,
1000
0000
0001
0000
0100
0010
2000
0000
,
3001
0000
0100
0000
0010
1000
0200
0000
,
0301
0000
1000
0000
0100
0010
0002
0000
,
1003
1010
0110
0101
,
1001
0000
1000
0000
0010
0100
0002
0000
,
1003
0000
0100
0000
0010
0001
0002
0000
,
0103
0000
0010
0000
1000
0001
0200
0000
,
0310
0000
0000
0000
0000
1000
0100
0010
,
0002
0000
0000
0013
0200
0000
0000
1300
,
0002
0000
0000
0000
0103
0010
0100
0010
,
1000
0100
1000
0100
1100
0000
1001
0000
,
0202
0000
0000
0000
0303
0000
1000
1000
,
0200
0000
0000
0000
0320
0000
0031
0001
,
0200
0000
0000
0000
0320
0000
1030
0001
,
0200
0000
0310
1000
0002
0000
0013
0100
,
2000
0000
3100
0000
0000
0001
0010
0100
,
2000
0000
0000
3100
0020
0000
0000
0031
,
2000
0000
0000
0000
3010
0100
0010
0100
,
0001
0010
0001
0010
0011
0000
0110
0000
,
2200
0000
0000
0000
3300
0000
0001
0010
,
0200
0000
0000
0000
2300
0000
3100
0010
,
0002
0000
0000
0000
2003
0000
3010
0100
,
0002
0000
0013
0100
2000
0000
3001
0010
,
0200
1300
1010
0000
,
0001
0100
1000
0000
0010
0000
0100
0000
,
0001
0010
1000
0000
0100
0000
0001
0000
,
0010
0100
1000
0000
0010
0000
0100
0000
,
1000
0100
0010
0001
0020
0000
0000
0000
,
0130
1000
0001
0000
0100
0000
0020
0000
,
1030
1000
0100
0000
0001
0000
2000
0000
,
3010
0010
0100
0000
0002
0000
0013
0000
,
1100
0000
0000
0110
0000
0000
0011
0000
,
1001
0000
0000
0000
0000
0000
0000
0010
,
0010
0000
0000
0000
,
0100
0000
0000
0000
0000
0000
0000
1000
,
1000
0000
0000
0000
,
1100
1000
0001
0010
,
0101
1000
0001
0010
,
1100
0000
0000
1001
0000
0000
0011
0000
,
0000
0110
0000
0000
1100
0000
0101
0000
,
1001
0000
0000
1010
0000
0000
0110
0000
,
0000
0101
0000
0000
0011
0000
0110
0000
,
1000
0100
0001
0000
0001
0100
1000
0000
,
0010
0100
0001
0000
0010
0100
1000
0000
,
0100
0100
0100
0000
0010
0010
0010
0000
,
0001
0100
1000
0000
1000
0100
0001
0000
,
0010
0100
1000
0000
1000
0010
0010
0000
,
0100
0001
0100
0000
0001
0010
0001
0000
,
1000
0010
1000
0000
0100
1000
0100
0000
,
0010
0001
1000
0000
0001
1000
0010
0000
,
0200
0000
0302
0000
,
0023
0000
0230
0000
,
2300
0000
3020
0000
,
0230
0000
0302
0000
,
2003
0000
3200
0000
,
0320
0000
0032
0000
,
0203
0000
0320
0000
,
2030
0000
0000
0000
,
3010
1001
0010
1001
,
0010
1001
0010
1001
,
0100
1001
0100
1001
,
0100
1001
0100
1001
,
0001
0110
0001
0110
,
0001
0110
0001
0110
,
1000
0110
1000
0110
,
1000
0110
1000
0110
,
1000
0101
1000
0101
,
0001
0010
0100
1000
0010
0100
0001
1000
,
1001
0000
0000
0000
0000
1000
0100
0010
,
0002
0000
0000
0103
0020
0000
0000
1030
,
0200
0000
0000
0000
0310
0001
0100
0010
,
1000
0100
0010
0001
1001
0000
1010
0000
,
2200
0000
0000
0000
3300
0000
0010
0001
,
2000
0000
0000
0000
3020
0000
0130
0001
,
0002
0000
0000
0000
2003
0000
3100
0010
,
0002
0000
0013
0100
2000
0000
3010
0100
,
0002
0000
1003
0000
0000
0010
0001
0100
,
0020
0000
0000
1030
0002
0000
0000
0013
,
0200
0000
0000
0000
1300
0010
1000
0001
,
0010
0100
1000
0010
0110
0000
1001
0000
,
2200
0000
0000
0000
3300
0000
0001
0001
,
0200
0000
0000
0000
0320
0000
1030
0100
,
2000
0000
0000
0000
3020
0000
0130
0001
,
2000
0000
3100
0010
0002
0000
0103
0010
,
2000
3200
0320
0032
,
1003
0100
0010
0001
1000
0100
0010
0001
,
0000
0020
2030
3002
,
0103
0010
1000
0100
0010
0001
1000
0010
,
0210
0301
0021
0130
,
2100
3001
0210
1300
,
1100
1100
1001
1001
,
0100
0010
0100
0010
0100
0010
0100
0010
,
2002
0000
0000
0000
,
0000
3003
0220
0330
;

//---------------dance-single - ----------------
#NOTES:
     dance-single:
     :
     Easy:
     6:
     0.470,0.499,0.163,0.890,0.000,385.000,28.000,153.000,0.000,0.000:
2000
3000
0002
0003
,
2000
3000
0002
0003
,
0020
0030
0200
0300
,
0020
0030
0200
0300
,
1000
2000
0000
3000
0001
0002
0000
0003
,
0010
0020
0000
0030
0100
0200
0000
0300
,
1000
2000
0000
3000
0000
0000
0000
0000
,
1000
0011
0200
2300
,
3001
0110
2000
3200
,
0310
1001
0200
0302
,
0003
0110
1001
0110
,
1000
1100
0020
0032
,
1003
1001
0020
0230
,
1300
1001
0020
0230
,
0310
0000
0000
0000
0000
1000
0200
0000
,
0320
0000
0032
0000
,
0203
0000
0000
0000
0310
1000
0100
0010
,
0001
0100
0010
1000
0200
0000
0320
0000
,
0032
0000
0000
0000
0003
0000
1000
1000
,
0200
0000
0000
0000
0320
0000
0031
0001
,
0200
0000
0000
0000
0320
0000
1030
0001
,
0002
0023
0230
2300
,
3200
0000
0300
0000
0000
0001
0020
0000
,
0230
0000
2300
0000
,
3002
0000
0000
0000
0013
0100
1000
0010
,
0100
0001
0010
0100
2000
0000
3020
0000
,
0230
0000
0000
0000
0300
0000
0001
0010
,
0200
0000
0000
0000
2300
0000
3100
0010
,
0002
0000
2003
3200
,
0320
0032
2003
3020
,
0230
2300
3010
0000
,
0001
0100
1000
0100
0001
0000
1000
0000
,
0001
0100
1000
0100
0001
0000
1000
0000
,
0001
0100
1000
0100
0001
0000
1000
0000
,
0001
0100
1000
0100
0002
0000
0000
0000
,
1003
0100
0001
0100
1000
0000
0001
0000
,
1000
0100
0001
0100
1000
0000
0001
0000
,
1000
0100
0001
0100
1000
0000
0001
0000
,
1100
0000
0000
0110
0000
0000
0011
0000
,
2001
0000
0000
0000
3000
0000
0000
0100
,
0020
0000
0000
0030
,
0002
0000
0000
0000
0003
0000
0000
0010
,
2000
0000
0000
3000
,
0002
0010
0100
1003
,
0200
1000
0001
0310
,
1100
0000
0000
1001
0000
0000
0011
0000
,
0000
0110
0000
0000
1100
0000
1001
0000
,
0101
0000
0000
0110
0000
0000
1010
0000
,
0000
1001
0000
0000
0011
0000
0110
0000
,
1000
0100
1000
0000
0002
0000
0103
0000
,
0010
1000
0010
0000
2000
0000
3100
0000
,
0010
0001
0010
0000
0002
0000
0103
0000
,
0010
1000
0010
0000
2000
0000
3001
0000
,
0100
0010
0100
0000
0020
0000
1030
0000
,
0001
0010
0001
0000
0200
0000
0310
0000
,
1000
0100
1000
0000
0020
0000
0130
0000
,
0001
0010
0100
0000
2000
0000
3010
0000
,
0020
0000
0230
0000
,
0302
0000
0023
0000
,
0230
0000
2300
0000
,
3020
0000
0230
0000
,
0302
0000
2003
0000
,
3200
0000
0320
0000
,
0032
0000
0203
0000
,
0320
0000
2030
0000
,
3002
0100
1000
0013
,
0200
0001
0010
1300
,
2000
0100
0010
3001
,
0002
0010
0100
1003
,
0020
0100
1000
0031
,
2000
0100
0001
3010
,
0200
0001
0010
1300
,
0002
0010
1000
1003
,
0020
0100
1000
0031
,
0001
0010
0100
1000
0010
0100
0001
0010
,
1100
0000
0000
0000
0000
1000
0200
0000
,
0320
0000
0032
0000
,
0203
0000
0000
0000
0310
1000
0001
0010
,
0100
1000
0010
0100
0002
0000
0023
0000
,
0230
0000
0000
0000
0300
0000
0010
0100
,
2000
0000
0000
0000
3020
0000
0230
0001
,
0302
0000
0000
0000
2003
0000
3100
0010
,
0002
0023
0230
2300
,
3002
0000
2003
0000
3000
0010
0002
0000
,
0023
0000
0230
0000
,
2300
0000
0000
0000
3100
0010
0001
0100
,
0010
1000
0100
0010
0002
0000
0203
0000
,
2300
0000
0000
0000
3000
0000
0001
0001
,
0200
0000
0320
2030
,
3200
0000
0320
0032
,
2003
3200
0302
0203
,
2300
3200
0320
0032
,
1003
0100
0010
0001
1000
0100
0010
0001
,
0000
0020
2030
3002
,
0103
0010
1000
0100
0010
0001
0100
0010
,
2000
3001
0002
1003
,
0200
0310
0020
0130
,
2000
3200
0320
0032
,
0103
0010
1000
0001
0100
0010
1000
0001
,
0220
0000
0000
0000
,
0000
0000
0330
0000
2002
0000
0000
3003
;

//---------------dance-double - ----------------
#NOTES:
     dance-double:
     :
     Hard:
     9:
     0.506,0.643,0.553,0.244,0.020,472.000,95.000,42.000,0.000,0.000:
10000000
00000000
00100000
00000000
,
00010000
00000000
00001000
00000000
,
00000100
00000000
00000001
00000000
,
00010000
00000000
00000100
00000000
,
01000000
00010000
00000000
00000000
00001000
00000100
00000000
00000000
,
00000001
00001000
00000000
00000000
10000000
00010000
00000000
00000000
,
00100000
00001000
00000000
00000000
00000000
00000000
00000000
00000000
,
10000000
00010000
00100000
00001000
00010000
00000000
00010100
00000000
,
00001000
00000100
00000010
00000001
00000100
00000000
00011000
00000000
,
00010000
01000000
00100000
10000000
01000000
00000000
00011000
00000000
,
00001000
00000100
00000011
00000000
00001001
00000000
00011000
00000000
,
00010000
01000000
00100000
00010000
00001000
00000000
00000110
00000000
,
00000001
00000100
00001000
00010000
00100000
00000000
11000000
00000000
,
10000000
00010000
00100000
00001000
00010000
00000000
00001100
00000000
,
00000010
00000001
00000100
00000000
00000000
00001000
00010000
00100000
,
02000000
00000000
00000000
13000000
00020000
00000000
00000000
00130000
,
00002000
00000000
00000000
00000000
00103000
00010000
01000000
00100000
,
10000000
01000000
00100000
00010000
00011000
00000000
00001100
00000000
,
00000220
00000000
00000000
00000000
00000330
00000000
00000100
00001000
,
00020000
00000000
00000000
00000000
00130000
00000000
01000000
10000000
,
00020000
00000000
00000000
00000000
00130000
00000000
01000000
00010000
,
00101000
00000000
00010000
00001000
00001100
00000000
00000010
00000001
,
00001001
00000000
00010100
00000000
00011000
00010000
00100000
01000000
,
20000000
00000000
00000000
31000000
00200000
00000000
00000000
00310000
,
00002000
00000000
00000000
00000000
00003100
00000010
00000001
00000100
,
00001000
00010000
00100000
01000000
10010000
00000000
01001000
00000000
,
00220000
00000000
00000000
00000000
00330000
00000000
00010000
00001000
,
00000200
00000000
00000000
00000000
00000310
00000000
00000001
00000100
,
00002000
00000000
00000000
00000000
00013000
00000000
00100000
01000000
,
10010000
00000000
01000000
00100000
00011000
00000000
00000100
00000010
,
00001001
00001100
00022000
00033000
,
00100000
01000000
00001000
00010000
00000010
00000100
00000001
00001000
,
00000100
00010000
00001000
00100000
00010000
01000000
00100000
10000000
,
01000000
00010000
01000000
00100000
00010000
01000000
00001000
00010000
,
00000100
00001000
00000010
00000100
00002002
00000000
00003003
00000000
,
00000100
00001000
00010000
00100000
01000000
00010000
01000000
00100000
,
10000000
01000000
00100000
00010000
01000000
00001000
00010000
00000010
,
00001000
00000100
00000010
00001000
00000001
00000010
00000100
00001000
,
00011000
00000000
00000000
10010000
00000000
00000000
10100000
00000000
,
01100000
00000000
00000000
00000000
00000000
00000000
00000000
00110000
,
00011000
00000000
00000000
00000000
,
00010010
00000000
00000000
00000000
,
00001100
00010100
00000000
00000000
00000000
00000000
00000000
00000000
,
10000000
01000000
00100000
00010000
00001000
00000100
00000010
00000000
,
00000001
00000010
00000100
00001000
00010000
00100000
01000000
00000000
,
10010000
00000000
00000000
00011000
00000000
00000000
00001001
00000000
,
00000000
00011000
00000000
00000000
10010000
00000000
00011000
00000000
,
00001001
00000000
00000000
00011000
00000000
00000000
10010000
00000000
,
00000000
00011000
00000000
00000000
00001001
00000000
00011000
00000000
,
10010000
00000000
10000000
00100000
01000000
00001000
00010000
00000000
,
00001000
00000100
00000010
00000001
00000100
00001000
00010000
00000000
,
00100000
01000000
10000000
00010000
00100000
00001000
00010000
00000000
,
00001000
00000100
00000010
00001000
00010000
00100000
01000000
00000000
,
10000000
00010000
00100000
00001000
00010000
00000100
00000010
00000000
,
00000001
00001000
00000100
00010000
00001000
00100000
01000000
00000000
,
10000000
00010000
01000000
00100000
00010000
00001000
00000100
00000000
,
00000010
00000001
00000100
00001000
00010000
00100000
01000000
00000000
,
20000000
00000000
00000000
00000000
,
30020000
00000000
00000000
00000000
,
02030000
00000000
00000000
00000000
,
03002000
00000000
00000000
00000000
,
00023000
00000000
00000000
00000000
,
00030200
00000000
00000000
00000000
,
00000320
00000000
00000000
00000000
,
00000032
00000000
00000000
00000000
,
00000103
00011000
00000100
00011000
,
00000100
00011000
00000100
00011000
,
00100000
00011000
00100000
00011000
,
00100000
00011000
00100000
00011000
,
01000000
10010000
01000000
10010000
,
01000000
10010000
01000000
10010000
,
00000100
00001001
00000100
00001001
,
00000100
00001001
00000100
00001001
,
00000010
00011000
00100000
00011000
,
01000000
00001000
01000000
00001000
01000000
00001000
01000000
00001000
01000000
00001000
01000000
00001000
01000000
00001000
01000000
00000000
,
10010000
00000000
00000000
00000000
00000000
10000000
01000000
00100000
,
00020000
00000000
00000000
00031000
00000020
00000000
00000000
00000031
,
00000200
00000000
00000000
00000000
00001300
00010000
00100000
01000000
,
10000000
00100000
01000000
00001000
00101000
00000000
00010100
00000000
,
00002020
00000000
00000000
00000000
00003030
00000000
00000001
00000100
,
00002000
00000000
00000000
00000000
00013000
00000000
00100000
01000000
,
20000000
00000000
00000000
00000000
31000000
00000000
00100000
00010000
,
00001000
00000100
00000010
00000001
00000100
00001000
00010000
01000000
,
01100000
00000000
10010000
00000000
11000000
00100000
00010000
00001000
,
00000200
00000000
00000000
00000310
00000002
00000000
00000000
00001003
,
00000200
00000000
00000000
00000000
00001300
00010000
01000000
00010000
,
00100000
01000000
10000000
00100000
00110000
00000000
00011000
00000000
,
00002200
00000000
00000000
00000000
00003300
00000000
00000010
00010000
,
00002000
00000000
00000000
00000000
00103000
00000000
10000000
01000000
,
00020000
00000000
00000000
00000000
00031000
00000000
00000100
00000010
,
00000001
00000100
00001000
00010000
00100000
01000000
10000000
00010000
,
01010000
11000000
01001000
00110000
,
00100000
00010000
00001000
00000100
00000010
00000001
00000100
00001000
,
00011000
01100000
10100000
00011000
,
00001000
00000100
00010000
00001000
00100000
00010000
01000000
00100000
,
10100000
00000000
01000000
01000000
00011000
00000000
00010000
00010000
,
00001100
00000000
00000010
00000010
00011000
00000000
00010000
00100000
,
11000000
10000000
10010000
00010000
00110000
00100000
00101000
00001000
,
00011000
00000100
00000010
00000001
00000100
00001000
00010000
00100000
,
20020000
00000000
00000000
00000000
,
00000000
30030000
00001100
00000000
;

//---------------dance-double - ----------------
#NOTES:
     dance-double:
     :
     Challenge:
     10:
     0.719,0.821,0.756,0.372,0.233,671.000,130.000,64.000,0.000,0.000:
10010000
01000000
00100000
00010000
00100000
00010000
00100000
00001000
,
00010000
00001000
00010000
00000100
00001000
00000010
00001000
00000010
,
00000100
00000001
00000100
00000001
00000001
00000010
00000100
00001000
,
00010000
00001000
00010000
00001000
00000100
00001000
00010000
00100000
,
01000000
00010000
01000000
00010000
00001000
00000100
00001000
00000100
,
00000001
00001000
00000001
00001000
00010000
00100000
00010000
00100000
,
01000000
00001000
01000000
02002000
00000000
00000000
03003000
00000000
,
10010000
00010000
00100000
00001000
00010000
00000100
00010100
00010000
,
00001000
00010000
00000100
00000000
00000010
00000000
00000001
00000010
00000100
00000000
00001000
00000000
00011000
00000000
00010000
00000000
,
00010000
00100000
01000000
00000000
00100000
01000000
10000000
00000000
01000000
00000000
00100000
00000000
00011000
00000000
00001000
00000000
,
00001000
00000100
00000011
00000000
00001001
00000100
00011000
00000000
,
01010000
01000000
00100000
00010000
00001000
00000100
00000110
00000010
,
00000001
00000010
00000100
00000000
00001000
00000000
00010000
00000000
00100000
00000000
01000000
00000000
11000000
00000000
10000000
00000000
,
10000000
01000000
00010000
00000000
00100000
00000000
00001000
00000000
00010000
00000000
00000100
00000000
00001100
00000000
00001000
00000000
,
00000010
00001000
00000001
00000000
00000101
00000000
00000000
00000000
00000000
00000000
00011000
00000000
00010000
00000000
00100000
10000000
,
02000000
00000000
10000000
13000000
10020000
00000000
00100000
00130000
,
00102000
00000000
00000000
00000000
00103000
00010000
01000000
00100000
,
10000000
01000000
00100000
00010000
00011000
00000000
00001100
00000010
,
00000220
00000000
00000000
00000000
00000000
00000000
00000000
00000000
00000330
00000000
00000000
00000000
00000100
00010000
00001000
00000000
,
00020000
00000000
00000000
00000000
00000000
00000000
00000000
00000000
00130000
01000000
00000000
00000000
01000000
00000000
10000000
00000000
,
00020000
00000000
00000000
00000000
00000000
00000000
00000000
00000000
00130000
01000000
00000000
00000000
01000000
00000000
00010000
00000000
,
00101000
00100000
00010000
00001000
00001100
00000100
00000010
00000001
,
00001001
00000000
00000000
00000000
00010100
00000000
00000000
00000000
00011000
00000000
00010000
00000000
00100000
00000000
01000000
00100000
,
20000000
00000000
00000000
31000000
00200000
00000000
00000000
00310000
,
00012000
00000000
00000000
00000000
00003100
00000010
00000001
00000100
,
00001000
00010000
00100000
01000000
10010000
00000000
01001000
00001000
,
00220000
00000000
00000000
00000000
00000000
00000000
00000000
00000000
00330000
00000000
00000000
00000000
00010000
00000100
00001000
00000000
,
00000200
00000000
00000000
00000000
00000000
00000000
00000000
00000000
00000310
00000001
00000000
00000000
00000001
00000010
00000100
00000000
,
00002000
00000000
00000000
00000000
00000000
00000000
00000000
00000000
00013000
00100000
00000000
00000000
00100000
00000000
01000000
00000000
,
10010000
00000000
00000000
10000000
01000000
00000000
00100000
00000000
00011000
00000000
00000000
00001000
00000100
00000000
00000010
00000000
,
00001001
00000000
00001100
00010000
00022000
00000000
00033000
00000000
,
01100000
00000000
01000000
00000000
00001000
00000000
00010000
00000000
00000010
00001000
00000100
00000000
00000001
00000000
00001000
00000000
,
00000100
00000000
00010000
00000000
00001000
00000000
00100000
00000000
00010000
00100000
01000000
00000000
00100000
01000000
10000000
00000000
,
01000000
00000000
00010000
00000000
01000000
00000000
00100000
00000000
00010000
00001000
01000000
00000000
00001000
00000000
00010000
00001000
,
00000100
00000010
00001000
00000000
00000010
00000000
00000100
00000000
00002002
00000000
00000000
00000000
00003003
00000000
00000010
00000000
,
00000100
00000000
00001000
00000000
00010000
00000000
00100000
00000000
01000000
00000000
00010000
10000000
01000000
00000000
00100000
00000000
,
10000000
00000000
01000000
00000000
00100000
00000000
00010000
00000000
01000000
00001000
00100000
00000000
00010000
00000000
00001000
00000100
,
00001000
00000000
00000100
00000000
00000010
00000000
00001000
00000000
00000001
00000000
00000010
00001000
00000100
00000000
00001000
00000000
,
00011000
00000000
00010000
10010000
00000000
10000000
10100000
00100000
,
02200000
00000000
00000000
00000000
00000000
03300000
00000000
00110000
,
00022000
00000000
00000000
00000000
00000000
00033000
00000000
00001100
,
00020020
00000000
00000000
00000000
00000000
00030030
00000000
00001100
,
00020200
00000000
00000000
00030300
,
10010000
01000000
00100000
00010000
00001000
00000100
00000010
00000011
,
00001001
00000010
00000100
00001000
00010000
00100000
01000000
11000000
,
10010000
00000000
00010000
00011000
00000000
00001000
00001001
00000000
,
00001000
00011000
00000000
00010000
00110000
01000000
00011000
00001000
,
00000110
00000000
00000100
00011000
00000000
00100000
10010000
00000000
,
01000000
00011000
00000000
00000100
00001001
00000001
00000110
00001000
,
00011000
00000000
00010000
00000000
10000000
00000000
00100000
00000000
01000000
00000000
00001000
00000000
00010000
00001000
00010000
00000000
,
00001000
00000000
00000100
00000000
00000010
00000000
00000001
00000000
00000100
00000000
00001000
00000000
00010000
01000000
00010000
00000000
,
00100000
00000000
01000000
00000000
10000000
00000000
00010000
00000000
00100000
00000000
00001000
00000000
00010000
00000100
00010000
00000100
,
00001000
00000000
00000100
00000000
00000010
00000000
00001000
00000000
00010000
00000000
00100000
00000000
01000000
10000000
01000000
00000000
,
10000000
00000000
00010000
00000000
00100000
00000000
00001000
00000000
00010000
00000000
00000100
00000000
00000010
00000001
00000010
00000000
,
00000001
00000000
00001000
00000000
00000100
00000000
00010000
00000000
00001000
00000000
00100000
00000000
01000000
00100000
01000000
00100000
,
10000000
00000000
00010000
00000000
01000000
00000000
00100000
00000000
00010000
00000000
00001000
00000000
00000100
00000010
00000100
00000000
,
00000010
00000000
00000001
00000000
00000100
00000000
00001000
00000000
00010000
00000000
00100000
00000000
01000000
10000000
01000000
10000000
,
20010000
00000000
00000000
00000000
00000000
00000000
00000000
00000000
32000000
00100000
00000000
00000000
00000000
00000000
00000000
00000000
,
03200000
00010000
00000000
00000000
00000000
00000000
00000000
00000000
00320000
00001000
00000000
00000000
00000000
00000000
00000000
00000000
,
00032000
00000100
00000000
00000000
00000000
00000000
00000000
00000000
00003200
00000010
00000000
00000000
00000000
00000000
00000000
00000000
,
00000320
00000001
00000000
00000000
00000000
00000000
00000000
00000000
00000032
00000100
00000000
00000000
00000000
00000000
00000000
00000000
,
00000203
00001000
00000000
00000000
00000000
00000000
00000000
00000000
00002300
00010000
00000000
00000000
00000000
00000000
00000000
00000000
,
00023000
00100000
00000000
00000000
00000000
00000000
00000000
00000000
00230000
01000000
00000000
00000000
00000000
00000000
00000000
00000000
,
02300000
10000000
00000000
00000000
00000000
00000000
00000000
00000000
03020000
00001000
00000000
00000000
00000000
00000000
00000000
00000000
,
00032000
00000010
00000000
00000000
00000000
00000000
00000000
00000000
00003020
00000001
00000000
00000000
00000000
00000000
00000000
00000000
,
00000130
00010000
00011000
00000000
00000100
00010000
00011000
00000000
,
00000100
00010000
00011000
00000000
00000100
00010000
00011000
00000000
,
00100000
00001000
00011000
00000000
00100000
00001000
00011000
00000000
,
00100000
00001000
00011000
00000000
00100000
00001000
00011000
00000000
,
01000000
00010000
10010000
00000000
01000000
00010000
10010000
00000000
,
01000000
00010000
10010000
00000000
01000000
00010000
10010000
00000000
,
00000100
00001000
00001001
00000000
00000100
00001000
00001001
00000000
,
00000100
00001000
00001001
00000000
00000100
00001000
00001001
00000000
,
00000010
00010000
00011000
00000000
00100000
00001000
00011000
00000000
,
01000000
00001000
01000000
00001000
01000000
00001000
01000000
00001000
01000000
00001000
01000000
00001000
01000000
00001000
01000000
00001000
,
00022000
00000000
00033000
00000000
00000000
10010000
01000000
00100000
,
00120000
00000000
00000000
00000000
00001000
00000000
00031000
00000100
00000020
00000000
00000000
00000000
00000001
00000000
00000031
00001000
,
00000200
00000000
00001000
00000000
00001300
00010000
00100000
01000000
,
10000000
00100000
01000000
00001000
00101000
00000000
00010100
00000100
,
00002020
00000000
00000000
00000000
00000000
00000000
00000000
00000000
00003030
00000000
00000000
00000000
00000001
00000010
00000100
00000000
,
00002100
00000000
00000000
00000000
00010000
00000000
00000000
00000000
00013000
00100000
00000000
00000000
00100000
00000000
01000000
00000000
,
21000000
00000000
00000000
00000000
00010000
00000000
00000000
00000000
31000000
00100000
00000000
00000000
00100000
00000000
00010000
00000000
,
00011000
00000100
00000010
00000001
00000110
00001000
00010000
01000000
,
01100000
00000000
10010000
10000000
11000000
00100000
00010000
00001000
,
00001200
00000000
00000010
00000310
00000002
00000000
00001000
00001003
,
00001200
00000000
00000000
00000000
00010000
00000000
00000000
00000000
00001300
00000000
00010000
00100000
01000000
00000000
00010000
00000000
,
00100000
00000000
01000000
00000000
10000000
01000000
00100000
00000000
00110000
00000000
00001000
00000000
00011000
00000000
00010000
00000000
,
00002200
00000000
00000000
00000000
00003300
00000000
00010010
00010000
,
00012000
00000000
00000000
00000000
00100000
00000000
00000000
00000000
00103000
01000000
00000000
00000000
10000000
00000000
01000000
00000000
,
00120000
00000000
00000000
00000000
00001000
00000000
00000000
00000000
00031000
00000100
00000000
00000000
00000100
00000000
00000010
00000000
,
00000011
00000100
00001000
00010000
00110000
01000000
10000000
00010000
,
01010000
10000000
11000000
00000000
01001000
00010000
00110000
00000000
,
01100000
00010000
00001000
00000100
00000010
00000001
00000100
00001000
,
00011000
01000000
01100000
00000000
10100000
00010000
00011000
00000000
,
00001010
00000000
00000100
00000000
00010000
00000000
00001000
00000000
00100000
00000000
00010000
00000000
01000000
00010000
00100000
00000000
,
10100000
00000000
00000000
00000000
01000000
00010000
01000000
00000000
00011000
00000000
00000000
00000000
00010000
00000100
00010000
00000000
,
00001100
00000000
00000000
00000000
00000010
00010000
00000010
00000000
00011000
00000000
00000000
00000000
00010000
01000000
00100000
00000000
,
11000000
10100000
10010000
01010000
00110000
00101000
00011000
00010100
,
00001100
00000000
00001000
00000100
00000010
00000000
00000001
00000010
00000100
00000000
00001000
00010000
00100000
00000000
01000000
10000000
,
20020000
00000000
00000000
00000000
,
00000000
30030000
00002200
00003300
;

//---------------dance-double - ----------------
#NOTES:
     dance-double:
     :
     Edit:
     12:
     0.875,0.996,0.768,0.652,0.686,809.000,132.000,112.000,1101.000,1.000:
1000MMMM
00000000
10000000
00000000
0001MMMM
01000000
00010000
00010000
00100000
00000000
00100000
00000000
00001000
00010000
00001000
00001000
,
01000000
00000000
01000000
00000000
00000010
00001000
00000010
00000010
00000100
00000000
00000100
00000000
00000001
00010000
00000001
00000001
,
00001000
00000000
00001000
00000000
00000100
00100000
00000100
00000100
00010000
00000000
00010000
00000000
00001000
01000000
00001000
00001000
,
00100000
00000000
00100000
00000000
0001MMMM
01000000
00010000
00010000
10000000
00000000
10000000
00000000
00001000
00100000
00001000
01000000
,
01010000
00220000
00330000
00000000
MMM11000
MMM20200
00030300
00000000
,
MMM01010
MMM20200
00030300
00000000
1100MMMM
0202MMMM
03030000
00000000
,
0011MMMM
00000000
00000000
00000000
0220MMMM
00000000
00000000
00000000
0000MMMM
00000000
00000000
00000000
0000MMMM
00000000
00000000
00000000
0000MMMM
00000000
00000000
00000000
0000MMMM
00000000
00000000
00000000
03300000
00000000
00000000
00000000
00001000
00010000
00001000
00010000
,
00011000
00000000
01000000
00100000
01000000
00000000
00001000
00000000
00010000
00100000
00000000
01000000
10000000
01000000
00100000
00000000
,
00001000
00000000
00010000
00100000
00010000
00000000
00001000
00000000
01000000
00010000
00000000
00010000
00100000
00001000
00010000
00000000
,
00000100
00000000
00000010
00000001
00000010
00000000
00001000
00000000
00000010
00000001
00000000
00000100
00001000
00000100
00001000
00000000
,
00010000
00100000
00010000
00000000
00011000
00000000
00000000
00000000
1100MMMM
00000000
0000MMMM
00000000
0110MMMM
00000000
0101MMMM
00000000
,
1001MMMM
00000000
10000000
01000000
00100000
00000000
00010000
00000000
00001000
10000000
00000000
00100000
01000000
00010000
00200000
00000000
,
00301000
00000000
00010000
00000100
00000010
00000000
00001000
00000000
00010000
01000000
00000000
10000000
00100000
10000000
00020000
00000000
,
01030000
00000000
00100000
10000000
00100000
00000000
10000000
00000000
01000000
00010000
00000000
00001000
00000100
00001000
00000100
00000000
,
00000001
00001000
00000000
00000100
00010000
00000000
00001000
00000000
00100000
00000000
10010000
00000000
01000000
00000000
00100000
00000000
,
10020000
00000000
0000MMMM
00000000
0000MMMM
00000000
0013MMMM
01000000
20000000
00000000
00000000
00000000
00000000
00000000
31000000
00100000
,
00002MMM
00000000
00000MMM
00000000
00000MMM
00000000
00000MMM
00000000
00013MMM
00100000
00010000
00000000
00100000
01000000
10000000
00100000
,
01000000
00001000
00100000
00010000
01010000
00000000
00011000
00100000
,
00200200
00000000
00000000
00000000
00000000
00000000
00000000
00000000
00300300
00000000
00000000
01000000
00010000
00100000
01000000
00000000
,
2200MMMM
00000000
0000MMMM
00000000
0000MMMM
00000000
3300MMMM
00000000
00100000
00020000
00000000
00000000
01030000
00001000
01000000
00000000
,
00020200
00000000
00000000
00000000
00000000
00000000
00030300
00000000
00100000
02000000
00000000
00000000
03001000
00010000
00000100
00000000
,
00001010
00000010
00010000
00001000
00110000
01000000
1000MMMM
0010MMMM
,
1001MMMM
00000000
0010MMMM
00000000
1100MMMM
00000000
0000MMMM
00000000
0110MMMM
00000000
0001MMMM
00000000
0010MMMM
01000000
1000MMMM
00000000
,
2001MMMM
00000000
0000MMMM
00000000
0000MMMM
00000000
31000000
00100000
00020000
00000000
00000000
00000000
00000000
00000000
00130000
00000100
,
00002000
00000000
00000000
00000000
00000000
00000000
00000000
00000000
00013000
00000000
00000010
00000000
00001000
00000100
00010000
00001000
,
00100000
01000000
1000MMMM
0001MMMM
0101MMMM
0010MMMM
1001MMMM
1000MMMM
,
0220MMMM
00000000
0000MMMM
00000000
0000MMMM
00000000
0000MMMM
00000000
0330MMMM
00000000
00000000
00000000
00010000
00100000
00001000
00000000
,
00020020
00000000
00000000
00000000
00000000
00000000
00030030
00000000
00100000
02000000
00000000
00000000
03001000
00010000
00100000
00000000
,
00220000
00000000
00000000
00000000
00000000
00000000
00330000
00000000
10000000
00200000
00000000
00000000
00310000
00001000
01000000
00000000
,
10010000
00100000
00001000
00010000
01001000
00100000
00010000
00001000
,
00010010
00000000
00100000
00000000
00011000
00000000
00000000
00000000
11000000
00000000
10000000
01000000
00010000
00001000
00000100
00000000
,
00000110
00000000
00000001
00000000
00000100
00000000
00001000
00000000
00010000
00000000
00100000
00000000
10000000
00001000
10000000
00000000
,
00010000
00000000
00100000
00000000
00001000
00000000
00000100
00000000
00000010
00000000
00010000
00000000
00000001
00000100
00000001
00000000
,
00000010
00000000
00000100
00000000
00100000
00000000
00001000
00000000
01000000
00000000
00010000
00000000
10000000
00100000
1000MMMM
00000000
,
0100MMMM
00000000
0010MMMM
00000000
10000000
00000000
01000000
00000000
00020000
00002000
00000000
00000000
00000000
00000000
00033000
00000000
,
00100100
00000000
00100000
00000000
00010000
00000000
01000000
00000000
00100000
00000000
10000000
00000000
00001000
00010000
00000100
00000000
,
00010000
00000000
00000010
00000000
00000100
00000000
00001000
00000000
00010000
00000000
01000000
00000000
00100000
10000000
00100000
00000000
,
00010000
00000000
00001000
00000000
00000100
00000000
00000001
00000000
00010000
00000000
00000010
00000000
00001000
00000100
00001000
00000000
,
00010100
00001000
10000000
10010000
00100000
00010000
01001000
00010000
,
02200000
0000MMMM
0000MMMM
0000MMMM
0000MMMM
0330MMMM
0000MMMM
1100MMMM
,
0022MMMM
0000MMMM
0000MMMM
0000MMMM
0000MMMM
00000000
00330000
01000100
,
00022000
00000000
MMM00000
MMM00000
MMM00000
MMM33000
MMM00000
MMM00110
,
MMM20002
MMM00000
MMM00000
MMM00000
MMM00000
MMM00000
MMM30003
00000100
,
00011000
00000000
00100000
00000000
00001000
00000000
01000000
00000000
00010000
10000000
01000000
00000000
00100000
00000000
10010000
00000000
,
11000000
00100000
00010000
00001000
00000100
00000010
00000001
00000110
,
00001100
00010000
00100000
110000MM
100000MM
010000MM
101000MM
001000MM
,
000100MM
011000MM
010000MM
100000MM
010100MM
000010MM
100100MM
100000MM
,
110000MM
001000MM
000100MM
011000MM
100000MM
010000MM
001100MM
000010MM
,
000100MM
010001MM
000010MM
000100MM
011000MM
001000MM
101000MM
000100MM
,
010010MM
00000000
000100MM
01000000
000100MM
00000000
000000MM
00010000
001000MM
01000000
001000MM
00000000
010000MM
10000000
010000MM
00000000
,
100000MM
00100000
000000MM
10000000
000010MM
00000000
000000MM
00001000
000100MM
00100000
000100MM
00000000
000010MM
00000100
000010MM
00000000
,
010000MM
00010000
000000MM
01000000
00100000
00000000
00000000
00100000
00010000
00001000
00010000
00000000
00000100
00000010
00000100
00000000
,
00001000
00000001
00000000
00001000
00000010
00000000
00000000
00000100
00010000
00001000
01000000
00000000
00100000
10000000
00100000
00000000
,
00010000
01000000
00000000
00001000
00100000
00000000
00000000
00010000
00100000
00001000
00010000
00000000
00010000
10000000
01000000
00000000
,
00100000
10000000
00000000
00100000
00010000
00000000
00000000
00001000
00000010
00000001
00000010
00000000
00010000
00001000
00010000
00000000
,
00000100
10000000
00000000
00010000
01000000
00000000
00000000
10000000
00100000
01000000
00001000
00000000
00010000
00000100
00000010
00000000
,
00000001
00010000
00000000
00000100
00100000
00000000
00000000
00001000
01000000
00100000
01000000
00000000
00010000
00001000
00000100
00000010
,
00000200
00002000
00000000
00000000
MM00000M
00000000
MM00000M
00000000
MM00000M
00000000
MM00000M
00000000
0000330M
00000000
0001000M
00001000
,
0020000M
00020000
00000MMM
00000000
00000MMM
00000000
00000MMM
00000000
00000MMM
00000000
00000MMM
00000000
00330MMM
00000000
10000MMM
00001000
,
02000MMM
00200000
00000MMM
00000000
0000MMMM
00000000
0000MMMM
00000000
0000MMMM
00000000
0000MMMM
00000000
0330MMMM
00000000
1000MMMM
01000000
,
0020MMMM
20000000
0000MMMM
00000000
0000MMMM
00000000
0000MMMM
00000000
0000MMMM
00000000
00000MMM
00000000
30300MMM
00000000
00010MMM
00001000
,
20000MMM
00020000
00000MMM
00000000
0000MMMM
00000000
0000MMMM
00000000
0000MMMM
00000000
0000MMMM
00000000
3003MMMM
00000000
0100MMMM
00100000
,
0002MMMM
02000000
0000MMMM
00000000
0000MMMM
00000000
0000MMMM
00000000
0000MMMM
00000000
0000MMMM
00000000
0303MMMM
00000000
0001MMMM
00100000
,
2000MMMM
02000000
0000MMMM
00000000
0000MMMM
00000000
0000MMMM
00000000
0000MMMM
00000000
00000MMM
00000000
33000MMM
00000000
00010MMM
00001000
,
02000MMM
00020000
00000MMM
00000000
0000MMMM
00000000
0000MMMM
00000000
0000MMMM
00000000
0000MMMM
00000000
0303MMMM
00000000
00100000
01000000
,
10000000
00100000
00010000
00000000
01001000
00000000
00000000
01000000
00010000
00100000
00001000
00000000
00010100
00000000
00000000
00000010
,
00000001
00000100
00001000
00000000
00011000
00000000
00000000
00010000
01000000
10000000
00100000
00000000
00110000
00000000
00000000
00100000
,
01000000
10000000
00010000
00000000
10100000
00000000
00000000
00100000
00010000
00001000
00000100
00000000
00000110
00000000
00000000
00000001
,
00000010
00000100
00001000
00000000
00010100
00000000
00000000
00001000
00010000
00100000
01000000
00000000
11000MMM
00000000
00000MMM
10000000
,
00010MMM
00100000
01000MMM
00000000
10100MMM
00000000
00000MMM
10000000
01000MMM
00100000
00010MMM
00000000
00101MMM
00000000
00000MMM
00001000
,
10000MMM
01000000
00100MMM
00000000
01010MMM
00000000
00000MMM
01000000
00100MMM
00001000
10000MMM
00000000
10010MMM
00000000
00000MMM
10000000
,
01000MMM
00100000
00010000
00000000
00101000
00000000
00000000
00001000
00010000
00000100
00000010
00000000
00000011
00000000
00000000
00000001
,
00000100
00001000
00010000
00000000
00110000
00000000
00000000
00100000
01000000
00001000
00010000
00000000
10010000
00000000
00000000
10000000
,
01000000
00100000
00010000
00000000
00101000
00000000
00000000
00001000
00010000
00000100
00000010
00000000
00000110
00000000
00000000
00000100
,
00100000
00000100
00100000
00000100
00010000
00001000
00010000
00001000
10000000
01000000
10000000
01000000
00100000
00001000
00100000
00010000
,
02020000
00000000
M0M0MMMM
00000000
M3M3MMMM
00000000
00000MMM
00000000
00000MMM
00000000
10010MMM
00000000
01000MMM
00100000
00001MMM
00000000
,
20010MMM
00000000
00000MMM
00000000
01000MMM
00000000
31000MMM
00100000
00020MMM
00000000
00000MMM
00000000
00100MMM
00000000
001300MM
00001000
,
020000MM
00000000
000000MM
00000000
000001MM
00000000
000000MM
00000000
130000MM
00010000
100000MM
00001000
001000MM
00010000
01000MMM
00000000
,
00110MMM
00010MMM
10100MMM
0100000M
1000100M
0000000M
0001001M
0000010M
,
0002200M
00000000
0000000M
00000000
00000MMM
00000000
00000MMM
00000000
00033MMM
00000000
00000MMM
00010000
00100MMM
01000000
1000MMMM
00000000
,
2200MMMM
00000000
0000MMMM
00000000
0000MMMM
00000000
33000MMM
00000000
00010MMM
02000000
00000000
00000000
03001000
00010000
00000010
00000000
,
00000202
00000000
00000000
00000000
00000000
00000000
00000303
00000000
00100000
02000000
00000000
00000000
03001MMM
00010000
00100MMM
00000000
,
11000MMM
00000000
10000MMM
01000000
00100MMM
00001000
00010MMM
00000000
01010MMM
00000000
00100MMM
00000000
10001MMM
00000000
01000MMM
00000000
,
00110MMM
00000000
00000MMM
00000000
10010MMM
00000000
10000MMM
00000000
11000000
00000000
00100000
00001000
00010000
00000010
00000100
00000000
,
MMM00102
00000000
MMM00000
00000000
00001000
00000000
00010003
00000100
02000000
00000000
00000000
00000000
00001000
00000000
03100000
00000100
,
00020000
00000000
00000000
00000000
00001MMM
00000000
00000MMM
00000000
10030MMM
01000000
00100MMM
00001000
01000MMM
00100000
00010MMM
00001000
,
00100MMM
00000000
01000MMM
10000000
01000MMM
00100000
00001MMM
00000000
00011MMM
00000000
00100MMM
00000000
01001MMM
00000000
00010MMM
00000000
,
02200MMM
00000000
00000MMM
00000000
0000MMMM
00000000
0000MMMM
00000000
0330MMMM
00000000
0000MMMM
00010000
0010MMMM
01000000
1000MMMM
00000000
,
0202MMMM
00000000
0000MMMM
00000000
0000MMMM
00000000
0303MMMM
00000000
0010MMMM
20000000
00000000
00000000
31000000
00100000
00001000
00000000
,
00020200
00000000
MM000000
00000000
MM000000
00000000
MM030300
00000000
MM000001
00000020
MM000000
00000000
MM000130
00001000
00010000
00000000
,
00110000
0100MMMM
1001MMMM
01000000
00110000
00001000
MM010100
MM001000
,
00010010
00000000
00000100
00000000
00202000
00000000
00303000
01000000
001000MM
10000000
010000MM
00000000
200200MM
00000000
300300MM
00001000
,
000100MM
00100000
010000MM
00001000
001000MM
01000000
100000MM
00000000
020000MM
00000000
03020000
00000000
00030200
00000000
00000320
00000000
,
00000031
00001000
MM000100
00000000
MM022000
00000000
MM033000
00100000
MM001000
00010000
MM000100
00000000
MM002200
00000000
00003300
00000010
,
00010000
00000100
01000000
00001000
00100000
00000100
00010000
00000010
00002000
00000000
00003200
00000000
00200300
00000000
00302000
00000000
,
02023000
00000000
03030MMM
10000000
01000MMM
00100000
00010MMM
00000000
20020000
00000000
30030000
00100000
00000100
00010000
00001000
00000000
,
00020020
00000000
MM030030
00000100
MM001000
00000001
MM000100
00000000
MM002020
00000000
00003030
00000100
00010000
00001000
00100000
00000000
,
110000MM
011000MM
001100MM
010010MM
001010MM
00110000
00011000
MM001010
,
MMM00110
00000000
MMM00001
00000010
MMM00100
00001000
00000010
00010000
00001000
00100000
00010MMM
01000000
00100MMM
10000000
01000000
00010000
,
00022000
MMM00MMM
MMM00MMM
MMM00MMM
MMM00MMM
MMM00MMM
MMM00MMM
MMM00MMM
,
MMM00MMM
MMM00MMM
00033000
00000000
02000020
M0MMMM0M
M3MMMM3M
00000000
;

//---------------dance-single - ----------------
#NOTES:
     dance-single:
     :
     Edit:
     12:
     0.889,0.996,0.768,0.634,0.756,829.000,132.000,109.000,0.000,1.000:
1000
1000
0100
0100
0010
0010
0001
0001
,
0100
0000
0100
0000
0010
0000
0010
0000
1000
0001
1000
0000
0001
0000
0001
0000
,
0010
0000
0010
0000
0100
0000
0100
0000
1000
0100
1000
0100
0010
1000
0010
1000
,
0001
0000
0001
0000
0100
0000
0100
1000
0010
0000
0010
0000
1000
0000
1000
0000
,
0101
0022
0033
0000
0110
2020
3030
0000
,
1100
2002
3003
0000
1100
0202
0303
0000
,
0011
0000
0000
0000
0220
0000
0000
0000
0000
0000
0000
0000
0000
0000
0000
0000
0000
0000
0000
0000
0000
0000
0000
0000
0330
0000
0000
1000
0001
1000
0001
0000
,
1001
0000
0001
0010
0100
0000
0010
0000
0001
1000
0000
1000
0001
0100
0010
0000
,
0001
0000
1000
0010
1000
0000
0100
0000
0010
0001
0000
0001
0000
1000
0010
0000
,
0100
0000
0001
0010
0001
0000
0010
0000
0100
1000
0000
1000
0001
0010
0100
0000
,
0100
0010
0001
0000
2002
0000
3003
0000
2200
0000
3300
0000
0110
0000
0011
0000
,
1001
0000
1000
0100
0010
0000
0010
0000
0001
1000
0000
1000
0001
0100
0020
0000
,
0130
0000
1000
0001
0010
0000
0001
0000
1000
0100
0000
1000
0010
1000
0002
0000
,
0103
0000
0010
1000
0010
0000
1000
0000
0100
0010
0000
0010
1000
0001
1000
0000
,
0010
0100
0000
0100
0001
0000
0010
1000
0000
0000
1001
0000
0100
0010
0001
0000
,
1002
0000
0000
0000
0000
0000
0013
0100
2000
0000
0000
0000
0000
0000
3100
0001
,
0020
0000
0000
0000
0000
0000
0000
0000
0130
1000
0001
0010
0100
1000
0010
0100
,
0001
0000
1000
0100
0010
0001
0100
0000
0101
0000
0000
0000
1001
0000
0100
0000
,
2020
0000
0000
0000
0000
0000
0000
0000
3030
0000
0000
0000
0001
0100
1000
0000
,
2200
0000
0000
0000
0000
0000
3300
0000
0010
0002
0000
0000
0103
0010
0100
0000
,
2002
0000
0000
0000
0000
0000
3003
0000
0010
0200
0000
0000
0301
0010
0001
0000
,
1010
0100
0001
0010
1100
0001
1000
0100
,
1001
0000
0010
0000
1100
0000
0000
0000
0110
0000
0001
0010
0100
1000
0100
0000
,
2001
0000
0000
0000
0000
0000
3100
0010
0002
0000
0000
0000
0000
0000
0013
1000
,
0200
0000
0000
0000
0000
0000
0000
0000
1300
0001
0010
0100
1000
0010
0100
0001
,
1000
0100
0010
0001
0010
0100
1000
0000
1100
0000
0010
0000
1001
0000
1000
0000
,
0220
0000
0000
0000
0000
0000
0000
0000
0330
0000
0000
0000
0001
0100
0010
0000
,
2200
0000
0000
0000
0000
0000
3300
0000
0010
0200
0000
0000
0301
1000
0010
0000
,
0022
0000
0000
0000
0000
0000
0033
0000
1000
0020
0000
0000
0130
0001
0100
0000
,
1001
0010
0100
0010
1100
0001
0010
0100
,
1010
1000
0101
0000
1100
1000
0001
0100
,
1010
0000
0010
0000
0100
0000
0001
0000
0001
0000
1000
0000
0100
0010
0001
0010
,
1000
0000
0010
0000
0100
0000
1000
0000
0001
0000
0100
0000
0010
1000
0010
0100
,
1000
0000
0100
0000
0001
0000
0100
0000
0010
0000
1000
0000
0100
0010
0001
0010
,
0100
0000
0010
0000
1000
0000
0100
0000
0020
0002
0000
0000
0000
0000
0033
0000
,
1100
0000
1000
0000
0001
0000
0100
0000
0010
0000
0001
0000
1000
0100
0010
0001
,
0010
0000
0100
0000
1000
0000
0010
0000
0100
0000
0001
0000
1000
0100
0010
0001
,
0010
0000
0001
0000
0100
0000
0010
0000
1000
0000
0100
0001
0010
0001
1000
0000
,
1100
0010
1000
1001
0000
0001
0101
1000
,
0220
0000
0000
0000
0000
0330
0000
1100
,
0022
0000
0000
0000
0000
0000
0033
1100
,
2002
0000
0000
0000
0000
3003
0000
1010
,
0202
0000
0000
0000
0000
0000
0303
1000
,
0101
0000
0010
0000
1000
0000
0100
0010
0001
1000
0100
0000
0010
0000
1001
0000
,
1100
0000
0010
0000
0001
0000
1000
0000
0010
1000
0100
1000
0001
0000
1010
0000
,
1100
0100
0010
1001
0000
0100
1010
0000
,
0001
0110
0000
1000
0101
0001
1001
1000
,
1100
0000
0001
0110
0000
1000
0011
0100
,
0001
1100
0000
0001
0110
0010
1010
0001
,
1100
0000
0000
1000
0001
0000
0100
0001
0010
0100
0010
0000
0100
1000
0100
0000
,
1000
0010
0000
1000
0001
0000
0010
0001
0100
0010
0100
0000
1000
0001
1000
0000
,
0100
0001
0000
0100
0010
0000
0001
0010
0001
0100
0001
0000
1000
0010
1000
0000
,
0100
1000
0000
0100
0010
0000
1000
0001
1000
0001
0100
0000
0010
0100
0010
0000
,
0001
0010
0000
0100
1000
0000
0010
1000
0010
0100
0001
0000
0001
1000
0100
0000
,
0010
1000
0000
0010
0001
0000
0100
1000
0100
0010
0001
0000
1000
0010
1000
0000
,
0001
1000
0000
0001
0100
0000
0010
1000
0010
0100
0001
0000
0001
0010
0100
0000
,
1000
0001
0000
0010
0100
1000
0001
0100
0001
0010
0100
1000
0010
0001
0010
0100
,
2000
0200
0000
0000
0000
0000
0000
0000
0000
0000
0000
0000
3300
0001
0010
0100
,
0020
0002
0000
0000
0000
0000
0000
0000
0000
0000
0000
0000
0033
0100
1000
0001
,
0200
0020
0000
0000
0000
0000
0000
0000
0000
0000
0000
0000
0330
0001
1000
0100
,
0020
2000
0000
0000
0000
0000
0000
0000
0000
0000
0000
0000
3030
0100
0001
0100
,
2000
0002
0000
0000
0000
0000
0000
0000
0000
0000
0000
0000
3003
0010
0100
0010
,
0002
0200
0000
0000
0000
0000
0000
0000
0000
0000
0000
0000
0303
0010
0001
0010
,
2000
0200
0000
0000
0000
0000
0000
0000
0000
0000
0000
0000
3300
0010
0001
0010
,
0200
0002
0000
0000
0000
0000
0000
0000
0000
0000
0000
0000
0303
0000
0010
0100
,
1000
0010
0001
0000
0110
0000
0000
1000
0001
0100
0010
0000
1100
0000
0000
0001
,
0010
0001
0100
0000
1001
0000
0000
0001
0100
0010
1000
0000
0011
0000
0000
1000
,
0100
0010
0001
0000
1010
0000
0000
0100
0001
0100
0010
0000
1100
0000
0000
0010
,
1000
0010
0001
0000
0101
0000
0000
0001
0010
0100
1000
0000
1100
0000
0000
0100
,
0001
0010
0100
0000
1010
0000
0000
0010
0100
1000
0001
0000
0011
0000
0000
0010
,
1000
0100
0010
0000
0101
0000
0000
0001
0010
0100
1000
0000
1001
0000
0000
1000
,
0100
0010
0001
0000
0110
0000
0000
0100
0001
0100
1000
0000
1100
0000
0000
0100
,
0010
1000
0100
0000
0011
0000
0000
0001
0100
0010
1000
0000
1001
0000
0000
0010
,
1000
0100
0010
0000
0101
0000
0000
0001
0010
0100
1000
0000
1100
0000
0000
0100
,
0010
0001
0010
0001
0100
0010
0100
0010
1000
0100
1000
0100
1000
0001
1000
0001
,
2002
0000
0000
0000
3003
0000
0000
0000
0000
0000
1001
0000
0100
0001
0010
0000
,
2001
0000
0000
0000
0100
0000
3100
0010
0002
0000
0000
0000
0010
0000
1003
0010
,
0200
0000
0000
0000
0001
0000
0000
0000
1300
0001
1000
0010
0100
0001
0100
0000
,
0011
0001
1010
0100
1001
0010
0101
0010
,
2200
0000
0000
0000
0000
0000
0000
0000
3300
0000
0000
0001
0010
0100
1000
0000
,
2200
0000
0000
0000
0000
0000
3300
0000
0001
0200
0000
0000
0310
1000
0001
0000
,
2002
0000
0000
0000
0000
0000
3003
0000
0010
0200
0000
0000
0301
0010
0100
0000
,
1001
0000
0010
0100
1000
0010
1000
0000
0101
0000
0010
0000
1001
0000
0100
0000
,
0011
0000
0000
0000
1001
0000
1000
0000
1100
0000
0010
0100
0001
1000
0100
0000
,
0120
0000
0000
0000
0000
0000
1030
0001
0200
0000
0000
0000
0000
0000
0310
1000
,
0002
0000
0000
0000
0000
0000
0000
0000
1003
0100
0010
0001
0100
0010
1000
0001
,
0010
0100
1000
0001
1000
0100
0010
0000
0011
0000
1000
0000
0101
0000
0010
0000
,
2200
0000
0000
0000
0000
0000
0000
0000
3300
0000
0000
0000
0010
0100
1000
0000
,
0202
0000
0000
0000
0000
0000
0303
0000
0010
2000
0000
0000
3100
0010
0001
0000
,
2002
0000
0000
0000
0000
0000
3003
0000
0010
0200
0000
0000
0310
0001
1000
0000
,
1001
0100
0011
0100
1010
1000
0101
0010
,
1001
0000
0010
0000
2200
0000
3300
0001
0010
0100
1000
0000
2002
0000
3003
0100
,
0001
0010
0100
1000
0010
0100
1000
0100
0001
1000
0001
1000
0100
0010
0100
1000
,
0001
0010
0100
0000
0220
0000
0330
0001
1000
0001
0100
0000
0022
0000
0033
1000
,
0001
0010
0100
1000
0010
0100
0001
0010
0100
1000
0010
0100
0010
1000
0200
0000
,
2302
0000
3003
0010
0100
0001
0010
0000
2002
0000
3003
0100
0001
0010
0100
0000
,
2002
0000
3003
0100
1000
0010
0100
0000
2002
0000
3003
0010
0001
0100
0010
0000
,
1100
0110
0011
1001
1010
0110
0101
1001
,
1100
0000
1000
0100
0010
0001
0100
0010
0100
0001
1000
0001
1000
0100
0010
0001
,
2002
0000
0000
0000
,
0000
3003
0220
0330
;
