#TITLE:Zelda Theme;
#SUBTITLE:Stepped by Baku;
#ARTIST:Nintendo;
#TITLETRANSLIT:;
#SUBTITLETRANSLIT:;
#ARTISTTRANSLIT:;
#CREDIT:;
#BANNER:Zelda Themebanner.bmp;
#BACKGROUND:zelda-link2BG.jpg;
#LYRICSPATH:;
#CDTITLE:Baku2CD.bmp;
#MUSIC:Minibosses - Zelda (Rock).mp3;
#OFFSET:-0.780;
#SAMPLESTART:31.177;
#SAMPLELENGTH:12.000;
#SELECTABLE:YES;
#BPMS:0.000=90.000,16.000=180.000;
#STOPS:;
#BGCHANGES:;
// cache tags:
#FIRSTBEAT:0.000;
#LASTBEAT:228.000;
#SONGFILENAME:Songs/newbie/Zelda Rock/Zelda.SM;
#HASMUSIC:1;
#HASBANNER:1;
#MUSICLENGTH:83.573;
// end cache tags

//---------------dance-single - Hard----------------
#NOTES:
     dance-single:
     Hard:
     Hard:
     7:
     0.617,0.750,0.275,0.933,0.036,260.000,23.000,78.000,0.000,1.000:

2000
3000
1000
0000
1000
0001
1000
0100
,
1000
1000
2000
3000
0100
0000
0000
0000
1001
0000
0000
0000
0110
0000
0000
0000
,
2000
3000
0001
0000
1000
0100
1000
0100
,
1000
0100
2000
0000
0000
0000
0000
0000
0000
0000
0000
0000
3000
0000
0000
0000
,
1100
0000
0100
0010
0100
0000
0010
0001
,
0010
0000
0001
0010
0001
0000
1000
0100
,
1000
0000
0100
0010
0100
0000
1000
0100
,
1000
0000
0001
0010
0001
0000
0010
0001
,
0020
0000
0230
0000
,
0000
0300
1001
0000
0001
0010
0001
0010
,
0002
0000
1003
0000
1000
0100
1000
0010
,
0200
0301
1001
0110
,
0021
0000
0000
0000
0200
0000
0000
0030
,
0000
0000
1300
0000
1000
0001
0010
0001
,
1000
0000
1000
0000
0001
1000
0001
1000
,
0002
0000
0000
0000
0023
0000
0000
0030
,
2100
0000
3002
0000
,
0023
0000
0000
0000
0100
1000
0100
0130
,
2000
0000
0000
0000
0001
0010
0001
0010
,
3020
0000
0000
0000
0000
0000
0000
0000
0000
0030
0000
0000
2000
0000
0000
0000
0100
0000
0000
0000
0100
0000
0000
0000
,
3020
0000
0000
0000
2000
0030
0000
0000
,
3002
0000
0000
0000
0000
0000
0123
0000
0001
0000
0100
0000
,
2030
0000
0000
3000
2000
0000
0000
0000
,
3002
0000
0023
0000
,
0130
0000
1000
0001
2000
0000
0000
0000
,
3001
0020
0100
0100
,
0031
0000
1000
0100
2000
0000
0000
0000
,
0010
0000
0001
3000
0020
0000
0100
0000
,
1000
0000
0100
1000
0100
0000
0000
0031
,
2000
3002
2003
0000
,
3002
0000
1000
1003
0200
0000
0010
0010
,
0320
0000
0001
0001
0002
0003
0001
0001
,
0032
0000
0000
0000
2003
0000
0001
0001
,
3200
0000
0000
0000
0310
0010
0010
0100
,
0002
0003
0001
1000
2000
3000
0001
1000
,
2000
3000
0100
0010
0020
0030
0100
1000
,
0002
0003
0001
0010
0200
0300
0100
1000
,
0200
0300
1000
0001
2000
0000
3001
0010
,
0002
0000
1003
0100
2000
0000
3100
0010
,
0002
0003
0010
0001
0020
0030
0001
0010
,
0020
0001
1030
0100
1000
0100
1000
0100
,
2000
0000
3002
0000
,
0023
0000
0230
0000
,
2300
0000
3002
0000
,
0013
0100
0010
0100
1000
0100
1000
0100
,
2000
0000
0000
0000
3002
0000
0000
0003
,
0020
0000
0230
0000
,
2300
0000
3001
0010
,
0200
0000
1300
0100
2000
3000
0100
1000
,
1002
0003
0001
0010
0201
0300
0100
1000
,
0210
0300
0100
0010
2100
3000
0100
0010
,
1200
0300
0100
0001
0021
0030
0100
0001
,
1200
0300
0100
0010
0120
0030
0100
0010
,
1002
0003
0001
1000
1200
0300
0001
0010
,
0021
0000
0100
1000
,
0100
0000
0001
0030
1001
0100
0101
1100
,
0002
0000
0000
0000
,
1003
0000
0000
0000
,;

//---------------dance-single - Medium----------------
#NOTES:
     dance-single:
     Medium:
     Medium:
     5:
     0.349,0.375,0.012,0.431,0.012,167.000,1.000,36.000,0.000,0.000:

2000
0000
3000
0001
,
0010
0100
0020
0000
0000
0000
0000
0000
0000
0000
0000
0000
0030
0000
0000
0000
,
2000
0000
3000
0001
,
1000
0100
2000
0000
0000
0000
0000
0000
0000
0000
0000
0000
3000
0000
0000
0000
,
1000
0000
0100
1000
0100
0000
0000
0000
,
0100
0000
0010
0001
0010
0000
0001
0000
,
1000
0000
0100
0010
0100
0000
1000
0000
,
0100
0000
0010
0100
0010
0000
0100
0000
,
0200
0000
0000
0000
,
0300
0000
0001
0000
1000
0001
1000
0001
,
2000
0000
0000
0000
,
0000
0000
0000
0000
0000
3000
0000
0000
,
0010
0001
1000
0001
,
1000
0000
0100
0000
0010
0100
0010
0100
,
0020
0000
0000
0000
,
0000
0000
0000
0030
0000
0000
0000
0000
,
1000
0010
1000
0010
,
1000
0000
0100
1000
0100
0000
0010
0000
,
0001
1000
0001
1000
,
0001
1000
0001
1000
,
0002
0000
0000
0000
,
0000
0000
0000
0000
1003
0000
0100
1000
,
0200
0000
2300
0000
,
3002
0000
0013
0100
,
0100
1000
0100
1000
0100
0000
1000
0000
,
0100
0000
0010
0001
,
1000
0001
1000
0001
0010
0000
0100
0000
,
1000
0100
0010
0100
,
0010
0100
0010
0000
2000
0000
0000
0000
,
0000
3000
0002
0000
,
0023
0000
0000
0000
,
0100
1030
0100
1000
,
2000
0000
0000
3000
0200
0000
0000
0000
,
0000
0300
0010
0000
0001
0010
0001
0000
,
0002
0000
0000
0000
0000
0000
0000
0003
,
1000
0100
0001
0001
,
0002
0000
0000
0000
,
1003
0100
0200
0000
,
0320
0000
0032
0000
,
0000
0000
0000
0003
2000
0000
0000
0000
,
3020
0000
0000
0000
0000
0000
0000
0030
,
1000
0100
0200
0000
,
0320
0000
0032
0000
,
1003
0100
0210
0000
,
0300
0000
0010
0000
0010
0000
0100
0100
,
1000
0000
0000
0000
0002
0000
0000
0003
,
0020
0000
0032
0000
,
1003
0000
0100
0000
0200
0000
0000
0300
,
2000
0000
0000
0000
,
0000
0000
0000
3000
0010
0000
0010
0000
,
0002
0000
0000
0003
1000
0000
0100
0000
,
0010
0000
0001
0000
0010
0001
0010
0000
,
0002
0000
2003
0000
,
0000
3000
0100
0010
,
0100
0000
1000
0100
1000
0000
0100
0000
,
0001
0000
0100
0000
0100
0100
0100
0000
,
2000
0000
0000
0000
,
3001
0000
0000
0000
,;

//---------------dance-single - ----------------
#NOTES:
     dance-single:
     :
     Easy:
     2:
     0.152,0.171,0.000,0.275,0.000,66.000,0.000,23.000,0.000,0.000:

2000
0000
0000
3000
,
0002
0000
0000
0003
,
2000
0000
0000
3000
,
0020
0000
0000
0030
,
1000
0000
1000
0000
,
1000
0000
1000
0000
,
1000
0000
1000
0000
,
1000
0000
0010
0000
,
0020
0000
0000
0000
,
0000
0000
0030
0000
,
0002
0000
0000
0000
,
0000
0000
0003
0000
,
0200
0000
0000
0000
,
0300
0000
0000
0000
,
2000
0000
0000
0000
,
3000
0000
0000
0000
,
0010
0000
0010
0000
,
0001
0000
0001
0000
,
0100
0000
0100
0000
,
0100
0000
1000
0000
,
1000
0000
0010
0000
,
0001
0000
1000
0000
,
2000
0000
0000
0000
,
3000
0000
0010
0000
,
0020
0000
0000
0000
,
0030
0000
0001
0000
,
0002
0000
0000
0000
,
0003
0000
1000
0000
,
2000
0000
0000
0000
,
3000
0000
0100
0000
,
0200
0000
0000
0000
,
0000
0000
0000
0300
,
0010
0000
0010
0000
,
0001
0000
0001
0000
,
0001
0000
0001
0000
,
1000
0000
0100
0000
,
0100
0000
0100
0000
,
1000
0000
0100
0000
,
0200
0000
0000
0000
,
0000
0000
0300
0000
,
2000
0000
0000
0000
,
3000
0000
0000
0000
,
0020
0000
0000
0030
,
0001
0000
0001
0000
,
2000
0000
0000
0000
,
3000
0000
0010
0000
,
0020
0000
0000
0000
,
0030
0000
0001
0000
,
0002
0000
0000
0000
,
0000
0003
1000
0000
,
2000
0000
0000
0000
,
0000
3000
0100
0000
,
0020
0000
0000
0000
,
0000
0030
0001
0000
,
0002
0000
0000
0000
,
0000
0000
0003
0000
,
2000
0000
0000
0000
,
3000
0000
0000
0000
,;
