#TITLE:Sky Girls Opening;
#SUBTITLE:Baby's Tears;
#ARTIST:小坂りゆ;
#TITLETRANSLIT:;
#SUBTITLETRANSLIT:;
#ARTISTTRANSLIT:Riyu Kosaka;
#CREDIT:Jubo;
#BANNER:Sky Girls OP Banner.avi;
#BACKGROUND:Sky Girls OP BG1.jpg;
#LYRICSPATH:Sky Girls OP.lrc;
#CDTITLE:Jubo.png;
#MUSIC:Sky Girls OP.mp3;
#OFFSET:1.105;
#SAMPLESTART:32.291;
#SAMPLELENGTH:30.000;
#SELECTABLE:YES;
#BPMS:0.000=85.000,46.000=170.000,212.000=127.500,213.500=85.000;
#STOPS:48.000=0.350
;
#BGCHANGES:3.000=Sky Girls OP.avi=1.000=1=0=0,
218.500=Sky Girls OP BG2.jpg=1.000=1=0=0,
99999=-nosongbg-=1.000=0=0=0 // don't automatically add -songbackground-
;
// cache tags:
#FIRSTBEAT:3.500;
#LASTBEAT:219.500;
#SONGFILENAME:Songs/dragon force/Sky Girls OP/Sky Girls OP.sm;
#HASMUSIC:1;
#HASBANNER:1;
#MUSICLENGTH:99.996;
// end cache tags

//---------------dance-single - ----------------
#NOTES:
     dance-single:
     :
     Hard:
     8:
     0.569,0.549,0.260,0.210,0.075,351.000,26.000,21.000,0.000,0.000:
0000
0000
0000
0000
0000
0000
0000
2000
,
0000
0000
0000
0000
0000
0000
0000
0000
3001
0000
0000
0100
0000
0000
0010
0000
,
0002
0000
0000
0003
0000
0000
1000
0100
0001
0000
0000
0010
0000
0000
0100
0000
,
2002
0000
0000
0000
0000
0000
0000
0000
0000
0000
0000
0000
0000
3003
0000
0000
,
0100
0000
0010
0000
1000
0000
0001
0000
2002
0000
0000
0000
3003
0000
0010
0100
,
0020
0000
0030
2000
0000
0000
3001
0000
0020
0000
0000
0030
0100
0000
0010
0000
,
0002
0000
0103
0000
0010
0000
1000
0000
0002
0000
0000
0003
2000
0000
3000
0000
,
0220
0000
0000
0000
0000
0330
0010
1000
0200
0000
0000
0000
0301
0000
1000
0000
,
0001
0000
0100
0010
0000
0000
1000
0000
0001
0000
0000
0000
0000
0001
0100
0010
,
1000
0000
0001
1000
0000
0000
0100
0000
0010
0000
0000
0000
0000
1000
0010
0100
,
0001
0000
0000
0010
1000
0000
0000
0100
0001
0000
1000
0000
0001
0000
0100
0000
,
0010
0000
1000
0002
0000
0000
0000
0000
0010
0000
0000
0000
1000
0000
0003
0000
,
1001
0000
1000
0010
0100
0001
0010
0100
,
1000
0001
0010
1000
0100
0001
0010
0100
,
0010
0100
1000
0010
1000
0100
0001
0010
,
1000
0100
0010
0001
1000
0100
0010
0100
,
0010
0001
0010
0100
0010
0100
1000
0001
,
1000
0001
0010
0100
1000
0001
1000
0001
,
0100
0010
1000
0100
0010
0001
0100
0010
,
1000
0001
0010
0100
1000
0010
0100
0001
,
1000
0000
0100
0010
1000
0000
0010
0100
,
0001
0000
1000
0001
0100
0000
0001
1000
,
0010
0000
0001
1000
0010
0000
0001
0010
,
1000
0100
0001
1000
0010
1000
1010
0000
,
1000
0000
0001
1000
0010
0100
0001
0100
,
0010
1000
0100
0010
0001
0010
0100
1000
,
0010
0100
0001
0100
0010
1000
0100
0010
,
0001
0001
0010
0100
1000
0000
1100
0000
,
1100
0000
0000
0000
0010
0000
0100
0000
0010
0000
0200
0000
0000
0300
0000
0000
,
0110
0000
0010
0010
1010
0000
1000
1000
,
1001
0000
0001
0001
0101
0000
0100
0100
,
0110
0000
0010
0010
1010
0000
1000
1000
,
1100
0000
0100
0100
0101
0000
0001
0001
,
1001
0000
1000
0100
0010
0001
0010
0100
,
1000
0100
1000
0100
1000
0100
0010
0001
,
0010
0100
1000
1000
0100
0010
0001
0010
,
0001
0010
0001
0000
0110
0110
0000
1001
,
1001
0000
0010
0001
1000
0100
0001
0100
,
0010
0001
0010
1000
0100
0001
1000
0001
,
1000
0010
0001
1000
0100
0010
0001
0010
,
0100
0010
0100
0001
0010
0100
1000
0000
,
0110
0000
0010
0100
0010
0001
0100
0010
,
1000
0010
0100
0001
0010
0001
0010
0100
,
1000
0100
1000
0010
0100
0001
0100
0010
,
1000
0010
0100
0001
0100
0010
0000
1010
,
1010
0000
1001
0000
2002
0000
0000
0000
0000
3003
0000
0000
0000
0000
0000
0000
,
0100
0001
0100
0010
0100
0000
0001
1000
,
0100
0010
0001
0000
0010
0000
1000
0000
,
0010
1000
0010
0100
0010
0000
1000
0001
,
0010
0100
1000
0000
0010
0000
1000
0001
,
1000
0100
1000
0000
0100
0000
0001
1000
,
0001
0010
0001
0000
1000
0000
0001
1000
,
0001
0100
0010
1000
0100
0010
0001
0010
,
0100
1000
0000
2002
0000
0000
0000
0000
,
0000
0000
0000
0000
0000
0000
0000
3003
;

//---------------dance-single - ----------------
#NOTES:
     dance-single:
     :
     Medium:
     5:
     0.351,0.384,0.340,0.200,0.000,192.000,34.000,20.000,0.000,0.000:
0000
0000
0000
0000
0000
0000
0000
2002
,
0000
0000
3003
0000
,
0020
0000
0000
0000
0000
0000
0000
0030
2000
0000
0000
0000
0000
0000
0000
3000
,
0002
0000
0000
0000
0000
0000
0000
0003
0200
0000
0000
0000
0000
0000
0000
0300
,
1001
0100
0010
0001
,
1001
0010
0100
1000
,
1001
0010
0100
0001
,
1001
0100
0010
1000
,
2001
0000
0000
0000
0010
0000
0000
3000
0020
0000
0000
0000
0100
0000
0000
0030
,
0200
0000
0000
0000
0001
0000
0000
0300
0002
0000
0000
0000
1000
0000
0000
0003
,
1000
0001
1000
0001
,
0010
0100
0010
0100
0110
0000
0110
0000
,
1001
1000
0010
0100
,
0001
1000
0010
0100
,
0001
1000
0010
1000
,
0010
0100
0001
0010
,
1000
0100
0010
0001
,
0010
0100
1000
0010
,
1000
0001
0100
0010
,
0001
1000
0100
1000
,
0010
0000
1001
0000
0000
1010
0000
0000
,
1100
0000
0101
0000
0000
0011
0000
0000
,
1010
0000
0110
0000
0000
1001
0000
0000
,
1001
0000
0101
0000
0000
1001
0000
0000
,
1100
1000
0010
0100
,
0001
0010
0100
1000
,
0010
0100
0001
0010
,
1000
0100
0010
0001
,
1000
0000
0001
0000
1000
0001
0000
0000
,
1001
1000
0010
0100
,
0001
1000
0010
0100
,
0001
0010
1000
0010
,
0100
0001
0010
1000
,
0100
0010
0100
0001
,
0010
1000
0100
0010
,
1000
0001
0100
0010
,
0001
0000
1001
0000
0000
0110
0000
0000
,
1001
1000
0010
0100
,
0001
0100
0010
1000
,
0100
0010
0001
0010
,
0100
1000
0010
0100
,
0001
1000
0010
0100
,
1000
0100
0010
1000
,
0001
0100
0010
1000
,
0001
0100
0010
0001
,
1000
1002
0010
0010
,
0000
0003
0021
0000
0100
0000
0100
0000
,
0000
0030
0210
0000
1000
0000
1000
0000
,
0000
0300
2100
0000
0001
0000
0001
0000
,
0000
3000
1002
0000
0100
0000
0100
0000
,
0000
0003
0201
0000
0010
0000
0010
0000
,
0000
0300
0120
0000
0001
0000
0001
0000
,
0000
0030
0012
0000
1000
0000
1000
0000
,
0003
0000
0000
0220
0000
0000
0000
0000
,
0000
0000
0000
0000
0000
0000
0000
0330
;

//---------------dance-single - ----------------
#NOTES:
     dance-single:
     :
     Easy:
     3:
     0.179,0.247,0.100,0.260,0.000,89.000,10.000,26.000,0.000,0.000:
0000
0000
0000
0000
,
0000
0000
1000
0000
,
0010
0000
0100
0000
,
0001
0000
0000
0000
,
0010
0000
0100
0000
,
1000
0000
0001
0000
,
0100
0000
0010
0000
,
0001
0000
1000
0000
,
0002
0000
2003
0000
,
3020
0000
0032
0000
,
2003
0000
3002
0000
,
0203
0000
0300
0000
,
1001
0000
1000
0000
,
0010
0000
0100
0000
,
0010
0000
1000
0000
,
0001
0000
0100
0000
,
0010
0000
1000
0000
,
1000
0000
0010
0000
,
0100
0000
0001
0000
,
0001
0000
1000
0000
,
0000
1000
0000
0000
,
0000
0010
0000
0000
,
0000
0100
0000
0000
,
0000
0010
0000
0000
,
0000
1000
0000
0000
,
0000
0001
0000
0000
,
0000
0100
0000
0000
,
0000
0010
0000
0000
,
0000
2000
0000
0000
,
3001
1000
0000
0010
,
0000
0100
0000
0001
,
0000
1000
0000
0010
,
0000
0100
0000
0100
,
0000
0010
0010
0000
,
0100
1000
1000
0000
,
0010
0001
0001
0000
,
0100
1000
1000
0000
,
0000
0001
0000
0100
,
0000
0010
0000
1000
,
0000
0010
0000
0100
,
0000
0001
0000
0100
,
0000
0010
0000
1000
,
0000
0010
0000
0100
,
0000
0001
0000
1000
,
0000
0010
0000
1000
,
0000
2002
0000
0000
,
0000
3003
0022
0000
0000
0000
0000
0000
,
0000
0033
0220
0000
0000
0000
0000
0000
,
0000
0330
2200
0000
0000
0000
0000
0000
,
0000
3300
2002
0000
0000
0000
0000
0000
,
0000
3003
0202
0000
0000
0000
0000
0000
,
0000
0303
0220
0000
0000
0000
0000
0000
,
0000
0330
0022
0000
0000
0000
0000
0000
,
0033
0000
0000
2002
0000
0000
0000
0000
,
0000
0000
0000
0000
0000
0000
0000
3003
;

//---------------dance-single - ----------------
#NOTES:
     dance-single:
     :
     Beginner:
     1:
     0.081,0.137,0.000,0.050,0.000,52.000,0.000,5.000,0.000,0.000:
0000
0000
0000
0000
,
0000
0000
1000
0000
,
0000
0000
1000
0000
,
0000
0000
1000
0000
,
0010
0000
0010
0000
,
0010
0000
0010
0000
,
0100
0000
0100
0000
,
0100
0000
0100
0000
,
0001
0000
0001
0000
,
0001
0000
0001
0000
,
1000
0000
1000
0000
,
1000
0000
0000
0000
,
1000
0000
0000
0000
,
0000
1000
0000
0000
,
0000
0000
0000
0000
,
0000
0010
0000
0000
,
0000
0000
0000
0000
,
0000
0100
0000
0000
,
0000
0000
0000
0000
,
0000
0000
0000
0000
,
0000
0010
0000
0000
,
0000
0010
0000
0000
,
0000
0010
0000
0000
,
0000
0010
0000
0000
,
0000
0001
0000
0000
,
0000
0001
0000
0000
,
0000
0001
0000
0000
,
0000
1000
0000
0000
,
0000
0010
0000
0000
,
0000
0100
0000
0000
,
0000
0100
0000
0000
,
0000
0100
0000
0000
,
0000
0100
0000
0000
,
0000
0001
0000
0000
,
0000
1000
0000
0000
,
0000
0001
0000
0000
,
0000
1000
0000
0000
,
0000
0100
0000
0000
,
0000
0100
0000
0000
,
0000
0010
0000
0000
,
0000
0010
0000
0000
,
0000
1000
0000
0000
,
0000
0001
0000
0000
,
0000
1000
0000
0000
,
0000
0001
0000
0000
,
0000
2000
0000
0000
,
0000
0000
0000
0000
,
3000
0020
0000
0000
,
0000
0000
0000
0000
,
0030
0200
0000
0000
,
0000
0000
0000
0300
,
0000
0002
0000
0000
,
0000
0000
0000
0003
,
0000
0000
0000
2000
0000
0000
0000
0000
,
0000
0000
0000
0000
0000
0000
0000
3000
;

//---------------dance-single - Keyboard Steps----------------
#NOTES:
     dance-single:
     Keyboard Steps:
     Challenge:
     10:
     0.820,0.851,1.000,0.350,0.075,384.000,155.000,35.000,0.000,0.000:
0000
0000
0000
0000
0000
0000
0000
2000
,
0000
0000
0000
0000
0000
0000
0000
0000
3001
0000
0000
0100
0000
0000
0010
0000
,
0022
0000
0000
0033
0000
0000
1000
0100
0110
0000
0000
0010
0000
0000
0100
0000
,
2010
0000
0100
0000
0010
0000
0001
0000
0010
0000
0100
0000
0010
3000
0001
0000
,
0101
0000
0010
0000
1000
0000
0001
0000
2020
0000
0000
0000
3030
0000
0010
0100
,
0220
0000
0330
2000
0000
0000
3001
0000
0022
0000
0000
0033
0100
0000
0010
0000
,
0102
0000
0103
0000
0010
0000
1000
0000
2020
0000
0000
3030
0200
0000
0300
0000
,
2002
0000
0000
0000
0000
3003
0100
1000
2020
0000
0000
3030
0100
0000
1000
0000
,
1100
0000
0100
0010
0110
0000
1000
0000
1001
0000
0000
0000
1001
0001
0100
0010
,
1000
0000
0001
1000
1010
0000
0100
0000
0220
0000
0000
0330
1010
1000
0010
0100
,
0110
0000
0000
0010
1010
0000
0000
0100
0101
0000
0001
0000
1001
0000
1000
0000
,
0010
0000
0100
0002
0000
0000
0000
0000
1000
0000
0000
0000
1000
0000
0003
0000
,
1001
0000
1010
0010
0110
0001
0011
0100
,
1100
0001
0011
1000
1100
0001
0011
0100
,
0110
0100
1010
0010
1100
0100
0101
0010
,
1010
0100
0110
0001
1001
0100
0110
0100
,
0011
0001
0110
0100
1010
0100
1100
0001
,
1001
0001
0110
0100
1100
0001
1001
0001
,
0110
0010
1010
0100
0110
0001
0101
0010
,
1010
0001
0011
0100
1100
0010
0110
0001
,
1001
0000
0110
0010
1010
0010
0110
0100
,
0101
0100
1100
0001
0101
0001
0011
1000
,
1010
1000
1001
0010
0110
0010
0011
0100
,
1100
0100
0101
1000
1010
1000
1100
0000
,
1001
0000
0110
1000
1010
0100
0101
0100
,
0110
1000
1100
0010
0011
0010
0110
1000
,
1010
0100
0101
0100
0110
1000
0110
0010
,
0011
0001
0110
0100
1100
0001
1001
1000
,
1010
0000
1001
0000
0110
0000
1001
0000
0110
0000
2002
0000
0000
3003
0000
0000
,
1001
0000
0110
0010
1010
0000
1100
1000
,
1001
0000
0011
0001
0101
0000
0101
0100
,
0110
0000
0110
0010
1010
0000
1001
1000
,
1100
0000
0110
0100
0101
0000
0011
0001
,
1001
0000
1100
0100
0110
0010
0011
0100
,
0110
1000
0011
0100
1001
0100
0110
0001
,
0011
0100
1100
0100
0110
0001
0011
0100
,
0101
0100
1100
0000
1100
1100
0000
1001
,
1001
0000
0010
0001
1001
0100
0001
0100
,
0110
0001
0010
1000
0101
0001
1000
0001
,
1010
0010
0001
1000
1100
0010
0001
1000
,
0110
0100
0010
0001
1001
0010
0100
0000
,
0110
0000
0010
0100
0110
0001
0100
0010
,
1010
0010
0100
0001
0011
0001
0010
0100
,
1100
0100
0010
0110
0110
0101
0101
1010
,
1010
0110
0110
0101
0101
0110
1010
1100
,
1010
0000
1001
0000
2002
0000
0000
0000
0000
3003
0000
0000
0001
0000
0010
0000
,
0100
0001
0200
0310
0100
0010
0001
1000
,
0100
0010
0002
0013
0100
1000
0100
0010
,
0001
1000
0020
0130
0010
0100
1000
0001
,
0010
0100
2000
3100
0010
0001
0010
0100
,
1000
0100
2000
3001
0100
0010
1000
0100
,
0001
0010
0002
1003
0100
0010
0001
1000
,
0010
0100
0002
1003
0100
0010
0001
0010
,
0100
1000
0000
2002
0000
0000
0000
0000
,
0000
0000
0000
0000
0000
0000
0000
3003
;
