#TITLE:X Soldier Storm;
#SUBTITLE:;
#ARTIST:Kommisar;
#TITLETRANSLIT:;
#SUBTITLETRANSLIT:;
#ARTISTTRANSLIT:;
#CREDIT:Mad Matt;
#BANNER:../Tachyon Spectrum-bn.png;
#BACKGROUND:../Tachyon Spectrum-bg.png;
#LYRICSPATH:;
#CDTITLE:;
#MUSIC:X Soldier Storm.ogg;
#OFFSET:-0.036;
#SAMPLESTART:42.532;
#SAMPLELENGTH:12.000;
#SELECTABLE:YES;
#DISPLAYBPM:260.000;
#BPMS:0.000=260.000;
#STOPS:;
#BGCHANGES:;
// cache tags:
#FIRSTBEAT:40.000;
#LASTBEAT:476.000;
#SONGFILENAME:Songs/Tachyon Spectrum/X Soldier Storm - [Mad Matt]/X Soldier Storm.sm;
#HASMUSIC:1;
#HASBANNER:1;
#MUSICLENGTH:111.412;
// end cache tags

//---------------dance-single - Mad Matt----------------
#NOTES:
     dance-single:
     Mad Matt:
     Challenge:
     20:
     1.000,1.000,0.072,0.269,1.000,803.000,8.000,30.000,0.000,0.000:

0000
0000
0000
0000
,
0000
0000
0000
0000
,
0000
0000
0000
0000
,
0000
0000
0000
0000
,
0000
0000
0000
0000
,
0000
0000
0000
0000
,
0000
0000
0000
0000
,
0000
0000
0000
0000
,
0000
0000
0000
0000
,
0000
0000
0000
0000
,
2000
0000
0000
0000
,
0000
0000
0000
0000
,
3002
0000
0000
0000
,
0000
0000
0000
0000
,
0023
0000
0000
0000
,
0230
0000
0000
0000
,
0000
0000
0000
0000
,
0000
0000
0000
0000
,
2300
0000
0000
0000
,
0000
0000
0000
0000
,
3001
0100
0001
1000
0001
0100
0010
0100
,
0001
0100
0001
0100
0010
1000
0010
0100
,
0001
0010
0001
1000
0001
0010
0100
0010
,
0001
0010
0001
0010
0100
1000
0100
0010
,
0001
1000
0001
0100
0000
0010
0100
0000
,
0001
1000
0001
0100
0000
0010
0100
0000
,
0001
1000
0001
0100
0000
0010
0100
0000
,
0001
1000
0001
0100
0000
0010
0100
0000
,
0001
1000
0001
0010
0000
0100
0010
0000
,
0001
1000
0001
0010
0000
0100
0010
0000
,
0001
1000
0001
0100
0000
0010
0100
0000
,
0001
1000
0001
0100
0000
0010
0100
0000
,
0001
0000
0000
0100
0110
0000
0000
0010
,
1000
1000
1001
0000
,
0001
0000
0000
0100
0110
0000
0000
0010
,
1000
0000
1000
0000
1010
0010
0100
0000
,
0001
0000
0000
0010
0110
0000
0000
0100
,
1000
1000
1001
0000
,
0001
0000
0000
0010
0110
0000
0000
0100
,
1000
0000
1000
0000
1100
0100
0010
0100
,
0010
0001
1000
0001
0100
0001
1000
0100
,
1000
0001
0100
0001
1000
0100
1000
0020
,
0000
0000
0000
0000
,
0130
0000
0001
0000
0100
0000
0001
0000
0100
0001
0010
0100
1000
0010
0100
0001
,
1000
0000
0001
1000
0000
0001
0100
0010
,
1000
0000
0001
0100
0001
0000
1000
0000
0010
0000
1000
0000
0001
0000
0010
0000
,
0100
0000
0010
0100
0000
0010
0001
1000
,
0010
0100
0010
0100
0001
0100
0001
1000
,
0100
0000
1000
0100
0000
1000
0001
0100
,
0010
0000
1000
0100
1000
0000
0001
0000
0100
0000
0010
0000
1000
0000
0001
0000
,
0100
0000
0001
0100
0000
0001
1000
0100
,
0010
0001
0010
0001
1000
0001
1000
0010
,
0200
0000
0000
0000
0000
0000
0301
1000
,
0000
1000
0000
1000
0010
0100
0010
1000
,
0200
0000
0000
0000
0000
0310
0001
0010
,
0100
0010
0100
0000
1000
0000
1000
0000
,
0020
0000
0000
0000
0000
0000
0000
0000
0000
0030
1000
0000
0000
0000
1000
0000
,
0010
1000
0100
1000
0001
1000
0200
0000
,
0320
0000
0000
0000
0000
0000
0000
0030
,
0001
0010
0001
0100
0010
1000
0001
1000
0100
1000
0010
0100
0001
1000
0100
0000
,
0010
0002
0000
0000
0000
1003
0010
0100
,
0000
0100
0000
0100
0002
0000
2003
0000
,
3200
0000
0000
2300
0000
0000
3020
0000
,
0230
0000
0302
0000
,
1003
0100
0010
0001
0100
0001
1000
0100
,
0010
0001
0100
0001
2000
0000
3200
0000
,
0320
0000
0000
0000
,
0031
1000
0100
1000
0010
0100
0010
1000
0001
0010
0100
0010
0001
1000
0010
0100
,
0001
0000
0100
0010
0000
0100
0001
0000
,
1000
0010
0100
0001
2000
0000
3002
0000
,
1003
0100
0010
0100
1000
0001
1000
0010
0100
0010
1000
0001
1000
0100
0010
0100
,
1000
0010
0100
0001
1000
0100
0010
0100
1000
0010
0100
0001
1000
0100
0010
0100
,
1000
0001
0100
0010
1000
0100
1000
0010
1000
0001
0100
0001
0010
0001
1000
0010
,
0100
0001
1000
0100
0010
0001
0100
0001
1000
0100
0010
0100
1000
0010
0100
0001
,
1000
0100
0010
0001
1000
0010
0100
0001
1000
0100
0010
0001
1000
0010
0100
0001
,
1000
0100
1000
0010
0100
0001
1000
0100
0010
0001
0100
0010
1000
0001
0010
0001
,
0100
0010
0100
0001
1000
0001
0010
0100
0010
0001
0100
0001
1000
0100
1000
0010
,
0100
0010
1000
0001
1000
0100
0010
0100
1000
0010
1000
0001
0010
0001
1000
0010
,
0100
0001
1000
0100
1000
0010
1000
0001
0100
0001
1000
0100
0010
0001
0100
0010
,
1000
0001
1000
0100
1000
0001
0100
0010
1000
0001
0010
0001
0100
0001
1000
0100
,
0010
0001
0100
0010
1000
0001
1000
0100
1000
0010
0100
0001
0010
0100
0010
0001
,
1000
0010
0100
0001
1000
0100
0010
0001
1000
0010
0100
0001
1000
0100
0010
0001
,
2000
0000
0000
0000
,
3002
0000
0000
0000
,
1003
0000
0100
0010
0000
0100
1000
0000
,
0001
0010
0100
1000
0002
0000
2003
0000
,
3001
0100
0010
0100
0001
1000
0001
0010
0100
0010
0001
1000
0001
0100
0010
0100
,
0001
0010
0100
1000
0001
0100
0010
0100
0001
0010
0100
1000
0001
0100
0010
0100
,
0001
1000
0100
0010
0001
0100
0001
0010
0001
1000
0100
1000
0010
1000
0001
0010
,
0100
1000
0001
0100
0010
1000
0100
1000
0001
0100
0010
0100
0001
0010
0100
1000
,
0001
0100
0010
1000
0001
0010
0100
1000
0001
0100
0010
1000
0001
0010
0100
1000
,
0001
0100
0001
0010
0100
1000
0001
0100
0010
1000
0100
0010
0001
1000
0010
1000
,
0100
0010
0100
1000
0001
1000
0010
0100
0010
1000
0100
1000
0001
0100
0001
0010
,
0100
0010
0001
1000
0001
0100
0010
0100
0001
0010
0001
1000
0010
1000
0001
0010
,
0100
1000
0001
0100
0001
0010
0001
1000
0100
1000
0001
0100
0010
1000
0100
0010
,
0001
1000
0001
0100
0001
1000
0100
0010
0001
1000
0010
1000
0100
1000
0001
0100
,
0010
1000
0100
0010
0001
1000
0001
0100
0001
0010
0100
1000
0010
0100
0010
1000
,
0001
0010
0100
1000
0001
0100
0010
1000
0001
0010
0100
1000
0001
0100
0010
1000
,
0002
0000
0000
0000
,
2003
0000
0000
0000
,
3001
0000
0000
1000
0000
0000
0100
0000
,
0000
0001
1000
0100
,
1000
0000
0000
0001
0000
0000
0100
0000
,
0000
1000
0000
0000
0001
0000
0100
0000
,
0001
0000
0000
1000
0000
0000
0100
0000
,
0000
0001
1000
0100
,
1000
0010
0100
0010
1000
0001
0010
0001
0100
0001
1000
0010
0100
0010
1000
0001
,
0010
0100
0010
0001
1000
0010
1000
0100
1000
0001
0100
0010
0100
0001
1000
0100
,
1000
0000
0000
0001
0000
0000
0100
0000
,
0000
1000
0001
0100
,
0001
0000
0000
1000
0000
0000
0100
0000
,
0000
0001
0000
0000
1000
0000
0100
0000
,
1000
0000
0000
0001
0000
0000
0100
0000
,
0000
1000
0001
0100
,
0001
0010
0100
0010
0001
1000
0010
1000
0100
1000
0001
0010
0100
0010
0001
1000
,
0010
0100
0010
1000
0001
0010
0001
0100
0001
1000
0100
0010
0001
0100
0010
1000
,
0004
0000
0000
0000
,
0000
0000
0000
0000
,
0000
0000
0000
0000
,
0003
0000
0000
0000
;

//---------------dance-single - Tachyon Delta----------------
#NOTES:
     dance-single:
     Tachyon Delta:
     Easy:
     19:
     1.000,1.000,0.081,0.269,1.000,802.000,9.000,30.000,0.000,0.000:


0000
0000
0000
0000
,
0000
0000
0000
0000
,
0000
0000
0000
0000
,
0000
0000
0000
0000
,
0000
0000
0000
0000
,
0000
0000
0000
0000
,
0000
0000
0000
0000
,
0000
0000
0000
0000
,
0000
0000
0000
0000
,
0000
0000
0000
0000
,
2000
0000
0000
0000
,
0000
0000
0000
0000
,
3002
0000
0000
0000
,
0000
0000
0000
0000
,
0023
0000
0000
0000
,
0230
0000
0000
0000
,
0000
0000
0000
0000
,
0000
0000
0000
0000
,
2300
0000
0000
0000
,
0000
0000
0000
0000
,
3001
0100
0001
1000
0001
0100
0010
0100
,
0001
0100
0001
0100
0010
1000
0010
0100
,
0001
0010
0001
1000
0001
0010
0100
0010
,
0001
0010
0001
0010
0100
1000
0100
0010
,
0001
1000
0001
0100
0000
0010
0100
0000
,
0001
1000
0001
0100
0000
0010
0100
0000
,
0001
1000
0001
0100
0000
0010
0100
0000
,
0001
1000
0001
0100
0000
0010
0100
0000
,
0001
1000
0001
0010
0000
0100
0010
0000
,
0001
1000
0001
0010
0000
0100
0010
0000
,
0001
1000
0001
0100
0000
0010
0100
0000
,
0001
1000
0001
0100
0000
0010
0100
0000
,
0001
0000
0000
0100
0110
0000
0000
0010
,
1000
1000
1001
0000
,
0001
0000
0000
0100
0110
0000
0000
0010
,
1000
0000
1000
0000
1010
0010
0100
0000
,
0001
0000
0000
0010
0110
0000
0000
0100
,
1000
1000
1001
0000
,
0001
0000
0000
0010
0110
0000
0000
0100
,
1000
0000
1000
0000
1100
0100
0010
0100
,
0010
0001
1000
0001
0100
0001
1000
0100
,
1000
0001
0100
0001
1000
0100
1000
0020
,
0000
0000
0000
0000
,
0130
0000
0001
0000
0100
0000
0001
0000
1000
0100
1000
0001
0100
0001
1000
0001
,
1000
0000
0001
1000
0000
0001
0100
0010
,
1000
0000
0001
0100
0001
0000
1000
0000
0010
0000
1000
0000
0001
0000
0010
0000
,
0100
0000
0010
0100
0000
0010
0001
1000
,
0010
0100
0010
0100
0001
0100
0001
1000
,
0100
0000
1000
0100
0000
1000
0001
0100
,
0010
0000
1000
0100
1000
0000
0001
0000
0100
0000
0010
0000
1000
0000
0001
0000
,
0100
0000
0001
0100
0000
0001
1000
0100
,
0010
0001
0010
0001
1000
0001
1000
0010
,
0200
0000
0000
0000
0000
0000
0301
1000
,
0000
1000
0000
1000
0010
0100
0010
1000
,
0200
0000
0000
0000
0000
0310
0001
0010
,
0100
0010
0100
0000
1000
0000
1000
0000
,
0020
0000
0000
0000
0000
0000
0000
0000
0000
0030
1000
0000
0000
0000
1000
0000
,
0010
1000
0100
1000
0001
1000
0200
0000
,
0320
0000
0000
0000
0000
0000
0000
0030
,
0001
1000
0100
1000
0001
0010
0001
1000
0100
0010
0001
1000
0001
1000
0100
0000
,
0010
0002
0000
0000
0000
1003
0010
0100
,
0000
0100
0000
0100
0002
0000
2003
0000
,
3200
0000
0000
2300
0000
0000
3020
0000
,
0230
0000
0302
0000
,
1003
0100
0010
0001
0100
0001
1000
0100
,
0010
0001
0100
0001
2000
0000
3200
0000
,
0320
0000
0000
0000
,
0031
1000
0100
1000
0100
0010
0001
0010
0100
1000
0001
0010
0100
1000
0001
1000
,
0001
0000
0100
0010
0000
0100
0001
0000
,
1000
0010
0100
0001
2000
0000
3002
0000
,
1003
0010
0100
0001
1000
0010
1000
0001
0100
0010
1000
0001
0100
0001
1000
0010
,
0100
0001
1000
0001
0100
0010
1000
0010
0100
0001
1000
0010
1000
0001
0100
0001
,
1000
0100
1000
0001
0010
0001
1000
0100
0010
0001
1000
0001
0010
0100
1000
0001
,
0010
0100
1000
0100
1000
0001
0010
0100
1000
0001
0010
0001
0010
0100
1000
0001
,
1000
0010
0100
0001
1000
0010
0100
0001
1000
0010
0100
0001
1000
0010
0100
0001
,
1000
0001
0100
0010
1000
0001
0100
0001
1000
0010
1000
0001
0100
0010
1000
0001
,
0100
0001
1000
0100
1000
0001
0010
0001
1000
0100
0010
0001
1000
0001
0010
0100
,
1000
0001
0010
0100
1000
0001
1000
0100
0010
0001
0010
0100
1000
0001
1000
0010
,
0100
0001
1000
0010
1000
0001
0100
0001
1000
0010
0100
0001
1000
0001
0100
0010
,
1000
0010
0100
0001
1000
0010
1000
0001
0100
0001
1000
0010
0100
0001
1000
0001
,
0010
0100
1000
0001
0010
0001
1000
0100
1000
0001
0010
0100
1000
0001
1000
0100
,
0010
0001
1000
0001
0010
0100
1000
0001
1000
0001
0010
0001
0010
0100
1000
0001
,
2000
0000
0000
0000
,
3002
0000
0000
0000
,
1003
0000
0100
0010
0000
0100
1000
0000
,
0001
0010
0100
1000
0002
0000
2003
0000
,
3001
0010
0100
1000
0001
0010
0001
1000
0100
1000
0001
0010
0100
1000
0001
0010
,
0100
1000
0100
1000
0001
0010
0100
1000
0001
0010
0001
0010
0100
1000
0001
1000
,
0010
0100
0001
1000
0010
1000
0001
0100
0010
1000
0001
1000
0010
0100
0001
1000
,
0010
1000
0001
0100
0001
1000
0010
0100
0001
1000
0001
0100
0001
1000
0010
1000
,
0001
0010
0100
1000
0001
0010
0100
1000
0001
0010
0100
1000
0001
0010
0100
1000
,
0001
1000
0100
0010
0001
1000
0100
1000
0100
0010
0001
1000
0100
0010
0001
0010
,
0001
1000
0010
1000
0001
0100
0001
1000
0010
0100
0001
0100
0001
1000
0010
0100
,
0001
1000
0010
1000
0010
0100
0001
1000
0010
1000
0001
0100
0001
1000
0010
0100
,
0001
1000
0001
0010
0100
1000
0001
1000
0100
0010
0001
1000
0001
0010
0100
1000
,
0001
0010
0001
1000
0100
1000
0001
0010
0100
1000
0001
1000
0001
0010
0100
1000
,
0001
0100
0001
1000
0010
0100
0001
1000
0001
0100
0010
1000
0001
1000
0010
0100
,
0001
1000
0001
1000
0010
0100
0001
1000
0010
1000
0001
0100
0010
1000
0001
1000
,
0002
0000
0000
0000
,
2003
0000
0000
0000
,
3001
0000
0000
1000
0000
0000
0100
0000
,
0000
0001
1000
0100
,
1000
0000
0000
0001
0000
0000
0100
0000
,
0000
1000
0000
0000
0001
0000
0100
0000
,
0001
0000
0000
1000
0000
0000
0100
0000
,
0000
0001
1000
0100
,
1000
0010
1000
0001
1000
0010
1000
0001
0100
0001
1000
0001
1000
0010
0100
0001
,
1000
0100
1000
0001
1000
0100
0010
0001
1000
0001
0010
0001
1000
0100
0010
0001
,
1000
0000
0000
0001
0000
0000
0100
0000
,
0000
1000
0001
0100
,
0001
0000
0000
1000
0000
0000
0100
0000
,
0000
0001
0000
0000
1000
0000
0100
0000
,
1000
0000
0000
0001
0000
0000
0100
0000
,
0000
1000
0001
0100
,
0001
0010
0001
1000
0001
0010
0001
1000
0100
1000
0001
1000
0001
0010
0100
1000
,
0001
0100
0001
1000
0001
0100
0010
1000
0001
1000
0010
1000
0001
0100
0001
4000
,
0004
0000
0000
0000
,
0000
0000
0000
0000
,
0000
0000
0000
0000
,
3003
0000
0000
0000
;

//---------------dance-single - Mad Matt----------------
#NOTES:
     dance-single:
     Mad Matt:
     Medium:
     19:
     1.000,1.000,0.081,0.269,1.000,802.000,9.000,30.000,0.000,0.000:

0000
0000
0000
0000
,
0000
0000
0000
0000
,
0000
0000
0000
0000
,
0000
0000
0000
0000
,
0000
0000
0000
0000
,
0000
0000
0000
0000
,
0000
0000
0000
0000
,
0000
0000
0000
0000
,
0000
0000
0000
0000
,
0000
0000
0000
0000
,
2000
0000
0000
0000
,
0000
0000
0000
0000
,
3002
0000
0000
0000
,
0000
0000
0000
0000
,
0023
0000
0000
0000
,
0230
0000
0000
0000
,
0000
0000
0000
0000
,
0000
0000
0000
0000
,
2300
0000
0000
0000
,
0000
0000
0000
0000
,
3001
0100
0001
1000
0001
0100
0010
0100
,
0001
0100
0001
0100
0010
1000
0010
0100
,
0001
0010
0001
1000
0001
0010
0100
0010
,
0001
0010
0001
0010
0100
1000
0100
0010
,
0001
1000
0001
0100
0000
0010
0100
0000
,
0001
1000
0001
0100
0000
0010
0100
0000
,
0001
1000
0001
0100
0000
0010
0100
0000
,
0001
1000
0001
0100
0000
0010
0100
0000
,
0001
1000
0001
0010
0000
0100
0010
0000
,
0001
1000
0001
0010
0000
0100
0010
0000
,
0001
1000
0001
0100
0000
0010
0100
0000
,
0001
1000
0001
0100
0000
0010
0100
0000
,
0001
0000
0000
0100
0110
0000
0000
0010
,
1000
1000
1001
0000
,
0001
0000
0000
0100
0110
0000
0000
0010
,
1000
0000
1000
0000
1010
0010
0100
0000
,
0001
0000
0000
0010
0110
0000
0000
0100
,
1000
1000
1001
0000
,
0001
0000
0000
0010
0110
0000
0000
0100
,
1000
0000
1000
0000
1100
0100
0010
0100
,
0010
0001
1000
0001
0100
0001
1000
0100
,
1000
0001
0100
0001
1000
0100
1000
0020
,
0000
0000
0000
0000
,
0130
0000
0001
0000
0100
0000
0001
0000
1000
0100
1000
0100
0010
0100
1000
0001
,
1000
0000
0001
1000
0000
0001
0100
0010
,
1000
0000
0001
0100
0001
0000
1000
0000
0010
0000
1000
0000
0001
0000
0010
0000
,
0100
0000
0010
0100
0000
0010
0001
1000
,
0010
0100
0010
0100
0001
0100
0001
1000
,
0100
0000
1000
0100
0000
1000
0001
0100
,
0010
0000
1000
0100
1000
0000
0001
0000
0100
0000
0010
0000
1000
0000
0001
0000
,
0100
0000
0001
0100
0000
0001
1000
0100
,
0010
0001
0010
0001
1000
0001
1000
0010
,
0200
0000
0000
0000
0000
0000
0301
1000
,
0000
1000
0000
1000
0010
0100
0010
1000
,
0200
0000
0000
0000
0000
0310
0001
0010
,
0100
0010
0100
0000
1000
0000
1000
0000
,
0020
0000
0000
0000
0000
0000
0000
0000
0000
0030
1000
0000
0000
0000
1000
0000
,
0010
1000
0100
1000
0001
1000
0200
0000
,
0320
0000
0000
0000
0000
0000
0000
0030
,
0001
0010
0100
1000
0100
1000
0001
1000
0100
0010
0001
1000
0001
0100
0010
0000
,
1000
0002
0000
0000
0000
1003
0010
0100
,
0000
0100
0000
0100
0002
0000
2003
0000
,
3200
0000
0000
2300
0000
0000
3020
0000
,
0230
0000
0302
0000
,
1003
0100
0010
0001
0100
0001
1000
0100
,
0010
0001
0100
0001
2000
0000
3200
0000
,
0320
0000
0000
0000
,
0031
1000
0100
1000
0100
0010
0100
1000
0001
0100
0001
1000
0010
1000
0001
1000
,
0001
0000
0100
0010
0000
0100
0001
0000
,
1000
0010
0100
0001
2000
0000
3002
0000
,
1003
0010
0100
0001
0100
0001
1000
0001
0100
0001
0100
0010
1000
0001
1000
0100
,
1000
0001
0100
0001
0100
0010
1000
0001
1000
0100
1000
0100
0010
0100
1000
0001
,
0010
0100
1000
0001
0010
0100
1000
0001
1000
0001
0100
0001
1000
0001
1000
0010
,
0100
0001
1000
0001
0100
0010
0100
0001
0100
0001
1000
0001
0010
0100
1000
0001
,
1000
0010
0100
0001
1000
0010
0100
0001
1000
0010
0100
0001
1000
0010
0100
0001
,
1000
0001
1000
0100
1000
0100
0010
0100
1000
0001
0010
0100
1000
0001
1000
0001
,
0100
0001
1000
0100
1000
0001
1000
0001
0100
0010
0100
0010
1000
0010
0100
0001
,
1000
0001
1000
0100
1000
0001
1000
0100
0010
0001
0010
0100
0010
0100
1000
0001
,
1000
0001
0100
0001
1000
0001
0010
0100
1000
0001
0010
0100
1000
0001
1000
0001
,
0100
0001
1000
0001
1000
0010
1000
0001
1000
0100
0010
0100
1000
0001
0010
0001
,
1000
0001
0100
0001
0100
0010
1000
0010
1000
0001
1000
0100
1000
0001
1000
0100
,
0010
0100
1000
0100
1000
0001
1000
0001
0100
0001
0100
0010
0100
0001
1000
0001
,
2000
0000
0000
0000
,
3002
0000
0000
0000
,
1003
0000
0100
0010
0000
0100
1000
0000
,
0001
0010
0100
1000
0002
0000
2003
0000
,
3001
0010
0100
1000
0100
1000
0001
1000
0100
1000
0100
0010
0001
1000
0001
0100
,
0001
1000
0100
1000
0100
0010
0001
1000
0001
0100
0001
0100
0010
0100
0001
1000
,
0010
0100
0001
1000
0010
0100
0001
1000
0001
1000
0100
1000
0001
1000
0001
0010
,
0100
1000
0001
1000
0100
0010
0100
1000
0100
1000
0001
1000
0010
0100
0001
1000
,
0001
0010
0100
1000
0001
0010
0100
1000
0001
0010
0100
1000
0001
0010
0100
1000
,
0001
1000
0001
0100
0001
0100
0010
0100
0001
1000
0010
0100
0001
1000
0001
1000
,
0100
1000
0001
0100
0001
1000
0001
1000
0100
0010
0100
0010
0001
0010
0100
1000
,
0001
1000
0001
0100
0001
1000
0001
0100
0010
1000
0010
0100
0010
0100
0001
1000
,
0001
1000
0100
1000
0001
1000
0010
0100
0001
1000
0010
0100
0001
1000
0001
1000
,
0100
1000
0001
1000
0001
0010
0001
1000
0001
0100
0010
0100
0001
1000
0010
1000
,
0001
1000
0100
1000
0100
0010
0001
0010
0001
1000
0001
0100
0001
1000
0001
0100
,
0010
0100
0001
0100
0001
1000
0001
1000
0100
1000
0100
0010
0100
1000
0001
1000
,
0002
0000
0000
0000
,
2003
0000
0000
0000
,
3001
0000
0000
1000
0000
0000
0100
0000
,
0000
0001
1000
0100
,
1000
0000
0000
0001
0000
0000
0100
0000
,
0000
1000
0000
0000
0001
0000
0100
0000
,
0001
0000
0000
1000
0000
0000
0100
0000
,
0000
0001
1000
0100
,
1000
0010
1000
0001
1000
0010
0100
0001
0100
0001
1000
0100
1000
0001
1000
0001
,
0010
0100
0010
0001
1000
0001
1000
0010
1000
0001
0100
0001
1000
0010
0100
0001
,
1000
0000
0000
0001
0000
0000
0100
0000
,
0000
1000
0001
0100
,
0001
0000
0000
1000
0000
0000
0100
0000
,
0000
0001
0000
0000
1000
0000
0100
0000
,
1000
0000
0000
0001
0000
0000
0100
0000
,
0000
1000
0001
0100
,
0001
0100
0001
1000
0001
0100
0010
1000
0010
1000
0001
0010
0001
1000
0001
1000
,
0100
0010
0100
1000
0001
1000
0001
0100
0001
1000
0010
1000
0001
0100
0010
4000
,
0004
0000
0000
0000
,
0000
0000
0000
0000
,
0000
0000
0000
0000
,
3003
0000
0000
0000
;

//---------------dance-single - Mad Matt----------------
#NOTES:
     dance-single:
     Mad Matt:
     Hard:
     19:
     1.000,1.000,0.072,0.269,1.000,803.000,8.000,30.000,0.000,0.000:

0000
0000
0000
0000
,
0000
0000
0000
0000
,
0000
0000
0000
0000
,
0000
0000
0000
0000
,
0000
0000
0000
0000
,
0000
0000
0000
0000
,
0000
0000
0000
0000
,
0000
0000
0000
0000
,
0000
0000
0000
0000
,
0000
0000
0000
0000
,
2000
0000
0000
0000
,
0000
0000
0000
0000
,
3002
0000
0000
0000
,
0000
0000
0000
0000
,
0023
0000
0000
0000
,
0230
0000
0000
0000
,
0000
0000
0000
0000
,
0000
0000
0000
0000
,
2300
0000
0000
0000
,
0000
0000
0000
0000
,
3001
0100
0001
1000
0001
0100
0010
0100
,
0001
0100
0001
0100
0010
1000
0010
0100
,
0001
0010
0001
1000
0001
0010
0100
0010
,
0001
0010
0001
0010
0100
1000
0100
0010
,
0001
1000
0001
0100
0000
0010
0100
0000
,
0001
1000
0001
0100
0000
0010
0100
0000
,
0001
1000
0001
0100
0000
0010
0100
0000
,
0001
1000
0001
0100
0000
0010
0100
0000
,
0001
1000
0001
0010
0000
0100
0010
0000
,
0001
1000
0001
0010
0000
0100
0010
0000
,
0001
1000
0001
0100
0000
0010
0100
0000
,
0001
1000
0001
0100
0000
0010
0100
0000
,
0001
0000
0000
0100
0110
0000
0000
0010
,
1000
1000
1001
0000
,
0001
0000
0000
0100
0110
0000
0000
0010
,
1000
0000
1000
0000
1010
0010
0100
0000
,
0001
0000
0000
0010
0110
0000
0000
0100
,
1000
1000
1001
0000
,
0001
0000
0000
0010
0110
0000
0000
0100
,
1000
0000
1000
0000
1100
0100
0010
0100
,
0010
0001
1000
0001
0100
0001
1000
0100
,
1000
0001
0100
0001
1000
0100
1000
0020
,
0000
0000
0000
0000
,
0130
0000
0001
0000
0100
0000
0001
0000
0100
0001
1000
0001
0010
0100
0010
0001
,
1000
0000
0001
1000
0000
0001
0100
0010
,
1000
0000
0001
0100
0001
0000
1000
0000
0010
0000
1000
0000
0001
0000
0010
0000
,
0100
0000
0010
0100
0000
0010
0001
1000
,
0010
0100
0010
0100
0001
0100
0001
1000
,
0100
0000
1000
0100
0000
1000
0001
0100
,
0010
0000
1000
0100
1000
0000
0001
0000
0100
0000
0010
0000
1000
0000
0001
0000
,
0100
0000
0001
0100
0000
0001
1000
0100
,
0010
0001
0010
0001
1000
0001
1000
0010
,
0200
0000
0000
0000
0000
0000
0301
1000
,
0000
1000
0000
1000
0010
0100
0010
1000
,
0200
0000
0000
0000
0000
0310
0001
0010
,
0100
0010
0100
0000
1000
0000
1000
0000
,
0020
0000
0000
0000
0000
0000
0000
0000
0000
0030
1000
0000
0000
0000
1000
0000
,
0010
1000
0100
1000
0001
1000
0200
0000
,
0320
0000
0000
0000
0000
0000
0000
0030
,
0001
1000
0100
0010
0100
1000
0001
1000
0010
0100
0001
1000
0100
1000
0001
0000
,
0010
0002
0000
0000
0000
1003
0010
0100
,
0000
0100
0000
0100
0002
0000
2003
0000
,
3200
0000
0000
2300
0000
0000
3020
0000
,
0230
0000
0302
0000
,
1003
0100
0010
0001
0100
0001
1000
0100
,
0010
0001
0100
0001
2000
0000
3200
0000
,
0320
0000
0000
0000
,
0031
1000
0001
0100
0001
1000
0001
0010
0100
1000
0001
1000
0010
0100
0001
1000
,
0001
0000
0100
0010
0000
0100
0001
0000
,
1000
0010
0100
0001
2000
0000
3002
0000
,
1003
0010
0100
0001
1000
0010
1000
0001
1000
0100
0010
0100
1000
0001
0010
0100
,
1000
0001
1000
0010
0100
0010
1000
0001
1000
0100
1000
0001
0100
0010
1000
0001
,
1000
0100
1000
0001
0010
0100
0010
0001
1000
0001
0100
0001
1000
0010
0100
0010
,
1000
0001
1000
0100
1000
0001
0100
0010
0100
0001
1000
0010
0100
0001
1000
0001
,
0010
0100
1000
0001
0010
0100
1000
0001
0010
0100
1000
0001
0010
0100
1000
0001
,
1000
0010
1000
0001
0100
0010
0100
0001
1000
0001
0010
0001
1000
0100
0010
0100
,
1000
0001
1000
0010
1000
0001
0100
0010
1000
0010
0100
0001
1000
0001
0010
0100
,
0010
0001
0010
0100
1000
0001
1000
0010
1000
0001
1000
0010
0100
0001
1000
0010
,
1000
0001
1000
0100
1000
0001
0010
0100
0010
0001
1000
0100
0010
0001
1000
0001
,
0100
0001
1000
0010
0100
0001
0100
0010
1000
0001
1000
0100
1000
0001
0010
0100
,
0010
0001
1000
0001
0100
0001
1000
0100
0010
0001
1000
0001
0100
0001
1000
0010
,
0100
0001
1000
0001
0010
0100
0010
0001
1000
0001
0100
0010
1000
0010
0100
0001
,
2000
0000
0000
0000
,
3002
0000
0000
0000
,
1003
0000
0100
0010
0000
0100
1000
0000
,
0001
0010
0100
1000
0002
0000
2003
0000
,
3001
0010
0100
1000
0001
0010
0001
1000
0001
0100
0010
0100
0001
1000
0010
0100
,
0001
1000
0001
0010
0100
0010
0001
1000
0001
0100
0001
1000
0100
0010
0001
1000
,
0001
0100
0001
1000
0010
0100
0010
1000
0001
1000
0100
1000
0001
0010
0100
0010
,
0001
1000
0001
0100
0001
1000
0100
0010
0100
1000
0001
0010
0100
1000
0001
1000
,
0010
0100
0001
1000
0010
0100
0001
1000
0010
0100
0001
1000
0010
0100
0001
1000
,
0001
0010
0001
1000
0100
0010
0100
1000
0001
1000
0010
1000
0001
0100
0010
0100
,
0001
1000
0001
0010
0001
1000
0100
0010
0001
0010
0100
1000
0001
1000
0010
0100
,
0010
1000
0010
0100
0001
1000
0001
0010
0001
1000
0001
0010
0100
1000
0001
0010
,
0001
1000
0001
0100
0001
1000
0010
0100
0010
1000
0001
0100
0010
1000
0001
1000
,
0100
1000
0001
0010
0100
1000
0100
0010
0001
1000
0001
0100
0001
1000
0010
0100
,
0010
1000
0001
1000
0100
1000
0001
0100
0010
1000
0001
1000
0100
1000
0001
0010
,
0100
1000
0001
1000
0010
0100
0010
1000
0001
1000
0100
0010
0001
0010
0100
1000
,
0002
0000
0000
0000
,
2003
0000
0000
0000
,
3001
0000
0000
1000
0000
0000
0100
0000
,
0000
0001
1000
0100
,
1000
0000
0000
0001
0000
0000
0100
0000
,
0000
1000
0000
0000
0001
0000
0100
0000
,
0001
0000
0000
1000
0000
0000
0100
0000
,
0000
0001
1000
0100
,
1000
0010
1000
0001
1000
0100
1000
0001
0010
0100
1000
0001
0010
0001
1000
0001
,
0100
0001
1000
0010
0100
0001
1000
0010
1000
0001
1000
0100
1000
0001
0010
0100
,
1000
0000
0000
0001
0000
0000
0100
0000
,
0000
1000
0001
0100
,
0001
0000
0000
1000
0000
0000
0100
0000
,
0000
0001
0000
0000
1000
0000
0100
0000
,
1000
0000
0000
0001
0000
0000
0100
0000
,
0000
1000
0001
0100
,
0001
0010
0001
1000
0001
0100
0001
1000
0010
0100
0001
1000
0010
1000
0001
1000
,
0100
1000
0001
0010
0100
1000
0001
0010
0001
1000
0001
0100
0001
1000
0010
0100
,
0004
0000
0000
0000
,
0000
0000
0000
0000
,
0000
0000
0000
0000
,
0003
0000
0000
0000
;
