#TITLE:EXOTIC JAPAN;
#SUBTITLE:;
#ARTIST:JOHN DESIRE;
#TITLETRANSLIT:;
#SUBTITLETRANSLIT:;
#ARTISTTRANSLIT:;
#CREDIT:;
#BANNER:Exotic Japan.png;
#BACKGROUND:Exotic Japan-bg.png;
#LYRICSPATH:;
#CDTITLE:;
#MUSIC:Exotic Japan.mp3;
#OFFSET:1.455;
#SAMPLESTART:62.505;
#SAMPLELENGTH:12.000;
#SELECTABLE:YES;
#BPMS:0.000=160.000;
#STOPS:235.000=1.050
;
#BGCHANGES:;
// cache tags:
#FIRSTBEAT:4.000;
#LASTBEAT:272.000;
#SONGFILENAME:Songs/toune 4/Exotic Japan/Exotic Japan.sm;
#HASMUSIC:1;
#HASBANNER:1;
#MUSICLENGTH:106.326;
// end cache tags

//---------------dance-single - ----------------
#NOTES:
     dance-single:
     :
     Easy:
     4:
     0.296,0.318,0.085,0.122,0.000,198.000,9.000,13.000,0.000,0.000:
0000
0000
0000
0000
,
1001
0000
1001
0000
,
0010
0100
1001
0001
,
0000
0001
0000
1000
,
0100
0010
0001
1000
,
0000
1000
0000
0001
,
0100
0010
1000
0001
,
0000
0100
0000
0001
,
0100
0010
1000
0100
,
0000
1000
0000
0001
,
0100
0010
0010
1000
,
0100
0100
1000
0001
,
0100
0100
0001
1000
,
0000
0010
0000
0001
,
0000
0100
0000
1000
,
0001
0010
0010
0001
,
1000
0010
0010
1000
,
0000
0000
0001
0000
0000
0000
0000
0100
,
0000
0100
0000
0100
0000
0000
1000
0000
,
0000
0010
0000
1000
,
0010
0100
0001
0010
,
0000
0010
0000
0100
,
1000
0001
0100
0010
,
0000
0100
0000
0001
,
0000
1000
0000
0101
,
0000
1100
0000
0000
0000
1000
0001
0000
,
0010
0100
1000
0200
,
0000
0000
0300
0010
,
0001
0100
1000
0020
,
0000
0000
0030
0100
,
0001
1000
0100
0002
,
0000
0000
0003
0010
,
0100
0001
0010
2000
,
0000
0000
3000
0001
,
0100
0010
1000
0001
,
0101
0000
0001
1000
,
1010
0000
1000
0001
,
0011
0000
0001
1000
,
1100
0000
0001
2000
,
0000
3002
0000
0000
2003
0000
0000
0000
,
0000
3000
0000
0020
,
0000
0230
0000
0000
0320
0000
0000
0000
,
0030
0010
0100
0001
,
1000
0100
0000
1000
,
0001
0000
0100
0000
0000
0000
0000
0010
,
0000
0010
0000
0100
0000
0100
0000
0002
,
0000
0000
0000
1003
0000
0000
0010
0000
,
0001
0100
1000
0100
,
0001
0010
1000
0001
,
1000
0000
0001
0000
0000
0100
0000
0010
,
0000
0001
0000
1000
0000
0000
0001
0000
,
0010
0100
0000
1000
,
0010
0000
0100
0000
0000
0000
0000
0001
,
0000
0001
0000
1000
0000
1000
0000
0020
,
0000
0000
0000
0130
0000
0000
1000
0000
,
0100
0001
0100
1000
,
0010
0001
0100
1000
,
0001
0100
1000
0010
,
0001
0010
1000
0001
,
1000
0000
1000
0000
,
0001
0010
0100
1000
,
0001
0000
0001
0000
,
1000
0010
0100
0001
,
1000
0000
0010
0000
,
1000
0010
0100
0001
,
0010
0000
0001
0000
,
1000
0010
0100
0010
,
0002
0000
0000
0000
0000
0003
0000
0000
;

//---------------dance-single - ----------------
#NOTES:
     dance-single:
     :
     Medium:
     6:
     0.482,0.509,0.273,0.226,0.000,306.000,29.000,24.000,0.000,0.000:
0000
0000
0000
0000
,
0001
0001
0000
0000
1000
1000
0000
0000
,
0010
0100
0010
0000
1001
0000
1000
0000
,
0100
0000
1000
0100
0001
0000
0001
0000
,
0100
0000
1000
0001
0100
0000
0010
0000
,
1000
0000
0010
1000
0001
0000
0010
0000
,
0001
0000
1000
0010
0001
0000
1001
0000
,
0001
0000
0010
0100
0001
0000
1000
0000
,
0100
0000
0010
0100
0010
0000
1001
0000
,
0010
0000
0100
1000
0001
0100
0000
0100
,
0000
0010
0100
0000
0010
1000
1002
0000
,
0100
1000
0103
2001
,
0100
0001
3100
1002
,
1003
2001
3001
0010
,
0100
0001
1000
0002
,
1000
1000
0103
0020
,
1000
0100
0031
1000
,
0001
0000
0100
0010
0000
0010
0000
1000
,
0000
0100
0000
0001
0000
0001
0020
0000
,
0031
0002
0103
0200
,
1300
2000
3010
0102
,
1003
2100
3001
0010
,
0100
0000
1000
0000
0001
0000
0100
0010
,
0100
0000
1000
0001
1000
0000
0101
0000
,
1100
0000
0010
0001
0100
0020
0000
0000
,
0000
0000
0000
0000
0030
0000
1000
0001
,
1000
0001
0100
0010
0100
0010
0010
0000
,
1000
0010
0001
0010
,
1000
0100
0001
0110
,
0000
1001
0000
1000
,
0100
0000
0001
0010
0000
0000
0010
0000
,
0100
0010
1000
0100
,
0010
1000
0001
0110
,
0000
0000
1001
0000
0000
0000
0001
0100
,
0000
0010
1000
0100
0010
0001
0000
0000
,
0011
0000
0000
0001
0100
0001
0000
0000
,
1010
0000
0000
1000
0001
1000
0000
0000
,
0110
0000
0000
0010
1000
0010
0000
0000
,
0101
0000
0000
0001
0010
0000
0200
0000
,
0000
2300
0000
0000
0002
0000
0000
0000
,
0000
3003
0000
2000
,
0000
3200
0000
0000
0020
0000
0000
0000
,
0330
0001
1000
0000
1001
0000
0010
0100
,
0001
0100
0010
0000
1000
0000
0100
0010
,
0100
1000
0010
0100
0001
1000
0000
0101
,
0000
1100
0000
0011
0000
1010
0000
0100
,
0100
0000
0001
2000
0000
3000
0000
0001
,
1000
0001
0100
0000
0001
0000
1000
0100
,
1000
0100
0000
0010
0000
2002
0000
0000
,
0000
0000
0000
3003
0100
0010
0000
1000
,
0000
0100
0000
0010
0000
0001
0010
0100
,
1000
0100
0010
0000
0001
0000
0100
0010
,
0100
0001
0010
0100
1000
0001
0000
1100
,
0000
0101
0000
0001
0100
0010
0000
1000
,
0100
0000
0001
0200
0000
0300
0000
0010
,
1000
0001
0100
0001
1000
0100
1000
0001
,
1000
0001
0000
0010
1000
0100
0000
0010
,
0001
0100
0010
1000
0001
0010
0100
1000
,
0100
1000
0100
1000
0001
0100
0010
0000
,
0001
0000
0010
0000
0001
0010
1000
0000
,
1000
0000
0010
0000
0001
1000
0010
0000
,
0100
0000
0001
0000
0100
0001
1000
0000
,
0100
0000
1000
0000
0001
0100
1000
0000
,
1001
0000
1000
0000
0100
0010
1000
0000
,
0001
0000
0010
0000
0100
0010
0100
0000
,
1001
0000
0100
0000
0010
0001
1000
0010
,
0000
0010
0000
0100
0010
0000
1000
0002
,
0000
0000
0000
0000
0000
0003
0000
0000
;

//---------------dance-single - ----------------
#NOTES:
     dance-single:
     :
     Challenge:
     9:
     0.708,0.700,0.508,0.508,0.381,419.000,54.000,54.000,0.000,0.000:
0000
0000
0000
0000
,
0001
0000
0001
0100
0001
0000
0110
0000
1000
0000
1000
0100
1000
0000
0001
0000
,
0100
0000
0010
0000
1000
0000
0000
0000
1001
0000
0000
0000
0010
0100
0000
0001
,
0000
0100
0020
0000
0000
0000
1030
0000
0000
0000
0001
0100
0001
1000
0000
0100
,
0000
1000
0000
0010
0000
0100
0000
0001
1000
0000
0000
0000
0001
0100
0000
0010
,
0000
1000
0002
0000
0000
0000
1003
0000
0000
0000
0100
0010
0100
0010
0000
0001
,
0000
0100
0000
0010
0000
1000
0000
0001
0100
0000
0000
0000
0010
0100
0000
1000
,
0000
0100
0020
0000
0000
0000
0031
0000
0000
0000
1000
0100
1000
0001
0000
0100
,
0000
0001
0000
0010
0000
0100
0000
1000
0001
0000
0000
0000
1000
0010
0000
0100
,
0000
0001
2000
0000
0000
0000
3010
0000
0000
0000
0101
0000
0000
0000
1001
0000
,
0000
0000
0100
0010
1000
0000
0000
0000
0001
0000
0100
0000
2000
0000
0000
0000
,
3100
0001
2000
0000
3200
0000
0310
0001
,
0100
1000
0100
0001
1000
0000
0100
0010
,
0011
0000
0000
0000
0101
0000
0000
0000
1100
0000
0010
0000
0100
0000
1000
0001
,
1000
0000
0100
0010
0100
0000
0001
1000
0001
0000
0010
0000
0100
0000
1000
0000
,
0001
0100
0010
0000
1001
0110
0000
0100
,
1000
0001
0010
0001
1000
0100
0020
0000
,
0032
0000
0203
1000
0000
0301
0000
1010
,
0000
0101
0000
1100
0000
0010
0001
1000
,
0100
1000
0000
0001
0100
0010
1000
0001
,
0010
0100
1000
0010
0100
0001
0100
0010
,
0100
0002
0000
1000
0000
2003
0000
3001
,
0000
1001
0000
0100
0010
0100
1000
0000
,
0101
0000
0001
0000
1100
0010
0000
1001
,
0000
0001
0100
1000
0010
0100
0000
0011
,
0000
0000
0110
0000
0000
0000
1100
0000
0000
0000
0001
0000
1000
0100
1000
0100
,
0010
0100
0010
0100
0010
0001
0010
0001
1000
0001
1000
0001
2000
0000
0000
0000
,
3020
0000
0100
0000
0130
0002
1000
0000
,
1003
0100
0020
0000
0001
0000
2030
0000
,
3001
0100
0020
0000
0130
0000
1010
0000
,
1001
0000
0001
0101
0000
1000
1100
0000
,
0010
0100
0001
0000
1000
0100
0010
0100
,
1000
0000
0101
0000
1100
0000
0001
0010
,
0100
1000
1001
0000
0110
0000
0010
1000
,
0100
0000
0010
0001
0100
0220
0000
0330
,
2020
0000
3030
0100
0010
0022
0000
0033
,
0202
0000
0303
0100
0010
2002
0000
3003
,
2200
0000
3300
0010
0001
0202
0000
0303
,
0220
0000
0330
0001
1000
0000
2002
0000
,
3003
2002
0000
3003
2002
0000
0000
0000
,
0000
3003
0000
0220
,
0330
0220
0000
0330
0220
0000
0000
0000
,
0330
0001
0001
0000
0101
0000
0001
0100
,
1000
0100
0001
1000
0100
1000
0001
0100
,
1000
0100
0001
1000
0100
1000
0001
0010
,
0100
0010
0001
1000
0100
0010
0001
0000
,
0101
0000
1001
0000
1100
0000
0010
0001
,
0100
0000
0010
1000
0001
0100
0001
1000
,
0100
0020
0000
0032
0000
2000
0000
0000
,
0000
0000
0000
3003
0000
0101
0000
0101
,
0000
1100
0000
1100
0000
0100
0001
0010
,
1000
0010
0001
0100
0001
1000
0001
0010
,
1000
0010
0001
0100
0001
1000
0001
0100
,
0010
0100
0001
1000
0010
0100
0001
0000
,
0101
0000
1100
0000
1001
0000
0001
0100
,
0010
0000
1000
0100
0010
0001
0100
0010
,
0100
0001
1000
0001
1000
0100
0010
0100
,
1000
0010
1000
0001
1000
0010
1000
0001
,
0010
0001
0100
0001
1000
0001
0100
0000
,
0100
0010
0000
1000
0000
0010
0200
0000
0000
0000
0301
0000
0000
0000
1000
0010
,
1000
0001
0000
0010
0000
0001
0000
0100
0000
0010
0000
1000
0001
0000
0000
0000
,
1000
0010
0000
0100
0000
0001
2000
0000
0000
0000
3001
0000
0000
0000
0010
0100
,
0010
0100
0000
1000
0000
0010
0000
0100
0000
0001
0000
1000
0010
0000
0000
0000
,
0100
0010
0000
0001
0000
0010
0200
0000
0000
0000
1300
0000
0000
0000
0001
0010
,
0001
1000
0000
0010
0000
1000
0000
0100
0000
0010
0000
0001
1000
0000
0000
0000
,
0001
0100
0000
0010
0000
1000
0002
0000
0000
0000
0103
0000
0000
0000
1010
0000
,
0000
0000
1001
0000
0000
0000
0010
0100
0001
0000
0000
0000
1000
0000
0200
0000
,
0000
0000
0000
0000
0000
0300
0000
0000
;

//---------------dance-single - ----------------
#NOTES:
     dance-single:
     :
     Hard:
     9:
     0.665,0.672,0.517,0.122,0.376,427.000,55.000,13.000,0.000,0.000:
0000
0000
0000
0000
,
1001
1001
0000
0000
0110
0110
0000
0001
,
1000
0000
0100
0000
0010
0000
0000
0000
1001
0000
0000
0000
0001
0100
0000
1000
,
0000
0100
0002
0000
0000
0000
0013
0000
0000
0000
0010
0100
1000
0100
0000
1000
,
0000
0001
0000
1000
0000
0010
0000
0010
0100
0000
0000
0000
0010
0100
0000
0001
,
0000
0100
0020
0000
0000
0000
1030
0000
0000
0000
1000
0100
0001
0100
0000
1000
,
0000
0010
0000
0001
0000
0010
0000
1000
0010
0000
0000
0000
0100
0001
0000
0001
,
0000
1000
0002
0000
0000
0000
0103
0000
0000
0000
0100
0010
1000
0010
0000
0100
,
0000
0001
0000
0010
0000
0100
0000
1000
0001
0000
0000
0000
0010
0001
0000
0001
,
0000
0010
0100
0000
0000
0000
0010
0000
0001
0000
1100
0000
0000
0000
0101
0000
,
0000
0000
0001
1000
0001
0000
0000
0000
0100
0000
0010
0000
1000
0000
0100
0000
,
0010
0100
0000
0100
0000
0010
0001
1000
,
0001
0010
0000
0101
0000
1000
0000
0010
,
0100
0000
0000
0000
0100
0000
0100
0000
0001
0000
1000
0000
0100
0000
0100
0010
,
0000
0000
0001
0000
0100
0000
0100
0010
0000
0000
1000
0000
0000
0000
0010
0000
,
0100
1000
0100
0100
0001
1000
0000
0010
,
0100
0001
0100
0100
0010
0001
1000
0000
,
1010
0000
0001
0101
0000
0101
0000
1010
,
0000
1100
0000
1001
0010
0100
0001
0010
,
0100
0010
0000
0010
0000
0001
0000
0100
,
0000
0010
1000
0100
0001
0100
1000
0010
,
0100
0001
0000
0010
0001
0101
0000
1001
,
0000
1010
0000
0100
0001
0100
0110
0000
,
1000
0000
0110
0000
0001
1000
0000
1001
,
0000
0010
0001
0100
0010
1000
0000
1100
,
0000
0000
0001
0000
0000
0000
0101
0000
0000
0000
0010
0000
0001
1000
0001
0000
,
1000
0100
1000
0000
0100
0010
0100
0000
0010
0001
0010
0001
2000
0000
0000
0000
,
0010
0000
3010
0000
0010
0100
0001
0000
,
0001
1000
0100
0000
0100
0000
0011
0000
,
0100
1010
0100
1001
,
1001
0000
0010
0110
0000
0000
0101
0000
,
1000
0000
1000
0100
0010
0000
0010
0001
,
0100
1010
0101
1000
,
1000
0010
0100
0000
0001
0000
0010
0001
,
0100
0000
0010
1000
0100
0011
0000
0000
,
1001
0000
0000
0001
0100
1010
0000
0000
,
1001
0000
0000
0010
0100
0110
0000
0000
,
0101
0000
0000
1000
0100
1100
0000
0000
,
0110
0000
0000
0001
1000
0001
1000
1000
,
0100
0001
0100
1000
0100
0001
0100
0100
,
0010
0001
0010
1000
0010
0001
0100
0100
,
0001
0010
0100
1000
0100
0011
0000
0101
,
0000
1000
1001
0000
1001
0000
0010
0100
,
0001
0100
1000
0010
0100
0001
0010
0100
,
0001
0100
1000
0010
0100
0002
0000
1000
,
0000
1003
0000
0100
0000
0010
0000
1001
,
0011
0000
0011
2002
0000
3003
0000
0100
,
0001
0010
0100
1000
0000
1000
0000
0100
,
0010
0001
0000
0101
0000
1010
0000
0001
,
0100
1000
0010
0001
0100
0101
0000
1010
,
0000
1100
0000
0011
0000
0000
0100
0010
,
1000
0010
0001
0100
0010
1000
0100
0010
,
1000
0010
0001
0100
0010
2000
0000
0001
,
0000
3001
0000
0010
0100
0010
0000
0001
,
0000
0100
0000
0010
1000
1000
0000
1000
,
0100
1000
0100
0001
0100
1000
0010
0010
,
0100
0001
0010
0100
1000
0100
0010
0001
,
0010
0000
1000
0000
0010
0000
0001
0000
0100
0000
0010
0000
1000
0100
1000
0000
,
0100
0010
0100
0000
0010
0001
0010
0000
0001
1000
0001
1000
0001
0000
0000
0000
,
1000
0010
0000
0001
0000
0010
2000
0000
0000
0000
3100
0000
0000
0000
0100
0010
,
0001
0010
0000
0001
0000
1000
0000
0001
0000
0100
0000
0100
0010
0000
0000
0000
,
0100
0010
0000
1000
0000
0010
0200
0000
0000
0000
0301
0000
0000
0000
0001
0010
,
1000
0010
0000
0001
0000
0100
0000
1000
0000
0100
0000
0001
0100
0000
0000
0000
,
0010
1000
0000
1000
0000
0001
2000
0000
0000
0000
3010
0000
0000
0000
0010
0100
,
0001
0100
0000
0010
0000
1000
0000
0100
0000
0010
0000
0001
1000
0000
0000
0000
,
0100
1000
0000
1000
0000
0100
0010
0000
0000
0000
0100
0000
1000
0000
0011
0000
,
0000
0000
1010
0000
0000
0000
1000
0001
1000
0000
0000
0000
0010
0000
0220
0000
,
0000
0000
0000
0000
,
0330
0000
0000
0000
;

//---------------dance-single - ----------------
#NOTES:
     dance-single:
     :
     Edit:
     11:
     0.877,1.000,0.451,0.367,0.762,566.000,48.000,39.000,0.000,0.000:
0000
0000
0000
0000
,
1001
0000
0100
0010
1000
0000
0101
0000
1001
0000
0100
0010
0001
0000
1100
0000
,
0001
0000
0100
0010
0100
0000
0000
0000
0110
0000
0000
0000
0010
0100
0000
0001
,
0000
0100
0020
0000
0000
0000
1030
0000
1000
0000
0001
0100
0001
1000
0000
0100
,
0000
1000
0000
0110
0000
0100
0000
0001
1000
0000
0000
0000
0001
0100
0000
0010
,
0000
1000
0002
0000
0000
0000
1003
0000
1000
0000
0100
0010
0100
0010
0000
0001
,
0000
0100
0000
0110
0000
1000
0000
0001
0100
0000
0000
0000
0010
0100
0000
1000
,
0000
0100
0020
0000
0000
0000
0031
0000
0001
0000
1000
0100
1000
0001
0000
0100
,
0000
0001
0000
1001
0000
0100
0000
1000
0001
0000
0000
0000
1000
0010
0000
0100
,
0000
0001
2000
0000
0000
0000
3010
0000
0010
0000
0101
0000
0000
0000
1001
0000
,
0000
0000
0100
0010
0100
0000
0000
0000
0010
0000
0100
0000
0001
0010
0001
0000
,
0100
0000
0001
0000
1000
0000
0100
0000
1000
0000
0010
0000
1000
0100
1000
0000
,
0010
0000
0100
0000
0001
0000
1000
0000
0001
0000
0100
0000
0010
1000
0010
0000
,
1000
0000
0100
0000
0010
0000
0100
0000
1000
0000
0001
0100
0001
0000
1000
0100
,
1000
0000
0001
0100
0001
0000
1000
0100
1000
0000
0001
0000
0100
0000
0010
1000
,
0010
0000
1000
0000
0100
0000
0001
0100
0001
0000
1000
0000
0100
0000
0010
0001
,
0010
0000
0001
0000
0100
0000
1000
0100
1000
0000
0001
0000
0100
0000
0010
0000
,
1000
0001
0010
0100
1000
0001
0100
0001
,
1000
0000
0001
0000
1001
0000
0010
0000
0001
0000
0010
0000
1000
0010
1000
0000
,
0100
0000
1000
0000
0001
0000
0100
0000
0001
0000
0010
0000
0001
0100
0001
0000
,
0010
0000
0100
0000
1000
0000
0001
0000
1000
0000
0100
0000
0010
0001
0010
0000
,
0001
0000
0100
0000
0010
0000
0100
0000
0001
0000
0010
0000
1000
0100
1000
0000
,
0100
0000
1000
0000
0001
0100
0001
0000
0100
0000
0001
0000
1000
0000
0100
0000
,
0010
0001
1000
0010
0100
0001
0010
0100
,
1000
0001
0100
0010
1000
0001
1010
0100
,
0001
0000
0000
0000
0011
0000
0100
0000
1000
0000
0000
0000
0001
1000
0001
0010
,
0100
1000
0001
1000
0100
0010
0001
1000
0001
0100
0010
1000
0020
0000
0000
0000
,
0130
0001
1000
0001
0100
0010
1000
0100
,
1000
0001
0010
0100
1000
0001
0200
0000
,
0310
1000
0100
0010
0001
0100
2000
0001
,
3002
0000
0100
0203
0000
0000
0310
0000
,
0100
1000
0001
1000
0100
0010
0001
0100
,
0001
1000
0010
0100
0001
1000
0200
0000
,
0310
0000
0001
0000
0100
0000
0010
0000
1000
0000
0100
0000
0010
0001
1000
0000
,
0001
1000
0001
0000
0100
0001
1000
0000
0010
0000
0220
0000
0000
0000
0330
0000
,
2002
0000
3003
0001
0100
0202
0000
0303
,
2002
0000
3003
0010
0001
2002
0000
3003
,
0220
0000
0330
0010
1000
2200
0000
3300
,
2002
0000
0000
0000
3003
0000
0010
0000
0010
0000
0000
0000
0001
0100
0010
0100
,
0001
0010
1000
0010
0001
0100
0010
0100
0001
0010
1000
0010
0001
0100
0010
1000
,
0010
0100
0001
0010
0001
0100
0010
1000
0010
0100
0001
0010
0001
0100
0010
1000
,
0100
0010
0001
0100
0010
1000
0100
0010
0001
1000
0200
0000
0000
0000
0310
0000
,
0000
0000
1001
0000
1001
0000
0000
0000
0110
0000
0000
0010
0001
0000
0000
0001
,
0100
0000
0000
0010
1000
0000
0000
1000
0100
0000
0010
0000
0001
0000
1000
0000
,
0010
0000
0100
0000
0001
1000
0001
0000
0100
0000
0020
0000
0000
0000
1030
0000
,
0001
0101
0000
0001
1000
1100
0000
1001
,
0110
0000
0110
2002
0000
3003
0100
0010
,
1000
0010
0001
0100
1000
0100
0001
1000
,
0100
0000
0010
0000
0000
0000
0011
0000
0000
0000
1001
0000
0010
0001
1000
0100
,
0010
0001
1000
0100
0010
0001
1000
0100
0010
0001
1000
0000
0000
0000
0101
0000
,
0000
0000
1100
0000
0000
0000
0101
0000
0000
0000
0000
0100
1000
0000
0000
1000
,
0010
0000
0000
0100
0001
0000
0000
0001
0010
0000
0100
0000
1000
0000
0001
0000
,
0100
0000
0010
0000
1000
0001
1000
0000
0010
0000
0200
0000
0000
0000
0301
0000
,
1000
1010
0000
1000
0001
0011
0000
1001
,
0110
0000
0110
2002
0000
3003
0001
0100
,
1000
0000
0100
0000
0001
0000
1000
0000
0010
0000
0001
0000
1000
0100
0001
0100
,
1000
0010
0100
0010
1000
0100
0001
0100
1000
0010
0100
0010
1000
0001
0100
0001
,
1000
0100
0010
0001
1000
0001
0100
0001
1000
0100
0010
0001
1000
0010
0100
0001
,
0010
0100
1000
0010
0100
0001
0010
0100
1000
0001
0010
0100
1001
0000
0000
0000
,
0100
0010
0000
1000
0000
0010
0200
0000
0000
0000
0301
0000
0001
0000
1000
0010
,
1000
0001
0000
0010
0000
0001
0000
0110
0000
0100
0000
1000
0001
0000
0000
0000
,
1000
0010
0000
0100
0000
0001
2000
0000
0000
0000
3001
0000
0001
0000
0010
0100
,
0010
0100
0000
1000
0000
0010
0000
0110
0000
0001
0000
1000
0010
0000
0000
0000
,
0100
0010
0000
0001
0000
0010
0200
0000
0000
0000
1300
0000
1000
0000
0001
0010
,
0001
1000
0000
0010
0000
1000
0000
1001
0000
0010
0000
0001
1000
0000
0000
0000
,
0001
0100
0000
0010
0000
1000
0002
0000
0000
0000
0103
0000
0100
0000
1010
0000
,
0000
0000
1001
0000
0000
0000
0010
0100
0010
0000
0000
0000
0100
0000
2002
0000
,
0000
0000
0000
0000
0000
3003
0000
0000
;
