#TITLE:美鈴のためのトッカータ;
#SUBTITLE:Embodiment of Scarlet Devil (2002);
#ARTIST:ようか;
#TITLETRANSLIT:Meiling no Tame no Toccata;
#SUBTITLETRANSLIT:;
#ARTISTTRANSLIT:Yohka;
#CREDIT:;
#BANNER:Meiling no Tame no Toccata.jpg;
#BACKGROUND:Meiling no Tame no Toccata-bg.jpg;
#LYRICSPATH:;
#CDTITLE:!dondon151.png;
#MUSIC:Meiling no Tame no Toccata.mp3;
#OFFSET:-0.782;
#SAMPLESTART:142.920;
#SAMPLELENGTH:12.000;
#SELECTABLE:YES;
#BPMS:0.000=84.000,27.000=80.094,28.000=76.538,29.000=71.756,30.000=66.236,31.000=64.885,35.000=128.000,87.000=124.906,88.000=119.146,89.000=112.653,90.000=104.668,91.000=144.000,129.000=138.223,130.000=134.622,131.000=144.000,161.000=136.400,162.000=127.956,163.000=135.000,231.000=131.563,232.000=135.000,233.000=142.442,234.000=144.432,235.000=80.000,265.500=65.749,266.000=53.500,267.000=91.958,268.000=88.191,269.000=80.624,270.000=71.678,271.000=135.000,334.000=112.884,335.000=109.303,336.000=103.814,337.000=127.504,342.000=120.800,343.000=109.303,344.000=85.731,344.500=72.500,345.000=80.000,369.000=76.450,371.000=71.185,372.000=67.470,372.500=58.994,373.000=150.000;
#STOPS:;
#BGCHANGES:;
// cache tags:
#FIRSTBEAT:0.833;
#LASTBEAT:394.750;
#SONGFILENAME:Songs/VGMP 3/Meiling no Tame no Toccata (dondon151)/Meiling no Tame no Toccata.sm;
#HASMUSIC:1;
#HASBANNER:1;
#MUSICLENGTH:210.651;
// end cache tags

//---------------dance-single - ----------------
#NOTES:
     dance-single:
     :
     Challenge:
     12:
     1.000,1.000,1.000,0.043,1.000,1324.000,404.000,9.000,0.000,74.000:




0000
0000
0000
0000
0000
1000
0011
0000
0000
0100
0000
0000
1000
0000
0000
0010
0000
1000
0101
0000
0000
0001
0000
0000
,
1000
0010
0101
1000
0110
0011
0101
1000
,
0010
0000
0000
0000
0000
1000
0011
0000
0000
0100
0000
0000
1000
0000
0000
0010
0000
1000
0101
0000
0000
0010
0000
0000
,
1000
0100
0011
1000
0101
1010
0110
1100
,
1001
0000
0000
0010
0000
1000
0011
0000
0000
0100
0000
0000
1000
0000
0000
0010
0000
1000
0101
0000
0000
0010
0000
0000
,
1000
0010
0101
1000
0110
1000
0101
1000
,
0011
0000
0000
0000
0000
0000
0100
0000
0000
0000
0010
0000
1001
0000
0000
0000
0000
0000
0100
0000
0000
0000
0000
0000
1000
0000
0000
0000
0000
0000
0010
0000
0000
0001
0100
0000
1010
0000
0000
0000
0000
0000
0100
0000
0000
0000
0000
0000
,
0001
0000
1000
0000
0111
0000
1000
0000
0101
0000
0100
0011
0000
0000
0000
0000
,
0000
0000
0000
0000
0000
0000
0101
1000
,
0010
0101
0110
0011
1000
0101
1010
1100
,
1010
0000
1010
0101
1000
0000
0010
0000
0001
0000
0010
0000
0101
0000
1000
0000
,
0010
0101
0110
0101
0010
1001
0011
1000
,
0101
1000
0110
1000
0001
1000
0101
1000
,
0010
0101
0110
0101
0010
1100
1010
0001
,
1100
0001
1010
0001
0110
1000
0101
1100
,
0010
0000
0101
0010
0101
0000
1010
0000
0001
0000
1100
0000
0110
0000
1100
0000
,
0110
0000
0000
0000
0000
0000
0110
0000
0000
1001
0000
0000
0100
0000
0000
0000
0000
0000
0010
0000
0000
0000
0000
0000
0001
0000
0000
0000
0000
0000
0100
0000
0000
0000
0000
0000
1010
0000
0000
0000
0100
0000
0000
0000
0010
0000
0000
0000
,
0001
0000
0100
0010
0001
0000
1100
0000
0010
0001
0100
0000
0001
0000
1000
0010
0100
0000
1010
0000
0100
1000
0010
0000
,
1100
0000
0000
0000
0010
0000
0100
0000
0001
0010
0000
0000
1000
0000
0000
0000
0100
0000
0000
0000
0010
0000
0000
0000
0001
0000
0000
0000
0010
0000
0000
0000
0100
0000
0000
0000
1010
0000
0000
0000
0100
0000
0000
0000
0010
0000
0000
0000
,
0001
0000
0100
0010
0001
0000
1100
0000
0001
0010
0100
0000
0001
0000
0100
1000
0010
0000
0101
0000
1000
0000
0001
0000
,
0110
0001
0100
1010
0100
0010
0001
0010
0100
1010
0100
0010
,
0001
0000
0100
0010
0001
0000
1100
0000
0001
0010
0100
0000
0001
0000
0100
1000
0010
0000
0101
0000
1000
0000
0001
0000
,
0110
0000
0001
0000
1000
0000
0101
0000
1000
0000
0100
0000
0011
0000
0100
0000
1000
0000
0111
0000
0000
1110
0000
0000
,
0000
0000
0100
0010
1101
0000
1011
0000
0000
0000
1000
0000
0110
0000
1100
0000
,
0110
0000
0000
0000
0000
0000
0110
0000
0000
1001
0000
0000
0100
0000
0000
0000
0000
0000
1000
0000
0100
0000
0010
0000
1001
0000
0100
0000
0010
0000
1000
0000
0100
0000
0010
0000
0101
0000
0000
1000
0000
0000
0100
0000
0000
0010
0000
0000
,
0001
0010
0100
1000
0010
1000
0001
0100
0011
0100
0001
1000
0110
1000
0010
0100
,
0001
0100
0010
1000
0011
0100
0010
0001
1000
0001
0010
0100
1010
0100
0010
0001
,
1000
0001
0010
0100
0010
0001
1000
0100
0010
0100
1000
0001
1000
0001
0010
0100
,
0010
0100
1000
0001
0100
0001
0010
0100
1010
0001
0110
1000
0101
1000
0100
0010
,
0001
0010
1100
0010
1000
0001
1010
0100
0011
0100
1010
0001
0100
0010
1000
0100
,
0010
0100
1001
0010
0100
1000
0100
0010
0101
1000
0010
0100
1010
0100
0010
0001
,
1000
0001
0010
0100
1000
0010
0100
0001
0010
0001
0100
0010
1000
0001
0010
0100
,
0010
0100
1000
0001
1010
0100
0010
1000
0110
0001
0100
0010
0101
1000
0100
0010
,
0001
0010
0100
1000
0010
1000
0001
0100
0011
0100
0001
1000
0110
1000
0010
0100
,
0001
0100
0010
1000
0011
0100
0010
0001
1000
0001
0010
0100
1010
0100
0010
0001
,
1000
0001
0010
0100
1000
0010
0100
0001
1000
0001
0010
0100
0001
0010
0100
1000
,
0010
0100
0010
1000
0000
0000
0000
0000
1010
0001
0110
1000
0101
1000
0100
0010
,
0001
0010
1100
0010
1000
0001
1010
0100
0011
0100
1010
0001
0100
0010
1000
0100
,
0010
0100
1000
0010
0101
0010
1100
0001
0110
1000
0101
1010
0100
1000
0100
0010
,
0001
0010
0100
1000
0010
1000
0100
0010
0001
0010
0100
1000
0110
0001
1100
0001
,
0110
1000
0110
1001
1110
0000
0000
0000
1101
0000
0000
0000
0111
1000
1000
0101
,
1010
0100
0011
0010
0101
1000
1010
0001
0011
0100
0110
1000
1001
0100
0011
0100
,
1010
0001
0110
0001
1100
0010
0100
0001
1000
0100
0010
0001
1010
0001
0110
1000
,
0011
1000
0110
0001
1010
0100
1001
0100
1010
0001
1100
0010
0101
0010
1100
0001
,
1010
0100
1001
0010
1100
0010
0100
0001
1010
0100
0010
1000
0111
1000
1000
0101
,
1010
0100
0011
0010
0101
1000
1010
0001
0011
0100
0110
1000
1001
0100
0011
0100
,
1010
0001
0110
0001
1100
0010
0100
0001
1000
0100
0010
0001
1010
0001
0110
1000
,
0011
1000
0110
0001
1010
0001
0110
1000
0011
0100
1001
0010
0101
0010
1010
0100
,
0001
0000
0010
0000
0100
0000
1000
0000
0101
0010
0100
0010
0100
0010
0100
0010
0100
0010
0100
0010
0100
0010
0100
0010
1101
0000
0010
0000
0100
0000
0001
0000
,
1000
0010
0101
1000
0110
1000
0011
0100
0001
0010
0101
1000
0110
0001
1100
0001
,
1010
0100
1010
0101
1000
0010
0100
0010
0001
0100
0010
1000
0101
0010
0100
0001
,
1000
0000
0000
0010
0000
0000
0101
0000
0000
1000
0000
0000
0110
0000
0000
1000
0000
0000
0101
0000
0000
0010
0000
0000
1000
0000
0000
0100
0000
0000
0011
0000
0000
0100
0000
0000
1001
0000
0000
0000
0010
0000
0000
0000
0100
0000
0000
0000
,
0011
0000
0000
0000
0100
0000
0000
0000
1000
0000
0000
0000
0101
0000
0000
1000
0000
0000
0100
0000
0000
0010
0000
0000
0001
0000
0000
0100
0000
0000
0010
0000
0000
1000
0000
0000
0101
0000
0000
0010
0000
0000
0100
0000
0000
0001
0000
0000
,
1000
0000
0000
0010
0000
0000
0101
0000
0000
1000
0000
0000
0110
0000
0000
1000
0000
0000
0101
0000
0000
0010
0000
0000
1000
0000
0000
0100
0000
0000
0011
0000
0000
0100
0000
0000
1001
0000
0000
0000
0010
0000
0000
0000
0100
0000
0000
0000
,
0011
0000
0000
0000
0100
0000
0000
0000
1000
0000
0000
0000
0101
0000
0000
0000
0010
0000
0000
0000
0100
0000
0000
0000
1010
0000
0000
0000
0001
0000
0000
0000
0100
0000
0000
0000
0011
0000
0000
0100
0000
0000
1010
0000
0000
0100
0000
0000
,
0001
1000
0110
1001
0110
0001
1010
0100
0001
0100
1001
0010
0101
1000
0100
0010
,
0001
0010
0100
0010
0001
0100
0010
1000
0100
0010
0100
1000
0011
0100
0010
0100
,
1000
0100
0010
0001
1000
0001
0010
0100
1000
0100
0010
0100
1001
0010
0100
1000
,
0001
0000
0000
0010
0000
0000
0100
0000
0000
1000
0000
0000
0001
0000
0000
0010
0000
0000
0100
0000
0000
1000
0000
0000
0001
0000
0000
0010
0000
0000
0100
0000
0000
1000
0000
0000
0111
0000
1000
0000
0011
0000
0100
0000
1010
0000
0001
0000
,
0110
1000
0100
0010
0001
0000
1101
0010
0101
0010
1100
0001
1010
0100
0010
0100
0001
0000
1110
0001
0110
0001
1010
0100
,
1001
0010
0010
0001
0100
0001
1011
0100
1010
0001
1100
0010
0101
0010
1001
0100
1010
0001
1110
0100
0011
1000
0110
1000
,
0111
1000
0100
0010
0001
0000
1101
1000
0101
0010
1001
0100
1011
0100
0010
1000
0001
0000
1110
0001
0110
0001
1010
0100
,
1011
0100
0010
0001
0100
0001
1101
0010
1001
0100
0011
1000
0111
1000
0101
0010
1100
0001
1110
1000
0110
1000
0101
0010
,
1101
0010
0010
0001
0110
0001
1110
1000
0101
1000
0011
0100
1011
0100
0100
0001
1100
0010
1101
0100
1010
0001
0110
1000
,
0111
1000
0100
0010
0100
0001
1110
0001
0100
0010
1000
0100
1011
0100
1010
0001
1100
0010
1101
0010
0101
1000
0011
1000
,
0110
1000
0011
0100
1010
0001
1110
1000
0110
1000
0101
0010
1100
0010
0101
0010
1001
0100
1011
0001
0110
1000
0101
0010
,
1001
0010
0101
1000
0110
0001
1011
0100
1100
0010
1010
0100
0001
0000
0000
0000
0000
0000
1001
0000
0010
0000
0100
0000
,
0011
0000
0100
0000
1000
0000
0110
0000
1000
0000
0001
0000
1010
0000
0001
0000
0010
0000
1101
0000
0000
0110
0000
0000
,
1010
0101
1001
0100
0011
1000
0111
1010
,
0101
0011
1010
0001
0010
0100
1011
0101
,
1100
0001
1110
0101
1100
0001
1110
0100
,
1010
0000
0110
0000
1101
0000
0010
0000
1001
0010
0101
0010
1101
0000
0110
0000
,
1010
0000
0101
0000
1001
0000
0100
0000
1010
0000
0110
0000
1101
0010
1001
0100
,
0011
0000
0000
0000
0000
0000
1010
0000
0000
0000
0000
0000
0110
0000
0000
0000
0000
0000
1100
0000
0000
0000
0000
0000
1001
0000
0000
0000
0100
0000
1000
0000
0010
0000
0000
0000
1101
0000
0000
0010
0000
0000
1000
0000
0000
0001
0000
0000
,
0010
0100
0010
0001
1110
0001
0100
0010
1000
0010
0100
0001
1100
0010
0001
0100
,
0010
0000
0000
1000
0000
0000
0100
0000
0000
0010
0000
0000
1101
0000
0000
0010
0000
0000
1000
0000
0000
0100
0000
0000
1000
0000
0000
0010
0000
0000
0100
0000
0000
0010
0000
0000
1101
0000
0000
0000
0010
0000
0101
0000
0010
0000
0000
0000
,
1011
0000
0010
1100
0010
0000
1101
0000
0001
0000
0001
0000
0111
0000
0001
0000
0001
0000
1011
0000
0100
1000
0100
0000
,
1101
0000
0100
0011
0100
0000
1011
0000
0001
0000
0001
0000
0001
0000
0001
0000
0001
0000
1011
0000
0010
0101
0010
0000
,
1101
0000
0100
0000
0100
0000
1011
0000
0010
0101
0010
0000
1101
0000
0100
0000
0100
0000
1110
0000
1000
0000
1000
0000
,
1011
0000
0000
0000
0001
0000
0110
0000
0001
0000
0000
0000
1101
0000
0000
0000
0010
0000
0000
0000
0010
0000
0000
0000
1001
0000
0000
0010
0000
0000
0100
0000
0000
0010
0000
0000
1101
0000
0000
0000
0010
0000
0101
0000
0010
0000
0000
0000
,
1011
0000
0000
0000
0010
0000
1100
0000
0010
0000
0000
0000
1101
0000
0000
0000
0001
0000
0000
0000
0001
0000
0000
0000
1011
0000
0000
0000
0001
0000
0110
0000
0001
0000
0000
0000
1101
0000
0000
0010
0000
0000
0001
0000
0000
0100
0000
0000
,
1011
0000
0000
0000
1000
0000
0110
0000
1000
0000
0000
0000
0111
0000
0000
0000
0010
0000
1100
0000
0010
0000
0000
0000
1011
0000
0000
0000
0110
0000
0000
0000
0011
0000
0000
0000
1101
0000
0000
0010
0000
0000
1000
0000
0000
0001
0000
0000
,
0010
0100
0010
0001
1110
0001
0100
0010
1000
0010
0100
0001
1100
0010
0001
0100
,
0010
0000
1000
0000
0100
0000
0010
0000
1101
0000
0010
0000
1000
0000
0001
0000
1000
0000
0100
0000
0001
0000
0010
0000
1100
0010
0100
0010
0001
0000
0000
0000
,
0000
0000
0000
0000
1000
0010
0100
0010
0001
1000
0100
0001
0010
1000
0100
0010
,
0001
1000
0100
0010
0001
1000
0010
0001
0010
1000
0100
0010
0001
0100
0010
1000
,
0001
0000
0000
0100
0000
0000
0010
0000
0000
1000
0000
0000
0011
0000
0000
0000
0000
0000
0100
0000
0000
0000
0000
0000
1001
0000
0000
0000
0000
0000
0010
0000
0000
0000
0000
0000
0101
0000
0000
0000
1000
0000
0001
0000
0010
0000
0000
0000
,
0100
0000
0000
0010
0000
0000
0101
0000
0000
1000
0000
0000
0101
0000
0000
0100
0000
0000
0011
0000
1000
0000
0100
0000
,
0010
0000
0000
0000
0000
0000
0011
0000
0000
0100
0000
0000
1001
0000
0000
0010
0000
0000
0101
0000
1000
0010
0100
0000
,
0001
0000
0000
0100
0000
0000
0011
0000
0000
1000
0000
0000
0101
0000
0000
0010
0000
0000
1001
0000
0010
0100
1000
0000
,
0110
0000
1000
0001
0100
0000
0011
0000
0000
0100
0000
0000
1001
0000
0000
0010
0000
0000
0101
0000
1000
0010
0100
0000
,
0011
0000
0100
1000
0010
0000
0101
0000
0010
0001
0100
0000
1010
0000
0100
0001
1000
0000
0101
0000
0010
1000
0100
0000
,
1001
0000
0000
0000
0010
0000
0100
0000
1000
0000
0000
0000
0101
0000
0000
0000
0000
0000
1000
0000
0000
0000
0000
0000
0001
0000
0000
0000
0000
0000
0100
0000
0000
0010
0000
0000
1101
0000
0000
0000
0000
0000
0100
0000
0000
0000
0000
0000
,
0010
0000
0000
0000
1000
0000
0000
0000
2220
0000
0000
0000
0000
0000
0000
3330
0001
0000
0010
0000
0100
0000
1000
0000
0010
0000
0100
0000
0010
0000
1000
0000
,
0100
1000
0001
0100
0001
0010
0100
1000
0001
0100
0010
1000
0010
0100
0010
1000
,
0100
0001
0100
0010
2000
0000
0000
0000
0000
0000
0000
0000
0000
0000
0000
0000
,
0000
0000
0000
0000
0000
0000
0000
0000
0000
0000
0000
0000
0000
0000
0000
0000
0000
0000
0000
0000
0000
0000
0000
0000
0000
0000
0000
0000
0000
0000
0000
0000
0000
0000
0000
0000
0000
0000
0000
0000
0000
0000
3000
0000
0000
0000
0000
0000
0212
0000
0000
0000
0000
0000
0000
0000
0000
0000
0000
0000
0000
0000
0000
0000
0000
0000
0000
0000
0000
0000
0000
0000
0000
0000
0000
0000
0000
0000
0000
0000
0000
0000
0000
0000
0000
0000
0000
0000
0000
0000
0000
0000
0000
0000
0000
0000
0000
0000
0000
0000
0000
0000
0000
0000
0000
0000
0000
0000
0000
0000
0000
0000
0000
0000
0000
0000
0000
0000
0000
0000
0000
0000
0000
0000
2000
0000
0000
0000
0000
0000
0000
0000
0000
0000
0000
0000
0000
0000
0000
0000
0000
0000
0000
0000
0000
0000
0000
0000
0000
0000
0000
0000
0000
0000
0000
0000
0000
0000
0000
0000
0000
0000
0000
0000
0000
0000
0000
0000
0000
0000
0000
0000
0000
0000
0000
0000
0000
0000
0000
0000
0000
0000
0000
0000
0000
0000
0000
0000
0000
0000
0000
0000
,
0000
0000
0000
0000
0000
0000
0000
0000
0000
0000
0000
0000
3303
0202
0000
0000
0000
0000
0000
0000
0000
0000
0000
0000
0000
0000
0000
0000
0000
0000
0000
0000
,
0000
0000
0000
0000
0000
0000
0000
0000
0000
0000
0000
0303
0000
0000
0000
0000
;

//---------------dance-single - ----------------
#NOTES:
     dance-single:
     :
     Hard:
     10:
     1.000,1.000,1.000,0.033,1.000,1311.000,246.000,7.000,0.000,0.000:



0000
0000
0000
0000
0000
1000
0011
0000
0000
0100
0000
0000
1000
0000
0000
0010
0000
1000
0101
0000
0000
0001
0000
0000
,
1000
0010
0101
1000
0110
0011
0101
1000
,
0010
0000
0000
0000
0000
1000
0011
0000
0000
0100
0000
0000
1000
0000
0000
0010
0000
1000
0101
0000
0000
0010
0000
0000
,
1000
0100
0011
1000
0101
1010
0110
1100
,
1001
0000
0000
0010
0000
1000
0011
0000
0000
0100
0000
0000
1000
0000
0000
0010
0000
1000
0101
0000
0000
0010
0000
0000
,
1000
0010
0101
1000
0110
1000
0101
1000
,
0011
0000
0000
0000
0000
0000
0100
0000
0000
0000
0010
0000
1001
0000
0000
0000
0000
0000
0100
0000
0000
0000
0000
0000
1000
0000
0000
0000
0000
0000
0010
0000
0000
0001
0100
0000
1010
0000
0000
0000
0000
0000
0100
0000
0000
0000
0000
0000
,
0001
0000
1000
0000
0101
0000
1000
0000
0101
0000
0100
0011
0000
0000
0000
0000
,
0000
0000
0000
0000
0000
0000
0101
1000
,
0010
0101
0110
0011
1000
0101
1010
1100
,
1010
0000
1010
0001
1000
0000
0010
0000
0001
0000
0010
0000
0101
0000
1000
0000
,
0010
0101
0110
0101
0010
1001
0011
1000
,
0101
1000
0110
1000
0001
1000
0101
1000
,
0010
0101
0110
0101
0010
1100
1010
0001
,
1100
0001
1010
0001
0110
1000
0101
1100
,
0010
0000
0100
0010
0101
0000
1010
0000
0001
0000
1100
0000
0110
0000
1100
0000
,
0110
0000
0000
0000
0000
0000
0110
0000
0000
0001
0000
0000
1000
0000
0000
0000
0000
0000
0100
0000
0000
0000
0000
0000
0001
0000
0000
0000
0000
0000
0100
0000
0000
0000
0000
0000
1010
0000
0000
0000
0100
0000
0000
0000
0010
0000
0000
0000
,
0001
0000
0100
0010
0001
0000
1100
0000
0010
0001
0100
0000
0001
0000
1000
0010
0100
0000
1010
0000
0100
1000
0010
0000
,
1100
0000
0000
0000
0010
0000
0100
0000
0001
0010
0000
0000
1000
0000
0000
0000
0100
0000
0000
0000
0010
0000
0000
0000
0001
0000
0000
0000
0010
0000
0000
0000
0100
0000
0000
0000
1010
0000
0000
0000
0100
0000
0000
0000
0010
0000
0000
0000
,
0001
0000
0100
0010
0001
0000
1100
0000
0001
0010
0100
0000
0001
0000
0100
1000
0010
0000
0101
0000
1000
0000
0001
0000
,
0110
0001
0100
1010
0100
0010
0001
0010
0100
1010
0100
0010
,
0001
0000
0100
0010
0001
0000
1100
0000
0001
0010
0100
0000
0001
0000
0100
1000
0010
0000
0101
0000
1000
0000
0001
0000
,
0110
0000
0001
0000
1000
0000
0101
0000
1000
0000
0100
0000
0011
0000
0100
0000
1000
0000
0011
0000
0000
1010
0000
0000
,
0000
0000
0100
0010
0101
0000
1100
0000
0000
0000
1000
0000
0110
0000
1100
0000
,
0110
0000
0000
0000
0000
0000
0110
0000
0000
0001
0000
0000
1000
0000
0000
0000
0000
0000
1000
0000
0100
0000
0010
0000
0001
0000
0100
0000
0010
0000
1000
0000
0100
0000
0010
0000
0001
0000
0000
1000
0000
0000
0100
0000
0000
0010
0000
0000
,
0001
0010
0100
1000
0010
1000
0001
0100
0010
0100
0001
1000
0100
1000
0010
0100
,
0001
0100
0010
1000
0001
0100
0010
0001
1000
0001
0010
0100
1000
0100
0010
0001
,
1000
0001
0010
0100
0010
0001
1000
0100
0010
0100
1000
0001
1000
0001
0010
0100
,
0010
0100
1000
0001
0100
0001
0010
0100
1000
0001
0010
0001
0100
1000
0100
0010
,
0001
0010
0100
0010
1000
0100
0010
0100
0001
0100
0010
0001
0100
0010
1000
0100
,
0010
0100
1000
0010
0100
1000
0100
0010
0001
1000
0010
0100
1000
0100
0010
0001
,
1000
0001
0010
0100
1000
0010
0100
0001
0010
0001
0100
0010
1000
0001
0010
0100
,
0010
0100
1000
0001
1010
0100
0010
1000
0110
0001
0100
0010
0101
1000
0100
0010
,
0001
0010
0100
1000
0010
1000
0001
0100
0011
0100
0001
1000
0110
1000
0010
0100
,
0001
0100
0010
1000
0011
0100
0010
0001
1000
0001
0010
0100
1010
0100
0010
0001
,
1000
0001
0010
0100
1000
0010
0100
0001
1000
0001
0010
0100
0001
0010
0100
1000
,
0010
0100
0010
1000
0000
0000
0000
0000
1010
0001
0110
1000
0101
1000
0100
0010
,
0001
0010
1100
0010
1000
0001
1010
0100
0011
0100
1010
0001
0100
0010
1000
0100
,
0010
0100
1000
0010
0101
0010
1100
0001
0100
0010
0001
1010
0100
1000
0100
0010
,
0001
0010
0100
1000
0010
1000
0100
0010
0001
0010
0100
1000
0110
0000
1100
0000
,
0110
0000
0110
0001
1100
0000
0000
0000
0110
0000
0000
0000
0101
1000
1000
0001
,
1000
0100
0010
0010
0100
1000
1000
0001
0001
0010
0010
0100
0100
1000
0001
0010
,
0100
0010
0001
0010
0100
1000
0100
0010
1000
0010
0100
0001
1000
0100
0010
0100
,
0001
0010
0100
1000
0100
0010
0001
0010
0100
0010
0100
1000
0010
1000
0100
1000
,
0010
0100
0001
0100
0010
1000
0010
0100
0001
1000
0100
0010
0101
1000
1000
0001
,
1000
0100
0010
0010
0100
1000
1000
0001
0001
0010
0010
0100
0100
1000
0001
0010
,
0100
0010
0001
0010
0100
1000
0100
0010
1000
0010
0100
0001
1000
0100
0010
0010
,
0001
0010
0100
1000
0100
0010
0001
1000
0100
1000
0010
0100
0001
0010
0010
0100
,
0001
0000
0000
0010
0000
0000
0100
0000
0000
1000
0000
0000
0101
0000
0000
0000
0110
0000
0000
0000
1010
0000
0000
0000
1001
0000
0000
0000
0011
0000
0000
0000
0110
0000
0000
0000
1100
0000
0000
0010
0000
0000
0100
0000
0000
0001
0000
0000
,
1000
0100
0010
0001
0010
0100
0010
0001
0100
0010
0100
0001
1010
0100
0010
0100
,
1000
0010
0100
0010
1000
0100
0010
0001
1000
0001
0100
0010
1001
0010
0100
0001
,
1000
0000
0000
0100
0000
0000
0010
0000
0000
0001
0000
0000
0100
0000
0000
0010
0000
0000
0100
0000
0000
0001
0000
0000
1000
0000
0000
0010
0000
0000
0100
0000
0000
0010
0000
0000
1000
0000
0000
0000
0001
0000
0000
0000
0010
0000
0000
0000
,
0001
0000
0000
0000
0010
0000
0000
0000
0100
0000
0000
0000
1000
0000
0000
0100
0000
0000
0010
0000
0000
0001
0000
0000
1000
0000
0000
0001
0000
0000
0100
0000
0000
0010
0000
0000
1100
0000
0000
0010
0000
0000
0100
0000
0000
0001
0000
0000
,
1000
0000
0000
0100
0000
0000
0010
0000
0000
0001
0000
0000
0010
0000
0000
0100
0000
0000
0010
0000
0000
0001
0000
0000
1000
0000
0000
0100
0000
0000
0010
0000
0000
0100
0000
0000
1001
0000
0000
0000
0010
0000
0000
0000
0100
0000
0000
0000
,
0011
0000
0000
0000
0100
0000
0000
0000
1000
0000
0000
0000
0101
0000
0000
0000
0010
0000
0000
0000
0100
0000
0000
0000
1010
0000
0000
0000
0001
0000
0000
0000
0100
0000
0000
0000
0011
0000
0000
0100
0000
0000
0010
0000
0000
0001
0000
0000
,
1000
0001
0010
0100
1000
0010
0100
0001
0010
0001
0100
0010
0101
1000
0100
0010
,
0001
0010
0100
0010
0001
0100
0010
1000
0100
0010
0100
1000
0011
0100
0010
0100
,
1000
0100
0010
0001
1000
0001
0010
0100
1000
0100
0010
0100
1001
0010
0100
1000
,
0001
0000
0000
0010
0000
0000
0100
0000
0000
1000
0000
0000
0001
0000
0000
0010
0000
0000
0100
0000
0000
1000
0000
0000
0001
0000
0000
0010
0000
0000
0100
0000
0000
1000
0000
0000
0101
0000
0010
0000
0001
0000
0010
0000
0100
0000
0001
0000
,
0010
1000
0010
0100
0001
0000
0110
1000
0001
0100
0010
1000
0100
1000
0100
0010
0001
0000
1010
0001
0100
0001
0010
0100
,
1000
0010
0010
0001
0100
0001
1100
0010
0001
0100
0010
1000
0100
0010
0001
0100
0010
1000
0101
0010
0001
0010
0100
0010
,
1001
0100
0010
0100
0001
0000
0110
1000
0001
0100
0010
1000
0011
1000
0100
0010
0001
0000
1010
0001
0100
0001
1000
0010
,
0101
0010
0010
0001
0100
0001
1100
0010
0001
0100
0010
1000
0110
0001
0100
0010
1000
0010
0101
1000
0010
0100
0001
0100
,
1001
0010
0010
0001
0100
0001
0110
1000
0100
1000
0010
0100
0011
0100
0100
0001
1000
0001
1010
0100
1000
0010
0100
0010
,
0101
1000
0010
0100
0001
0010
1100
0001
0100
0010
1000
0001
0110
1000
0001
0100
0010
1000
0011
1000
0100
1000
0010
0100
,
1000
0001
0010
0100
1000
0010
0101
1000
0010
0100
0001
1000
0100
1000
0001
0010
0100
0010
1001
0010
0100
1000
0010
0100
,
0001
0100
0010
0001
0100
0001
1010
0100
0100
0010
0010
0100
0001
0000
0000
0000
0000
0000
1001
0000
0010
0000
0100
0000
,
0011
0000
0100
0000
1000
0000
0110
0000
1000
0000
0001
0000
1010
0000
0001
0000
0010
0000
1100
0000
0000
0110
0000
0000
,
1010
0101
1001
0100
0011
1000
0011
1010
,
0101
0011
1010
0001
0010
0100
1010
0101
,
1100
0001
1010
0101
1100
0001
1100
0001
,
1010
0000
0110
0000
0101
0000
0010
0000
0001
0010
0100
0010
1100
0000
0110
0000
,
1010
0000
0101
0000
1001
0000
0100
0000
1010
0000
0110
0000
0101
0010
0001
0100
,
0011
0000
0000
0000
0000
0000
1010
0000
0000
0000
0000
0000
0110
0000
0000
0000
0000
0000
1100
0000
0000
0000
0000
0000
1001
0000
0000
0000
0100
0000
1000
0000
0010
0000
0000
0000
0101
0000
0000
0010
0000
0000
1000
0000
0000
0001
0000
0000
,
0010
0100
0010
0001
1010
0001
0100
0010
1000
0010
0100
0001
1100
0010
0001
0100
,
0010
0000
0000
1000
0000
0000
0100
0000
0000
0010
0000
0000
0101
0000
0000
0010
0000
0000
1000
0000
0000
0100
0000
0000
1000
0000
0000
0010
0000
0000
0100
0000
0000
0010
0000
0000
1100
0000
0000
0000
0010
0000
0100
0000
0010
0000
0000
0000
,
1010
0000
0010
0100
0010
0000
1001
0000
0001
0000
0001
0000
0011
0000
0001
0000
0001
0000
0011
0000
0100
1000
0100
0000
,
0101
0000
0100
0010
0100
0000
1001
0000
0001
0000
0001
0000
0001
0000
0001
0000
0001
0000
1001
0000
0010
0100
0010
0000
,
1100
0000
0100
0000
0100
0000
1001
0000
0010
0100
0010
0000
1100
0000
0100
0000
0100
0000
1100
0000
0010
0000
0010
0000
,
0101
0000
0000
0000
0001
0000
0010
0000
0001
0000
0000
0000
1001
0000
0000
0000
0100
0000
0000
0000
0100
0000
0000
0000
0001
0000
0000
0010
0000
0000
0100
0000
0000
0010
0000
0000
1100
0000
0000
0000
0010
0000
0100
0000
0010
0000
0000
0000
,
1010
0000
0000
0000
0010
0000
0100
0000
0010
0000
0000
0000
1001
0000
0000
0000
0001
0000
0000
0000
0001
0000
0000
0000
0011
0000
0000
0000
0001
0000
1000
0000
0001
0000
0000
0000
0101
0000
0000
0010
0000
0000
0001
0000
0000
0100
0000
0000
,
0011
0000
0000
0000
0010
0000
0100
0000
0010
0000
0000
0000
1001
0000
0000
0000
1000
0000
0010
0000
1000
0000
0000
0000
1100
0000
0000
0000
1010
0000
0000
0000
1001
0000
0000
0000
0101
0000
0000
0010
0000
0000
1000
0000
0000
0001
0000
0000
,
0010
0100
0010
0001
1010
0001
0100
0010
1000
0010
0100
0001
1100
0010
0001
0100
,
0010
0000
1000
0000
0100
0000
0010
0000
0101
0000
0010
0000
1000
0000
0001
0000
1000
0000
0100
0000
0001
0000
0100
0000
1000
0100
0010
0100
0001
0000
0000
0000
,
0000
0000
0000
0000
1000
0010
0100
0010
0001
1000
0100
0001
0100
1000
0100
0010
,
0001
1000
0100
0010
0001
1000
0010
0001
0010
1000
0100
0010
0001
0100
0010
1000
,
0001
0000
0000
0100
0000
0000
0010
0000
0000
1000
0000
0000
0011
0000
0000
0000
0000
0000
0100
0000
0000
0000
0000
0000
1001
0000
0000
0000
0000
0000
0010
0000
0000
0000
0000
0000
0101
0000
0000
0000
1000
0000
0001
0000
0010
0000
0000
0000
,
0100
0000
0000
0010
0000
0000
0101
0000
0000
1000
0000
0000
0101
0000
0000
0100
0000
0000
0011
0000
1000
0000
0100
0000
,
0010
0000
0000
0000
0000
0000
0011
0000
0000
0100
0000
0000
1001
0000
0000
0010
0000
0000
0101
0000
1000
0010
0100
0000
,
0001
0000
0000
0100
0000
0000
0011
0000
0000
1000
0000
0000
0101
0000
0000
0010
0000
0000
1001
0000
0010
0100
1000
0000
,
0110
0000
1000
0001
0100
0000
0011
0000
0000
0100
0000
0000
1001
0000
0000
0010
0000
0000
0101
0000
1000
0010
0100
0000
,
0011
0000
0100
1000
0010
0000
0101
0000
0010
0001
0100
0000
1010
0000
0100
0001
1000
0000
0101
0000
0010
1000
0100
0000
,
1001
0000
0000
0000
0010
0000
0100
0000
1000
0000
0000
0000
0101
0000
0000
0000
0000
0000
1000
0000
0000
0000
0000
0000
0001
0000
0000
0000
0000
0000
0100
0000
0000
0010
0000
0000
0101
0000
0000
0000
0000
0000
0010
0000
0000
0000
0000
0000
,
0100
0000
0000
0000
1000
0000
0000
0000
2200
0000
0000
0000
0000
0000
0000
3300
0001
0000
0010
0000
0100
0000
1000
0000
0010
0000
0100
0000
0010
0000
1000
0000
,
0100
1000
0001
0100
0001
0010
0100
1000
0001
0100
0010
1000
0010
0100
0010
1000
,
0100
0001
0100
0010
2000
0000
0000
0000
0000
0000
0000
0000
0000
0000
0000
0000
,
0000
0000
0000
0000
0000
0000
0000
0000
0000
0000
0000
0000
0000
0000
0000
0000
0000
0000
0000
0000
0000
0000
0000
0000
0000
0000
0000
0000
0000
0000
0000
0000
0000
0000
0000
0000
0000
0000
0000
0000
0000
0000
3000
0000
0000
0000
0000
0000
0102
0000
0000
0000
0000
0000
0000
0000
0000
0000
0000
0000
0000
0000
0000
0000
0000
0000
0000
0000
0000
0000
0000
0000
0000
0000
0000
0000
0000
0000
0000
0000
0000
0000
0000
0000
0000
0000
0000
0000
0000
0000
0000
0000
0000
0000
0000
0000
0000
0000
0000
0000
0000
0000
0000
0000
0000
0000
0000
0000
0000
0000
0000
0000
0000
0000
0000
0000
0000
0000
0000
0000
0000
0000
0000
0000
2000
0000
0000
0000
0000
0000
0000
0000
0000
0000
0000
0000
0000
0000
0000
0000
0000
0000
0000
0000
0000
0000
0000
0000
0000
0000
0000
0000
0000
0000
0000
0000
0000
0000
0000
0000
0000
0000
0000
0000
0000
0000
0000
0000
0000
0000
0000
0000
0000
0000
0000
0000
0000
0000
0000
0000
0000
0000
0000
0000
0000
0000
0000
0000
0000
0000
0000
0000
,
0000
0000
0000
0000
0000
0000
0000
0000
0000
0000
0000
0000
3003
0202
0000
0000
0000
0000
0000
0000
0000
0000
0000
0000
0000
0000
0000
0000
0000
0000
0000
0000
,
0000
0000
0000
0000
0000
0000
0000
0000
0000
0000
0000
0303
0000
0000
0000
0000
;

//---------------dance-solo - Copied from----------------
#NOTES:
     dance-solo:
     Copied from:
     Hard:
     12:
     1.000,1.000,1.000,0.043,1.000,1324.000,404.000,9.000,0.000,121.000:




000000
000000
000000
000000
000000
100000
001010
000000
000000
010000
000000
000000
100000
000000
000000
001000
000000
100000
010110
000000
000000
000001
000000
000000
,
100000
000010
010101
100000
010101
001100
110010
000100
,
000001
000000
000000
000000
000000
100000
001010
000000
000000
010000
000000
000000
100000
000000
000000
001000
000000
100000
010110
000000
000000
001000
000000
000000
,
100000
000010
001101
100000
010101
101000
010110
110000
,
001100
000000
000000
000001
000000
100000
001010
000000
000000
010000
000000
000000
100000
000000
000000
001000
000000
100000
010110
000000
000000
001000
000000
000000
,
100000
000010
001101
100000
011010
000100
101001
000100
,
100011
000000
000000
000000
000000
000000
010000
000000
000000
000000
001000
000000
100101
000000
000000
000000
000000
000000
001000
000000
000000
000000
000000
000000
010000
000000
000000
000000
000000
000000
000100
000000
000000
000010
100000
000000
001101
000000
000000
000000
000000
000000
010000
000000
000000
000000
000000
000000
,
000100
000000
100000
000000
011010
000000
100000
000000
001101
000000
001000
010010
000000
000000
000000
000000
,
000000
000000
000000
000000
000000
000000
100110
010000
,
001000
100110
011100
100001
000100
010001
100110
011000
,
100110
000000
100110
001001
010000
000000
001000
000000
000100
000000
001000
000000
100110
000000
010000
000000
,
001000
100110
011010
100110
001000
110010
010101
001000
,
110010
001000
100110
001000
000010
001000
100110
010000
,
001000
100110
011100
100011
001000
100110
001101
100000
,
011010
000100
101001
000100
010011
001000
110101
001010
,
000001
000000
010100
000010
101100
000000
110001
000000
001000
000000
100110
000000
011001
000000
100010
000000
,
001101
000000
000000
000000
000000
000000
001101
000000
000000
010010
000000
000000
100000
000000
000000
000000
000000
000000
000100
000000
000000
000000
000000
000000
000001
000000
000000
000000
000000
000000
000100
000000
000000
000000
000000
000000
101010
000000
000000
000000
010000
000000
000000
000000
001000
000000
000000
000000
,
000100
000000
010000
001000
000100
000000
110000
000000
001000
000100
010000
000000
000100
000000
100000
001000
010000
000000
101000
000000
010000
100000
001000
000000
,
110000
000000
000000
000000
001000
000000
010000
000000
000100
001000
000000
000000
100000
000000
000000
000000
010000
000000
000000
000000
001000
000000
000000
000000
000100
000000
000000
000000
001000
000000
000000
000000
010000
000000
000000
000000
101000
000000
000000
000000
010000
000000
000000
000000
001000
000000
000000
000000
,
000100
000000
010000
001000
000100
000000
110000
000000
000100
001000
010000
000000
000100
000000
010000
100000
001000
000000
010100
000000
100000
000000
000100
000000
,
011000
000100
010000
101000
010000
001000
000100
001000
010000
101000
010000
001000
,
000100
000000
010000
001000
000100
000000
110000
000000
000100
001000
010000
000000
000100
000000
010000
100000
001000
000000
010100
000000
100000
000000
000100
000000
,
011000
000000
000100
000000
100000
000000
010100
000000
100000
000000
010000
000000
001100
000000
010000
000000
100000
000000
011100
000000
000000
111000
000000
000000
,
000000
000000
010000
001000
110100
000000
101100
000000
000000
000000
100000
000000
011000
000000
110000
000000
,
011000
000000
000000
000000
000000
000000
011000
000000
000000
100100
000000
000000
010000
000000
000000
000000
000000
000000
100000
000000
010000
000000
001000
000000
100100
000000
010000
000000
001000
000000
100000
000000
010000
000000
001000
000000
010100
000000
000000
100000
000000
000000
010000
000000
000000
001000
000000
000000
,
000100
001000
010000
100000
001000
100000
000100
010000
001100
010000
000100
100000
011000
100000
001000
010000
,
000100
010000
001000
100000
001100
010000
001000
000100
100000
000100
001000
010000
101000
010000
001000
000100
,
100000
000100
001000
010000
001000
000100
100000
010000
001000
010000
100000
000100
100000
000100
001000
010000
,
001000
010000
100000
000100
010000
000100
001000
010000
101000
000100
011000
100000
010100
100000
010000
001000
,
000100
001000
110000
001000
100000
000100
101000
010000
001100
010000
101000
000100
010000
001000
100000
010000
,
001000
010000
100100
001000
010000
100000
010000
001000
010100
100000
001000
010000
101000
010000
001000
000100
,
100000
000100
001000
010000
100000
001000
010000
000100
001000
000100
010000
001000
100000
000100
001000
010000
,
001000
010000
100000
000100
101000
010000
001000
100000
011000
000100
010000
001000
010100
100000
010000
001000
,
000100
001000
010000
100000
001000
100000
000100
010000
001100
010000
000100
100000
011000
100000
001000
010000
,
000100
010000
001000
100000
001100
010000
001000
000100
100000
000100
001000
010000
101000
010000
001000
000100
,
100000
000100
001000
010000
100000
001000
010000
000100
100000
000100
001000
010000
000100
001000
010000
100000
,
001000
010000
001000
100000
000000
000000
000000
000000
101000
000100
011000
100000
010100
100000
010000
001000
,
000100
001000
110000
001000
100000
000100
101000
010000
001100
010000
101000
000100
010000
001000
100000
010000
,
001000
010000
100000
001000
010100
001000
110000
000100
011000
100000
010100
101000
010000
100000
010000
001000
,
000100
001000
010000
100000
001000
100000
010000
001000
000100
001000
010000
100000
011000
000100
110000
000100
,
011000
100000
011000
100100
111000
000000
000000
000000
110100
000000
000000
000000
011100
100000
100000
010100
,
101000
010000
001100
001000
010100
100000
101000
000100
001100
010000
011000
100000
100100
010000
001100
010000
,
101000
000100
011000
000100
110000
001000
010000
000100
100000
010000
001000
000100
101000
000100
011000
100000
,
001100
100000
011000
000100
101000
010000
100100
010000
101000
000100
110000
001000
010100
001000
110000
000100
,
101000
010000
100100
001000
110000
001000
010000
000100
101000
010000
001000
100000
011100
100000
100000
010100
,
101000
010000
001100
001000
010100
100000
101000
000100
001100
010000
011000
100000
100100
010000
001100
010000
,
101000
000100
011000
000100
110000
001000
010000
000100
100000
010000
001000
000100
101000
000100
011000
100000
,
001100
100000
011000
000100
101000
000100
011000
100000
001100
010000
100100
001000
010100
001000
101000
010000
,
000100
000000
001000
000000
010000
000000
100000
000000
010100
001000
010000
001000
010000
001000
010000
001000
010000
001000
010000
001000
010000
001000
010000
001000
110100
000000
001000
000000
010000
000000
000100
000000
,
100000
001000
010100
100000
011000
100000
001100
010000
000100
001000
010100
100000
011000
000100
110000
000100
,
101000
010000
101000
010100
100000
001000
010000
001000
000100
010000
001000
100000
010100
001000
010000
000100
,
100000
000000
000000
001000
000000
000000
010100
000000
000000
100000
000000
000000
011000
000000
000000
100000
000000
000000
010100
000000
000000
001000
000000
000000
100000
000000
000000
010000
000000
000000
001100
000000
000000
010000
000000
000000
100100
000000
000000
000000
001000
000000
000000
000000
010000
000000
000000
000000
,
001100
000000
000000
000000
010000
000000
000000
000000
100000
000000
000000
000000
010100
000000
000000
100000
000000
000000
010000
000000
000000
001000
000000
000000
000100
000000
000000
010000
000000
000000
001000
000000
000000
100000
000000
000000
010100
000000
000000
001000
000000
000000
010000
000000
000000
000100
000000
000000
,
100000
000000
000000
001000
000000
000000
010100
000000
000000
100000
000000
000000
011000
000000
000000
100000
000000
000000
010100
000000
000000
001000
000000
000000
100000
000000
000000
010000
000000
000000
001100
000000
000000
010000
000000
000000
100100
000000
000000
000000
001000
000000
000000
000000
010000
000000
000000
000000
,
001100
000000
000000
000000
010000
000000
000000
000000
100000
000000
000000
000000
010100
000000
000000
000000
001000
000000
000000
000000
010000
000000
000000
000000
101000
000000
000000
000000
000100
000000
000000
000000
010000
000000
000000
000000
001100
000000
000000
010000
000000
000000
101000
000000
000000
010000
000000
000000
,
000100
100000
011000
100100
011000
000100
101000
010000
000100
010000
100100
001000
010100
100000
010000
001000
,
000100
001000
010000
001000
000100
010000
001000
100000
010000
001000
010000
100000
001100
010000
001000
010000
,
100000
010000
001000
000100
100000
000100
001000
010000
100000
010000
001000
010000
100100
001000
010000
100000
,
000100
000000
000000
001000
000000
000000
010000
000000
000000
100000
000000
000000
000100
000000
000000
001000
000000
000000
010000
000000
000000
100000
000000
000000
000100
000000
000000
001000
000000
000000
010000
000000
000000
100000
000000
000000
011100
000000
100000
000000
001100
000000
010000
000000
101000
000000
000100
000000
,
011000
100000
010000
001000
000100
000000
110100
001000
010100
001000
110000
000100
101000
010000
001000
010000
000100
000000
111000
000100
011000
000100
101000
010000
,
100100
001000
001000
000100
010000
000100
101100
010000
101000
000100
110000
001000
010100
001000
100100
010000
101000
000100
111000
010000
001100
100000
011000
100000
,
011100
100000
010000
001000
000100
000000
110100
100000
010100
001000
100100
010000
101100
010000
001000
100000
000100
000000
111000
000100
011000
000100
101000
010000
,
101100
010000
001000
000100
010000
000100
110100
001000
100100
010000
001100
100000
011100
100000
010100
001000
110000
000100
111000
100000
011000
100000
010100
001000
,
110100
001000
001000
000100
011000
000100
111000
100000
010100
100000
001100
010000
101100
010000
010000
000100
110000
001000
110100
010000
101000
000100
011000
100000
,
011100
100000
010000
001000
010000
000100
111000
000100
010000
001000
100000
010000
101100
010000
101000
000100
110000
001000
110100
001000
010100
100000
001100
100000
,
011000
100000
001100
010000
101000
000100
111000
100000
011000
100000
010100
001000
110000
001000
010100
001000
100100
010000
101100
000100
011000
100000
010100
001000
,
100100
001000
010100
100000
011000
000100
101100
010000
110000
001000
101000
001000
000100
000000
000000
000000
000000
000000
100100
000000
001000
000000
010000
000000
,
001100
000000
010000
000000
100000
000000
011000
000000
100000
000000
000100
000000
101000
000000
000100
000000
001000
000000
110100
000000
000000
011000
000000
000000
,
101000
010100
100100
010000
001100
100000
011100
101000
,
010100
001100
101000
000100
001000
010000
101100
010100
,
110000
000100
111000
010100
110000
000100
111000
010000
,
101000
000000
011000
000000
110100
000000
001000
000000
100100
001000
010100
001000
110100
000000
011000
000000
,
101000
000000
010100
000000
100100
000000
010000
000000
101000
000000
011000
000000
110100
001000
100100
010000
,
001100
000000
000000
000000
000000
000000
101000
000000
000000
000000
000000
000000
011000
000000
000000
000000
000000
000000
110000
000000
000000
000000
000000
000000
100100
000000
000000
000000
010000
000000
100000
000000
001000
000000
000000
000000
110100
000000
000000
001000
000000
000000
100000
000000
000000
000100
000000
000000
,
001000
010000
001000
000100
111000
000100
010000
001000
100000
001000
010000
000100
110000
001000
000100
010000
,
001000
000000
000000
100000
000000
000000
010000
000000
000000
001000
000000
000000
110100
000000
000000
001000
000000
000000
100000
000000
000000
010000
000000
000000
100000
000000
000000
001000
000000
000000
010000
000000
000000
001000
000000
000000
110100
000000
000000
000000
001000
000000
010100
000000
001000
000000
000000
000000
,
101100
000000
001000
110000
001000
000000
110100
000000
000100
000000
000100
000000
011100
000000
000100
000000
000100
000000
101100
000000
010000
100000
010000
000000
,
110100
000000
010000
001100
010000
000000
101100
000000
000100
000000
000100
000000
000100
000000
000100
000000
000100
000000
101100
000000
001000
010100
001000
000000
,
110100
000000
010000
000000
010000
000000
101100
000000
001000
010100
001000
000000
110100
000000
010000
000000
010000
000000
111000
000000
100000
000000
100000
000000
,
101100
000000
000000
000000
000100
000000
011000
000000
000100
000000
000000
000000
110100
000000
000000
000000
001000
000000
000000
000000
001000
000000
000000
000000
100100
000000
000000
001000
000000
000000
010000
000000
000000
001000
000000
000000
110100
000000
000000
000000
001000
000000
010100
000000
001000
000000
000000
000000
,
101100
000000
000000
000000
001000
000000
110000
000000
001000
000000
000000
000000
110100
000000
000000
000000
000100
000000
000000
000000
000100
000000
000000
000000
101100
000000
000000
000000
000100
000000
011000
000000
000100
000000
000000
000000
110100
000000
000000
001000
000000
000000
000100
000000
000000
010000
000000
000000
,
101100
000000
000000
000000
100000
000000
011000
000000
100000
000000
000000
000000
011100
000000
000000
000000
001000
000000
110000
000000
001000
000000
000000
000000
101100
000000
000000
000000
011000
000000
000000
000000
001100
000000
000000
000000
110100
000000
000000
001000
000000
000000
100000
000000
000000
000100
000000
000000
,
001000
010000
001000
000100
111000
000100
010000
001000
100000
001000
010000
000100
110000
001000
000100
010000
,
001000
000000
100000
000000
010000
000000
001000
000000
110100
000000
001000
000000
100000
000000
000100
000000
100000
000000
010000
000000
000100
000000
001000
000000
110000
001000
010000
001000
000100
000000
000000
000000
,
000000
000000
000000
000000
100000
001000
010000
001000
000100
100000
010000
000100
001000
100000
010000
001000
,
000100
100000
010000
001000
000100
100000
001000
000100
001000
100000
010000
001000
000100
010000
001000
100000
,
000100
000000
000000
010000
000000
000000
001000
000000
000000
100000
000000
000000
001100
000000
000000
000000
000000
000000
010000
000000
000000
000000
000000
000000
100100
000000
000000
000000
000000
000000
001000
000000
000000
000000
000000
000000
010100
000000
000000
000000
100000
000000
000100
000000
001000
000000
000000
000000
,
010000
000000
000000
001000
000000
000000
010100
000000
000000
100000
000000
000000
010100
000000
000000
010000
000000
000000
001100
000000
100000
000000
010000
000000
,
001000
000000
000000
000000
000000
000000
001100
000000
000000
010000
000000
000000
100100
000000
000000
001000
000000
000000
010100
000000
100000
001000
010000
000000
,
000100
000000
000000
010000
000000
000000
001100
000000
000000
100000
000000
000000
010100
000000
000000
001000
000000
000000
100100
000000
001000
010000
100000
000000
,
011000
000000
100000
000100
010000
000000
001100
000000
000000
010000
000000
000000
100100
000000
000000
001000
000000
000000
010100
000000
100000
001000
010000
000000
,
001100
000000
010000
100000
001000
000000
010100
000000
001000
000100
010000
000000
101000
000000
010000
000100
100000
000000
010100
000000
001000
100000
010000
000000
,
100100
000000
000000
000000
001000
000000
010000
000000
100000
000000
000000
000000
010100
000000
000000
000000
000000
000000
100000
000000
000000
000000
000000
000000
000100
000000
000000
000000
000000
000000
010000
000000
000000
001000
000000
000000
110100
000000
000000
000000
000000
000000
010000
000000
000000
000000
000000
000000
,
001000
000000
000000
000000
100000
000000
000000
000000
222000
000000
000000
000000
000000
000000
000000
333000
000100
000000
001000
000000
010000
000000
100000
000000
001000
000000
010000
000000
001000
000000
100000
000000
,
010000
100000
000100
010000
000100
001000
010000
100000
000100
010000
001000
100000
001000
010000
001000
100000
,
010000
000100
010000
001000
200000
000000
000000
000000
000000
000000
000000
000000
000000
000000
000000
000000
,
000000
000000
000000
000000
000000
000000
000000
000000
000000
000000
000000
000000
000000
000000
000000
000000
000000
000000
000000
000000
000000
000000
000000
000000
000000
000000
000000
000000
000000
000000
000000
000000
000000
000000
000000
000000
000000
000000
000000
000000
000000
000000
300000
000000
000000
000000
000000
000000
021200
000000
000000
000000
000000
000000
000000
000000
000000
000000
000000
000000
000000
000000
000000
000000
000000
000000
000000
000000
000000
000000
000000
000000
000000
000000
000000
000000
000000
000000
000000
000000
000000
000000
000000
000000
000000
000000
000000
000000
000000
000000
000000
000000
000000
000000
000000
000000
000000
000000
000000
000000
000000
000000
000000
000000
000000
000000
000000
000000
000000
000000
000000
000000
000000
000000
000000
000000
000000
000000
000000
000000
000000
000000
000000
000000
200000
000000
000000
000000
000000
000000
000000
000000
000000
000000
000000
000000
000000
000000
000000
000000
000000
000000
000000
000000
000000
000000
000000
000000
000000
000000
000000
000000
000000
000000
000000
000000
000000
000000
000000
000000
000000
000000
000000
000000
000000
000000
000000
000000
000000
000000
000000
000000
000000
000000
000000
000000
000000
000000
000000
000000
000000
000000
000000
000000
000000
000000
000000
000000
000000
000000
000000
000000
,
000000
000000
000000
000000
000000
000000
000000
000000
000000
000000
000000
000000
330300
020200
000000
000000
000000
000000
000000
000000
000000
000000
000000
000000
000000
000000
000000
000000
000000
000000
000000
000000
,
000000
000000
000000
000000
000000
000000
000000
000000
000000
000000
000000
030300
000000
000000
000000
000000
;

//---------------dance-single - Copied from----------------
#NOTES:
     dance-single:
     Copied from:
     Beginner:
     14:
     1.000,1.000,1.000,0.043,1.000,1367.000,558.000,9.000,0.000,75.000:




0000
0000
0000
0000
0000
1000
0011
0000
0000
0100
0000
0000
1000
0000
0000
0010
0000
1000
0101
0000
0000
0001
0000
0000
,
1000
0010
0101
1000
0110
0011
0101
1000
,
0010
0000
0000
0000
0000
1000
0011
0000
0000
0100
0000
0000
1000
0000
0000
0010
0000
1000
0101
0000
0000
0010
0000
0000
,
1000
0100
0011
1000
0101
1010
0110
1100
,
1001
0000
0000
0010
0000
1000
0011
0000
0000
0100
0000
0000
1000
0000
0000
0010
0000
1000
0101
0000
0000
0010
0000
0000
,
1000
0010
0101
1000
0110
1000
0101
1000
,
0011
0000
0000
0000
0000
0000
0100
0000
0000
0000
0010
0000
1001
0000
0000
0000
0000
0000
0100
0000
0000
0000
0000
0000
1000
0000
0000
0000
0000
0000
0010
0000
0000
0001
0100
0000
1010
0000
0000
0000
0000
0000
0100
0000
0000
0000
0000
0000
,
0001
0000
1000
0000
0111
0000
1000
0000
0101
0000
0100
0011
0000
0000
0000
0000
,
0000
0000
0000
0000
0000
0000
0101
1000
,
0010
0101
0110
0011
1000
0101
1010
1100
,
1010
0000
1010
0101
1000
0000
0010
0000
0001
0000
0010
0000
0101
0000
1000
0000
,
0010
0101
0110
0101
0010
1001
0011
1000
,
0101
1000
0110
1000
0001
1000
0101
1000
,
0010
0101
0110
0101
0010
1100
1010
0001
,
1100
0001
1010
0001
0110
1000
0101
1100
,
0010
0000
0101
0010
0101
0000
1010
0000
0001
0000
1100
0000
0110
0000
1100
0000
,
0110
0000
0000
0000
0000
0000
0110
0000
0000
1001
0000
0000
0100
0000
0000
0000
0000
0000
0010
0000
0000
0000
0000
0000
0001
0000
0000
0000
0000
0000
0010
0000
0000
0000
0000
0000
1100
0000
0010
0000
0100
0000
0010
0000
0100
0000
0010
0000
,
0100
0010
0100
1010
0000
0000
1001
0000
0000
0101
0010
0100
0010
0000
0000
1001
0000
0000
1100
0000
0000
0101
0000
0000
,
1100
0000
0000
0000
0000
0000
1100
0000
0000
0011
0000
0000
0100
0000
0010
0000
0100
0000
0010
0000
0100
0000
0010
0000
0100
0000
0010
0000
0100
0000
0010
0000
0100
0000
0000
0000
1100
0000
0010
0000
0100
0000
0010
0000
0100
0000
0010
0000
,
0100
0010
0100
1010
0000
0000
0101
0000
0000
1100
0010
0100
0010
0000
0000
0110
0000
0000
0011
1000
0001
1000
0001
0000
,
0110
0001
0100
0001
0100
0000
1001
0010
1000
0010
1000
0010
1000
0010
1000
0010
1000
0000
1100
0010
0100
0010
0100
0010
,
0100
0010
0100
1010
0000
0000
1001
0000
0000
1100
0010
0100
0010
0000
0000
0110
0000
0000
0011
0100
0001
0100
0001
0000
,
1100
0010
1000
0010
1000
0000
0011
0100
0001
0100
0001
0000
1010
0001
1000
0001
1000
0000
0111
0000
0000
1110
0000
0000
,
0000
0000
0100
0010
1101
0000
1011
0000
0000
0000
1000
0000
0110
0000
1100
0000
,
0110
0000
0000
0000
0000
0000
0110
0000
0000
1001
0000
0000
0100
0000
0000
0000
0000
0000
1000
0000
0100
0000
0010
0000
1001
0000
0100
0000
0010
0000
1000
0000
0100
0000
0010
0000
0101
0000
0000
1000
0000
0000
0100
0000
0000
0010
0000
0000
,
0001
0010
0100
1000
0010
1000
0001
0100
0011
0100
0001
1000
0110
1000
0010
0100
,
0001
0100
0010
1000
0011
0100
0010
0001
1000
0001
0010
0100
1010
0100
0010
0001
,
1000
0001
0010
0100
0010
0001
1000
0100
0010
0100
1000
0001
1000
0001
0010
0100
,
0010
0100
1000
0001
0100
0001
0010
0100
1010
0001
0110
1000
0101
1000
0100
0010
,
0001
0010
1100
0010
1000
0001
1010
0100
0011
0100
1010
0001
0100
0010
1000
0100
,
0010
0100
1001
0010
0100
1000
0100
0010
0101
1000
0010
0100
1010
0100
0010
0001
,
1000
0001
0010
0100
1000
0010
0100
0001
0010
0001
0100
0010
1000
0001
0010
0100
,
0010
0100
1000
0001
1010
0100
0010
1000
0110
0001
0100
0010
0101
1000
0100
0010
,
0001
0010
0100
1000
0010
1000
0001
0100
0011
0100
0001
1000
0110
1000
0010
0100
,
0001
0100
0010
1000
0011
0100
0010
0001
1000
0001
0010
0100
1010
0100
0010
0001
,
1000
0001
0010
0100
1000
0010
0100
0001
1000
0001
0010
0100
0001
0010
0100
1000
,
0010
0100
0010
1000
0000
0000
0000
0000
1010
0001
0110
1000
0101
1000
0100
0010
,
0001
0010
1100
0010
1000
0001
1010
0100
0011
0100
1010
0001
0100
0010
1000
0100
,
0010
0100
1000
0010
0101
0010
1100
1001
0011
1100
0101
1010
0100
1000
0100
0010
,
0001
0010
0100
1000
0010
1000
0100
0010
0001
0010
0100
1000
0110
0001
1100
0001
,
0110
1000
0110
1001
1110
0000
0000
0000
1101
0000
0000
0000
0111
1010
1010
0101
,
1100
1001
0011
1100
0101
1010
0110
0101
1010
0011
1100
0110
1001
1010
0011
0101
,
1010
0110
0101
1010
1100
0010
0101
1000
0011
0100
1001
0100
1010
1001
0110
1100
,
0011
0101
0110
1001
1010
0110
1001
0110
1010
0101
0110
1010
0101
1010
0110
0101
,
1010
0110
0101
1010
1100
0010
0100
0001
0110
1000
0100
0010
0101
1010
1010
0101
,
1100
1001
0011
1100
0101
1010
0110
0101
1010
0011
1100
0110
1001
1010
0011
0101
,
1010
0110
0101
1010
1100
0010
0101
1000
0011
0100
1001
0100
1010
1001
0110
1100
,
0011
0101
0110
1001
1010
0110
1001
1010
0011
1100
0110
1010
0101
1001
0110
1010
,
1001
0000
0101
0000
0110
0000
1010
0000
0101
0010
0100
0010
0100
0010
0100
0010
0100
0010
0100
0010
0100
0010
0100
0010
1101
0000
0010
0000
0100
0000
0001
0000
,
1000
0010
0101
1000
0110
1000
0011
0100
0001
0010
0101
1000
0110
0001
1100
0001
,
1010
0100
1010
0101
1000
0010
0100
0010
0001
0100
0010
1000
1101
0010
0100
0001
,
1000
0000
0000
0010
0000
0000
0101
0000
0000
1000
0000
0000
0110
0000
0000
1000
0000
0000
0101
0000
0000
0010
0000
0000
1000
0000
0000
0100
0000
0000
0011
0000
0000
0100
0000
0000
1001
0000
0000
0100
0010
0000
0001
0000
0100
1000
0000
0000
,
0011
0000
0000
1000
0100
0000
0001
0000
1000
0010
0000
0000
0101
0000
0000
1000
0000
0000
0100
0000
0000
0010
0000
0000
0001
0000
0000
0100
0000
0000
0010
0000
0000
1000
0000
0000
1101
0000
0000
0010
0000
0000
0100
0000
0000
0001
0000
0000
,
1000
0000
0000
0010
0000
0000
0101
0000
0000
1000
0000
0000
0110
0000
0000
1000
0000
0000
0101
0000
0000
0010
0000
0000
1000
0000
0000
0100
0000
0000
0011
0000
0000
0100
0000
0000
1001
0000
0000
0100
0010
0000
0001
0000
0100
1000
0000
0000
,
0011
0000
0000
1000
0100
0000
0001
0000
1000
0010
0000
0000
0101
0000
0000
1000
0010
0000
0100
0000
1000
0001
0000
0000
0110
0000
0000
1000
0001
0000
0010
0000
0100
1000
0000
0000
0011
0000
0000
0100
0000
0000
1010
0000
0000
0100
0000
0000
,
0001
1000
0110
1001
0110
0001
1010
0100
0001
0100
1001
0010
0101
1000
0100
0010
,
0001
0010
0100
0010
0001
0100
0010
1000
0100
0010
0100
1000
0011
0100
0010
0100
,
1000
0100
0010
0001
1000
0001
0010
0100
1000
0100
0010
0100
1001
0010
0100
1000
,
0001
0000
0000
0010
0000
0000
0100
0000
0000
1000
0000
0000
0001
0000
0000
0010
0000
0000
0100
0000
0000
1000
0000
0000
0001
0000
0000
0010
0000
0000
0100
0000
0000
1000
0000
0000
0111
0000
1000
0000
0011
0000
0101
0000
1010
0000
1001
0000
,
0110
1010
0101
0110
0011
0000
1101
0010
0101
1001
1100
0110
1010
0101
1010
0011
1001
0000
1110
0001
0110
0101
1010
0011
,
1001
0110
0110
0011
1100
0101
1011
0100
1010
0101
1100
0011
0101
1010
1001
0011
1010
0101
1110
0001
0110
0101
1010
1001
,
0111
1000
0101
0110
0011
0000
1101
0010
0101
1001
1100
0110
1011
0100
1010
0011
1001
0000
1101
0010
0101
1010
0110
0101
,
1011
0100
0110
1001
1100
0011
1110
0001
1010
0101
1100
1001
0111
1000
0101
0011
1010
0101
1110
0001
0110
1001
0101
1010
,
1101
0010
0110
1001
1100
0011
1110
0001
1010
0101
0011
1100
1011
0100
1100
0011
1001
0110
1101
0010
0110
1001
0101
1010
,
0111
1000
1100
0110
1010
0101
1110
0001
1001
1010
0011
1100
1011
0100
0110
1001
1100
0011
1101
0010
0101
1010
0011
1100
,
0110
1001
0011
1100
1010
0101
1011
0100
1010
0101
0110
1001
1100
0011
0110
1001
1100
0011
1110
0001
0110
1001
0101
1010
,
1001
0110
0101
1010
0110
1001
1011
0100
1100
1010
0110
1001
0001
0000
0000
0000
0000
0000
1001
0000
0010
0000
0100
0000
,
0011
0000
0100
0000
1000
0000
0110
0000
1000
0000
0001
0000
1010
0000
0001
0000
0010
0000
1101
0000
0000
0110
0000
0000
,
1010
0101
1001
0100
0011
1000
0111
1010
,
0101
0011
1010
0001
0010
0100
1011
0101
,
1100
0001
1110
0101
1100
0001
1110
0100
,
1010
0000
0110
0000
1101
0000
0010
0000
1001
0010
0101
0010
1101
0000
0110
0000
,
1010
0000
0101
0000
1001
0000
0100
0000
1010
0000
0110
0000
1101
0010
1001
0100
,
0011
0000
0000
0000
0000
0000
1010
0000
0000
0000
0000
0000
0110
0000
0000
0000
0000
0000
1100
0000
0000
0000
0000
0000
1001
0000
0000
0000
0100
0000
1000
0000
0010
0000
0000
0000
1101
0000
0000
0010
0000
0000
1000
0000
0000
0001
0000
0000
,
0010
0100
0010
0001
1110
0001
0100
0010
1000
0010
0100
0001
1100
0010
0001
0100
,
0010
0000
0000
1000
0000
0000
0100
0000
0000
0010
0000
0000
1101
0000
0000
0010
0000
0000
1000
0000
0000
0100
0000
0000
1000
0000
0000
0010
0000
0000
0100
0000
0000
0010
0000
0000
1101
0000
0000
0000
0010
0000
0101
0000
0010
0000
0000
0000
,
1011
0000
0010
1100
0010
0000
1101
0000
0001
0000
0001
0000
0111
0000
0001
0000
0001
0000
1011
0000
0100
1000
0100
0000
,
1101
0000
0100
0011
0100
0000
1011
0000
0001
0000
0001
0000
0001
0000
0001
0000
0001
0000
1011
0000
0010
0101
0010
0000
,
1101
0000
0100
0000
0100
0000
1011
0000
0010
0101
0010
0000
1101
0000
0100
0000
0100
0000
1110
0000
1000
0000
1000
0000
,
1011
0000
0000
0000
0001
0000
0110
0000
0001
0000
0000
0000
1101
0000
0000
0000
0010
0000
0000
0000
0010
0000
0000
0000
1001
0000
0000
0010
0001
0000
0100
0000
0001
0010
0000
0000
1101
0000
0000
0000
0010
0000
0101
0000
0010
0000
0000
0000
,
1011
0000
0000
0000
0010
0000
1100
0000
0010
0000
0000
0000
1101
0000
0000
0000
0001
0000
0000
0000
0001
0000
0000
0000
1011
0000
0000
0000
0001
0000
0110
0000
0001
0000
0000
0000
1101
0000
0000
0010
1000
0000
0001
0000
1000
0100
0000
0000
,
1011
0000
0000
0000
1000
0000
0110
0000
1000
0000
0000
0000
0111
0000
0000
0000
0010
0000
1100
0000
0010
0000
0000
0000
1011
0000
0000
0000
0110
0000
0000
0000
0011
0000
0000
0000
1101
0000
0000
0010
0000
0000
1000
0000
0000
0001
0000
0000
,
0010
0100
0010
0001
1110
0001
0100
0010
1000
0010
0100
0001
1100
0010
0001
0100
,
0010
0000
1000
0000
0100
0000
0010
0000
1101
0000
0010
0000
1000
0000
0001
0000
1000
0000
0100
0000
0001
0000
0010
0000
1100
0010
0100
0010
0001
0000
0000
0000
,
0000
0000
0000
0000
1000
0010
0100
0010
0001
1000
0100
0001
0010
1000
0100
0010
,
0001
1000
0100
0010
0001
1000
0010
0001
0010
1000
0100
0010
0001
0100
0010
1000
,
0001
0000
0000
0100
0000
0000
0010
0000
0000
1000
0000
0000
0011
0000
0000
0000
0000
0000
0100
0000
0000
0000
0000
0000
1001
0000
0000
0000
0000
0000
0010
0000
0000
0000
0000
0000
0101
0000
0000
0000
1000
0000
0001
0000
0010
0000
0000
0000
,
0100
0000
0000
0010
0000
0000
0101
0000
0000
1000
0000
0000
0101
0000
0000
0100
0000
0000
0011
0000
1000
0000
0100
0000
,
0010
0000
0000
0000
0000
0000
0011
0000
0000
0100
0000
0000
1001
0000
0000
0010
0000
0000
0101
0000
1000
0010
0100
0000
,
0001
0000
0000
0100
0000
0000
0011
0000
0000
1000
0000
0000
0101
0000
0000
0010
0000
0000
1001
0000
0010
0100
1000
0000
,
0110
0000
1000
0001
0100
0000
0011
0000
0000
0100
0000
0000
1001
0000
0000
0010
0000
0000
0101
0000
1000
0010
0100
0000
,
0011
0000
0100
1000
0010
0000
0101
0000
0010
0001
0100
0000
1010
0000
0100
0001
1000
0000
0101
0000
0010
1000
0100
0000
,
1001
0000
0000
0000
0010
0000
0100
0000
1000
0000
0000
0000
0101
0000
0000
0000
0000
0000
1000
0000
0000
0000
0000
0000
0001
0000
0000
0000
0000
0000
0100
0000
0000
0010
0000
0000
1101
0000
0000
0000
0000
0000
0100
0000
0000
0000
0000
0000
,
0010
0000
0000
0000
1000
0000
0000
0000
2220
0000
0000
0000
0000
0000
0000
3330
0001
0000
0010
0000
0100
0000
1000
0000
0010
0000
0100
0000
0010
0000
1000
0000
,
0100
1000
0001
0100
0001
0010
0100
1000
0001
0100
0010
1000
0010
0100
0010
1000
,
0100
0001
0100
0010
2000
0000
0000
0000
0000
0000
0000
0000
0000
0000
0000
0000
,
0000
0000
0000
0000
0000
0000
0000
0000
0000
0000
0000
0000
0000
0000
0000
0000
0000
0000
0000
0000
0000
0000
0000
0000
0000
0000
0000
0000
0000
0000
0000
0000
0000
0000
0000
0000
0000
0000
0000
0000
0000
0000
3000
0000
0000
0000
0000
0000
0212
0000
0000
0000
0000
0000
0000
0000
0000
0000
0000
0000
0000
0000
0000
0000
0000
0000
0000
0000
0000
0000
0000
0000
0000
0000
0000
0000
0000
0000
0000
0000
0000
0000
0000
0000
0000
0000
0000
0000
0000
0000
0000
0000
0000
0000
0000
0000
0000
0000
0000
0000
0000
0000
0000
0000
0000
0000
0000
0000
0000
0000
0000
0000
0000
0000
0000
0000
0000
0000
0000
0000
0000
0000
0000
0000
2010
0000
0000
0000
0000
0000
0000
0000
0000
0000
0000
0000
0000
0000
0000
0000
0000
0000
0000
0000
0000
0000
0000
0000
0000
0000
0000
0000
0000
0000
0000
0000
0000
0000
0000
0000
0000
0000
0000
0000
0000
0000
0000
0000
0000
0000
0000
0000
0000
0000
0000
0000
0000
0000
0000
0000
0000
0000
0000
0000
0000
0000
0000
0000
0000
0000
0000
0000
,
0000
0000
0000
0000
0000
0000
0000
0000
0000
0000
0000
0000
3303
0202
0000
0000
0000
0000
0000
0000
0000
0000
0000
0000
0000
0000
0000
0000
0000
0000
0000
0000
,
0000
0000
0000
0000
0000
0000
0000
0000
0000
0000
0000
0303
0000
0000
0000
0000
;
