#TITLE:B4U -Hyper Style-;
#SUBTITLE:(New Age Maxtor 2nd Mix);
#ARTIST:Naoki ft. NMR;
#TITLETRANSLIT:;
#SUBTITLETRANSLIT:;
#ARTISTTRANSLIT:;
#CREDIT:DahrkDaiz;
#BANNER:B4U Hyper-logo.png;
#BACKGROUND:B4U Hyper-bg.png;
#LYRICSPATH:;
#CDTITLE:;
#MUSIC:B4U Hyper.ogg;
#OFFSET:-2.580;
#SAMPLESTART:2.560;
#SAMPLELENGTH:11.560;
#SELECTABLE:YES;
#BPMS:0.000=162.000,32.000=324.000,40.000=162.000;
#STOPS:;
#BGCHANGES:;
// cache tags:
#FIRSTBEAT:16.000;
#LASTBEAT:400.000;
#SONGFILENAME:Songs/toune/B4U Hyper/B4U Hyper.sm;
#HASMUSIC:1;
#HASBANNER:1;
#MUSICLENGTH:149.838;
// end cache tags

//---------------dance-single - Blank----------------
#NOTES:
     dance-single:
     Blank:
     Hard:
     9:
     0.714,0.701,0.300,0.080,0.460,692.000,45.000,12.000,0.000,0.000:










0000
0000
0000
0000
,
0000
0000
0000
0000
,
0000
0000
0000
0000
,
0000
0000
0000
0000
,
1000
0100
1000
0000
0010
0000
0100
0000
0010
0000
1000
0000
0001
0000
0100
0000
,
0010
1000
0010
0000
0100
0001
0100
0000
0001
0000
0010
0000
0010
0000
0100
0000
,
1000
0000
0100
0000
0010
0000
0001
1000
0000
0010
0000
0100
0001
0000
0010
0000
,
0100
1000
1100
0000
0100
0010
0011
0000
,
0220
0000
0000
0000
,
0000
0000
0000
0330
,
0001
0000
0000
0100
0000
0000
1000
0000
0100
0000
0010
0000
0001
0000
0000
0000
,
0010
0000
0000
1000
0000
0000
0100
0000
0010
0000
1000
0000
0010
0000
0000
0000
,
0001
0000
0000
1000
0000
0000
0010
0000
0100
0000
0001
0000
1000
0000
0000
0000
,
0100
0000
0000
0010
0000
0000
0100
0000
0010
0000
0001
0000
0100
0000
0110
0000
,
0010
0000
0000
1000
0000
0000
0001
0000
1000
0000
0100
0000
1000
0000
0000
0000
,
0001
0000
0000
1000
0000
0000
0100
0000
1000
0000
0010
0000
0100
0000
0000
0000
,
0001
0000
0000
0100
0000
0000
0010
0000
1000
0000
0001
0000
0100
0000
0001
0000
,
1100
0000
0000
0110
0000
0000
0011
0000
0000
1001
0000
0000
0101
0000
0000
0000
,
0001
0100
1000
0100
0010
0100
0001
1000
,
0100
0001
0100
0010
0100
1000
0010
0100
,
0001
1000
0100
0010
0001
1000
0001
0100
,
0010
1000
0100
1000
0010
0001
0010
0001
,
0010
1000
0100
0010
0001
0100
0010
1000
,
0001
0010
1000
0010
0100
0010
1000
0010
,
0001
0100
0010
1000
0001
0100
0010
1000
,
0001
0000
0000
0100
0000
0000
0110
0000
0000
1000
0000
0000
0110
0000
0000
0000
,
1000
0100
1000
0000
0010
0000
0100
0000
0010
0000
1000
0000
0001
0000
0100
0000
,
0010
1000
0010
0000
0100
0001
0100
0000
0001
0000
0010
0000
0010
0000
0100
0000
,
1000
0000
0100
0000
0010
0000
0001
1000
0000
0010
0000
0100
0001
0000
0010
0000
,
0100
1000
1100
0000
0100
0010
0011
0000
,
0001
0010
0001
0000
0100
0000
0010
0000
0100
0000
0001
0000
1000
0000
0010
0000
,
0100
0001
0100
0000
0010
1000
0010
0000
1000
0000
0100
0000
0100
0000
0010
0000
,
0001
0000
0010
0000
0100
0000
1000
0001
0000
0100
0000
0010
1000
0000
0100
0000
,
0010
0001
0011
0000
0010
0100
1100
0000
,
0100
0010
0100
0000
0010
0001
0010
0000
0001
0000
0100
0000
0010
0000
1000
0000
,
0001
0000
0001
0000
1000
0000
1000
0000
0001
1000
0001
1000
0000
0000
0000
0000
,
0001
0000
0000
1000
0000
0000
0100
0000
0000
0001
0100
0000
1000
0000
0010
0000
,
0100
0000
0000
0001
0000
0000
1000
0000
0000
0010
0100
0000
0001
0000
1000
0000
,
0100
0000
0000
1000
0000
0000
0010
0000
0000
0100
0001
0000
1000
0000
0001
0000
,
0100
0000
0000
0010
0000
0000
1000
0000
0000
0001
0100
0000
0001
0000
1000
0000
,
0100
0000
0000
1100
0000
0000
1000
0000
0100
0000
0000
0110
0000
0000
0010
0000
,
0001
0000
0000
0011
0000
0000
0000
0000
0000
0000
0000
0000
0000
0000
0000
0000
,
0001
0000
0000
0101
0000
0000
0100
0000
0010
0000
0000
0110
0000
0000
1000
0000
,
1100
0000
0000
1001
0000
0000
0220
0000
0000
0000
0000
0000
0330
0000
0000
0000
,
0010
0000
0000
0220
0000
0000
0000
0000
0000
0000
0000
0330
0000
0000
0000
0000
,
0001
0000
0000
0101
0000
0000
0010
0000
1000
0000
0000
1100
0000
0000
0010
0000
,
0001
0000
0000
2002
0000
0000
0000
0000
0000
0000
0000
0000
0000
3003
0000
0000
,
1000
0000
0000
0011
0000
0000
0010
0000
0100
0000
0000
0000
0000
0000
0000
0000
,
1000
0000
0000
2200
0000
0000
0000
0000
0000
0000
0000
0000
0000
3300
0000
0000
,
0001
0000
0000
0011
0000
0000
0001
0000
0100
0000
0000
1010
0000
0000
1000
0000
,
0100
0000
0000
2200
0000
0000
0000
0000
0000
0000
0000
0000
0000
0000
3300
0000
,
0010
0000
0000
0110
0000
0000
1001
0000
0000
0110
0000
0000
1001
0000
0001
0000
,
1000
0100
1000
0000
0010
0000
0100
0000
0010
0000
1000
0000
0001
0000
0100
0000
,
0010
1000
0010
0000
0100
0001
0100
0000
0001
0000
0010
0000
0010
0000
0100
0000
,
1000
0000
0100
0000
0010
0000
0001
1000
0000
0010
0000
0100
0001
0000
0010
0000
,
0100
1000
1100
0000
0100
0010
0011
0000
,
0001
0010
0001
0000
0100
0000
0010
0000
0100
0000
0001
0000
1000
0000
0010
0000
,
0100
0001
0100
0000
0010
1000
0010
0000
1000
0000
0100
0000
0100
0000
0010
0000
,
0001
0000
0010
0000
0100
0000
1000
0001
0000
0100
0000
0010
1000
0000
0100
0000
,
0010
0001
0011
0000
0010
0100
1100
0000
,
0000
0000
0001
0000
0000
0010
0000
0000
1000
0000
0000
0010
0000
0000
0001
0000
,
0000
0000
1000
0000
0000
0010
0000
0000
0001
0000
0000
0010
0000
0000
1000
0000
,
0000
0000
0001
0000
0000
0100
0000
0000
1000
0000
0000
0100
0000
0000
0001
0000
,
0000
0000
1000
0000
0000
0100
0000
0000
0001
0000
0000
0100
0000
0000
1000
0000
,
0001
0000
0000
1000
0000
0000
0100
0000
0000
0001
0100
0000
1000
0000
0010
0000
,
0100
0000
0000
0001
0000
0000
1000
0000
0000
0010
0100
0000
0001
0000
1000
0000
,
0100
0000
0000
1000
0000
0000
0010
0000
0000
0100
0001
0000
1000
0000
0001
0000
,
0100
0000
0000
0010
0000
0000
1000
0000
0000
0001
0100
0000
0010
0000
1000
0000
,
0001
0100
0010
1000
0100
0001
0100
0010
,
0100
1000
0100
0010
0100
1000
0001
0100
,
1000
0100
0010
0100
1000
0100
0010
0100
,
0001
0100
0010
0100
0001
1000
0010
0100
,
0001
1000
0010
0001
1000
0100
0001
1000
,
0100
0010
0001
1000
0010
0100
0001
0100
,
1000
0001
0010
1000
0100
1000
0010
1000
,
0001
0100
0001
0010
0001
1000
0100
1000
,
0100
0010
0000
0010
0001
0000
0001
0100
0000
0100
0010
0000
1000
0000
0000
0000
,
0100
1000
0000
1000
0010
0000
0010
0100
0000
0100
0001
0000
0010
0000
0000
0000
,
0100
0010
0000
0010
0001
0000
0001
1000
0000
1000
0100
0000
0010
0000
0000
0000
,
0010
0001
0000
0001
1000
0000
1000
0100
0000
0100
1000
0000
0010
0000
0100
0000
,
0001
0010
0000
0100
1000
0000
0001
0100
0000
0010
1000
0000
0001
0000
0100
0000
,
0010
1000
0000
0100
0010
0000
0001
1000
0000
0100
0010
0000
0001
0000
1000
0000
,
0100
0010
0000
0001
1000
0000
0010
0100
0000
0001
1000
0000
0010
0000
0100
0000
,
0001
1000
0000
0100
0010
0000
0001
0100
0000
0010
1000
0000
0001
0000
0100
0000
,
0010
0000
0000
1000
0000
0000
0100
0000
0000
0001
0100
0000
1000
0000
0010
0000
,
0100
0000
0000
0001
0000
0000
1000
0000
0000
0100
0010
0000
0001
0000
1000
0000
,
0010
0000
0000
0100
0000
0000
0001
0000
0000
0010
0100
0000
1000
0000
0001
0000
,
1000
0000
0000
0010
0000
0000
0001
0000
0000
0010
1000
0000
0100
0000
0010
0000
,
0001
0100
0010
1000
0100
0001
0100
1000
,
0010
0001
0010
1000
0001
0010
1000
0010
,
0001
0100
1000
0010
1000
0100
0001
1000
,
0100
0010
0001
1000
0010
0100
0001
0001
,
1000
0100
1000
0000
0010
0000
0100
0000
0010
0000
1000
0000
0001
0000
0100
0000
,
0010
1000
0010
0000
0100
0001
0100
0000
0001
0000
0010
0000
0010
0000
0100
0000
,
1000
0000
0100
0000
0010
0000
0001
1000
0000
0010
0000
0100
0001
0000
0010
0000
,
0100
1000
1100
0000
0100
0010
0011
0000
,
0001
0010
0001
0000
0100
0000
0010
0000
0100
0000
0001
0000
1000
0000
0010
0000
,
0100
0001
0100
0000
0010
1000
0010
0000
1000
0000
0100
0000
0100
0000
0010
0000
,
0001
0000
0010
0000
0100
0000
1000
0001
0000
0100
0000
0010
1000
0000
0100
0000
,
0010
0001
0011
0000
0010
0100
1100
0000
,
1001
0000
0000
0000
;

//---------------dance-single - Blank----------------
#NOTES:
     dance-single:
     Blank:
     Medium:
     7:
     0.510,0.567,0.240,0.167,0.150,474.000,36.000,25.000,0.000,0.000:












0000
0000
0000
0000
,
0000
0000
0000
0000
,
0000
0000
0000
0000
,
0000
0000
0000
0000
,
0010
0000
0100
0000
0001
0010
0001
0010
,
0100
0000
1000
0000
0100
1000
0100
1000
,
0100
0010
0001
0000
0100
0010
0001
0000
,
1000
0010
0000
0000
0100
0000
0000
0000
1000
0010
0000
0000
0100
0000
0000
0000
,
0200
0000
0000
0000
,
0000
0000
0000
0300
,
0010
0000
0001
0000
0000
0100
0010
0000
,
1000
0000
0100
0000
0000
0010
0001
0000
,
0100
0000
0010
0000
0000
0100
1000
0000
,
0100
0000
1000
0000
0001
0010
0100
1000
,
0001
0000
0100
0000
0000
0010
1000
0000
,
0001
0000
0100
0000
0000
0010
1000
0000
,
1100
0000
0011
0000
,
0010
0000
0000
0100
0000
0000
1000
0000
0000
0010
0000
0000
0100
0000
0001
0000
,
1000
0000
1000
0000
0100
0010
0001
0100
,
0010
0000
0010
0000
1000
0100
0010
0001
,
0100
0000
0100
0000
0010
1000
0100
1000
,
0010
0000
0010
0000
0100
0001
0010
0100
,
2000
0000
0000
3000
,
0220
0000
0000
0000
0000
0030
0300
0000
,
2002
0000
0000
0000
,
0000
3003
1001
1001
,
0010
0000
0100
0000
0001
0010
0001
0010
,
0100
0000
1000
0000
0100
1000
0100
1000
,
0100
0010
0001
0000
0100
0010
0001
0000
,
1000
0010
0000
0000
0100
0000
0000
0000
1000
0010
0000
0000
0100
0000
0000
0000
,
0010
0000
0001
0000
1000
0100
1000
0100
,
0010
0000
0001
0000
0010
0001
0010
0001
,
0010
0100
1000
0000
0010
0100
1000
0000
,
0001
0100
0000
0000
0010
0000
0000
0000
0001
0100
0000
0000
0010
0000
0000
0000
,
1000
0100
0001
0100
1000
0010
0100
0001
,
0010
0000
0010
0000
0100
0010
0100
0000
,
0001
0000
0001
0000
0100
0010
1000
0100
,
0010
0000
0010
0000
0001
1000
0100
1000
,
0001
0000
0001
0000
0010
0100
1000
0100
,
1000
0000
1000
0000
0010
0100
0001
1000
,
0001
0000
0000
0010
0000
0000
0000
0000
0100
0000
0000
1000
0000
0000
0000
0000
,
0010
0000
0000
0100
0000
0000
0000
0000
0000
0000
0000
0000
0000
0000
0000
0000
,
1000
0000
0000
0010
0000
0000
0000
0000
0100
0000
0000
0001
0000
0000
0000
0000
,
0010
0000
0000
0100
0000
0000
2000
0000
0020
0000
0000
0000
3030
0000
0000
0000
,
0100
0000
0000
0001
0000
0000
0000
0000
0000
0000
0000
0000
0000
0000
0000
0000
,
1000
0000
0000
0001
0000
0000
0100
0000
0001
0000
0000
0010
0000
0000
0100
0000
,
1000
0000
0000
0001
0000
0000
0000
0000
0000
0000
0000
0000
0000
0000
0000
0000
,
0100
0000
0000
0010
0000
0000
1000
0000
0001
0000
0000
0000
0000
0000
0000
0000
,
0220
0000
0000
0000
0000
0300
0030
0000
,
2002
0000
0000
0000
0000
0003
3000
0000
,
0220
0000
0000
0330
,
1001
0000
0000
0101
0000
0000
1100
0000
0000
1001
0000
0000
0010
0000
0100
0000
,
0010
0000
0100
0000
0001
0010
0001
0010
,
0100
0000
1000
0000
0100
1000
0100
1000
,
0100
0010
0001
0000
0100
0010
0001
0000
,
1000
0010
0000
0000
0100
0000
0000
0000
1000
0010
0000
0000
0100
0000
0000
0000
,
0010
0000
0001
0000
1000
0100
1000
0100
,
0010
0000
0001
0000
0010
0001
0010
0001
,
0010
0100
1000
0000
0010
0100
1000
0000
,
0001
0100
0000
0000
0010
0000
0000
0000
0001
0100
0000
0000
0010
0000
0000
0000
,
1000
0000
0000
0100
0000
0000
0001
0000
0010
0000
0000
0100
0000
0000
0000
0000
,
1000
0000
0000
0001
0000
0000
1000
0000
0010
0000
0000
0100
0000
0000
0000
0000
,
0001
0000
0000
0100
0000
0000
1000
0000
0010
0000
0000
0100
0000
0000
0000
0000
,
0001
0000
0000
0100
0000
0000
0010
0000
0100
0000
0000
1000
0000
0000
0000
0000
,
0001
0000
0101
0000
0001
0010
0100
0000
,
1000
0000
1100
0000
0010
0100
0001
0000
,
0010
0000
0110
0000
1000
0001
0100
0000
,
1000
0000
1001
0000
0010
0100
0001
2000
,
0001
0000
0001
0000
0001
0000
0001
3100
,
0020
0000
0100
0000
0100
0000
0130
0001
,
0020
0130
2001
3100
,
0012
0100
0103
0000
,
2000
3200
0310
0110
,
0020
0032
0103
0101
,
0020
2030
3100
1100
,
1001
0000
1001
0000
0010
0100
0001
1000
,
0001
0000
0000
0100
0000
0000
0010
0000
0000
1000
0000
0000
0100
0000
0000
0000
,
0010
0000
0000
0001
0000
0000
0100
0000
0000
0010
0000
0000
0100
0000
0000
0000
,
0010
0000
0000
1000
0000
0000
0001
0000
0000
0100
0000
0000
0010
0000
0000
0000
,
1000
0000
0000
0100
0000
0000
1000
0000
0000
0010
0000
0000
0100
0000
0001
0000
,
1000
0100
0010
0001
0100
0010
0110
0000
,
0010
0001
0100
0010
1000
0100
1100
0000
,
0100
0010
0001
0100
0010
1000
1001
0000
,
1000
0001
1000
0010
0100
0001
1000
0001
,
1000
0000
1010
0000
1000
0100
0010
0000
,
0001
0000
0011
0000
0100
0010
1000
0000
,
0100
0000
0110
0000
0001
1000
0010
0000
,
0001
0000
1001
0000
0100
0010
1000
0000
,
0100
0000
0110
0000
0001
0010
0100
0000
,
1000
0000
1100
0000
0001
0100
0010
0000
,
1000
0000
1001
0000
0010
0100
0001
0000
,
0100
0000
0110
0000
0001
0010
0100
1000
,
0010
0000
0100
0000
0001
0010
0001
0010
,
0100
0000
1000
0000
0100
1000
0100
1000
,
0100
0010
0001
0000
0100
0010
0001
0000
,
1000
0010
0000
0000
0100
0000
0000
0000
1000
0010
0000
0000
0100
0000
0000
0000
,
0010
0000
0001
0000
1000
0100
1000
0100
,
0010
0000
0001
0000
0010
0001
0010
0001
,
0010
0100
1000
0000
0010
0100
1000
0000
,
0001
0100
0000
0000
0010
0000
0000
0000
0001
0100
0000
0000
0010
0000
0000
0000
,
1001
0000
0000
0000
;

//---------------dance-single - Blank----------------
#NOTES:
     dance-single:
     Blank:
     Easy:
     4:
     0.361,0.400,0.407,0.133,0.000,298.000,61.000,20.000,0.000,0.000:






0000
0000
0000
0000
,
0000
0000
0000
0000
,
0000
0000
0000
0000
,
0000
0000
0000
0000
,
1000
0100
0001
0010
,
0001
0100
1000
0010
,
0001
0010
1000
0100
,
0010
0011
0100
1100
,
2002
0000
0000
0000
,
0000
0000
0000
3003
,
0010
0100
0000
0101
,
1000
0100
0000
1100
,
0010
0100
0000
1001
,
0010
0100
1001
0110
,
0001
1000
0000
0011
,
0010
0100
0000
1100
,
1000
0000
1000
0000
,
1000
1000
0011
0101
,
0001
0100
1000
0100
,
0001
0010
0100
1000
,
0100
0001
0100
1000
,
0010
0100
0001
1001
,
2002
0000
0000
0000
0000
0003
3000
0000
,
2002
0000
0000
0000
0000
3000
0003
0000
,
0220
0000
0000
0000
,
0000
0000
0030
0300
,
1000
0100
0001
0010
,
0001
0100
1000
0010
,
0001
0010
1000
0100
,
0010
0011
0100
1100
,
0001
0100
1000
0010
,
1000
0100
0001
0010
,
1000
0010
0001
0100
,
0010
1010
0100
0101
,
0010
0000
0010
0000
,
0100
0000
1000
0000
0001
1000
0001
0000
,
0100
1000
0000
0010
,
0100
0001
0000
0100
,
0010
1000
0000
0100
,
1000
0001
0000
0010
,
0110
0000
0110
0000
,
1001
0000
0000
0000
,
0011
0000
0011
0000
,
2200
0000
0000
3300
,
0220
0000
0000
0330
,
1001
0000
0110
0000
,
2020
0000
0000
3030
,
0101
0000
1001
0000
,
0022
0000
0000
0000
0000
0003
0030
0000
,
2020
0000
0000
0000
0000
0030
3000
0000
,
2200
0000
0000
3300
,
1001
0000
1001
0000
,
1000
0100
0001
0010
,
0001
0100
1000
0010
,
0001
0010
1000
0100
,
0010
0011
0100
1100
,
0001
0100
1000
0010
,
1000
0100
0001
0010
,
1000
0010
0001
0100
,
0010
1010
0100
0101
,
1000
0000
0000
0000
,
0010
0000
0000
0000
,
0100
0000
0001
0000
,
0010
0100
1001
0110
,
0001
0010
0100
1000
,
0010
0100
0001
1000
,
0010
1000
0001
0010
,
0100
1000
0010
0100
,
0011
0000
0000
0000
,
0110
0000
0000
0000
,
1001
0000
0110
0000
,
0100
0100
0010
0010
,
0101
0000
0000
0000
,
1001
0000
0000
0000
,
0110
0000
1001
0000
,
0100
0010
1000
1001
,
0001
0010
0001
0011
,
0010
0100
0010
0110
,
0100
1000
0100
1100
,
1000
0010
1000
1010
,
0001
0010
1000
0100
,
0001
0010
1000
0100
,
0010
0001
0100
1000
,
0010
0001
0100
1000
,
0001
0010
0100
1000
,
0010
0100
0001
1000
,
0010
1000
0001
0010
,
0100
1000
0010
0100
,
0001
0010
0100
1000
,
0010
0100
0001
1000
,
0010
1000
0001
0010
,
0100
1000
0010
0100
,
1000
0100
0001
0010
,
0001
0100
1000
0010
,
0001
0010
1000
0100
,
0010
0011
0100
1100
,
0001
0100
1000
0010
,
1000
0100
0001
0010
,
1000
0010
0001
0100
,
0010
1010
0100
0101
,
0110
0000
0000
0000
;

//---------------dance-single - Blank----------------
#NOTES:
     dance-single:
     Blank:
     Challenge:
     10:
     0.786,0.767,0.541,0.007,0.684,742.000,81.000,1.000,0.000,0.000:

0000
0000
0000
0000
,
0000
0000
0000
0000
,
0000
0000
0000
0000
,
0000
0000
0000
0000
,
1000
0100
1000
0100
0000
0010
0001
0000
0100
0000
0010
0000
1000
0000
0001
0000
,
1000
0100
1000
0000
0001
0010
0001
0000
0100
0000
0010
0000
1000
0000
0100
0000
,
0010
0000
0001
0000
0100
0000
0010
1000
0000
0001
0000
0100
0010
0000
1000
0000
,
0001
0100
0001
0100
0001
0000
1000
0100
1000
0100
1000
0000
0001
0000
0100
0000
,
0020
0000
0000
0000
,
0000
0000
0000
0030
,
1000
0000
0000
0001
0000
1000
0010
0000
0100
0000
0001
0000
1000
0000
0000
0000
,
0100
0000
0000
0010
0000
0001
0100
0000
0010
0000
1000
0000
0001
0000
0000
0000
,
0100
0000
0000
0010
0000
1000
0100
0000
0010
0000
0001
0000
0100
0000
0000
0000
,
0010
0000
0000
1000
0000
0001
0100
0000
0010
0000
1000
0000
1001
0000
0001
0000
,
1000
0000
0000
0010
0000
0100
0001
0000
0100
0000
0010
0000
1000
0000
0000
0000
,
0100
0000
0000
0010
0000
0001
1000
0000
0100
0000
1000
0000
0010
0000
0000
0000
,
0100
0000
0000
0001
0000
0010
0100
0000
1000
0000
0001
0000
0100
0000
0000
0000
,
0010
0000
0000
1000
0000
0000
1100
0000
0000
0010
0000
0000
0110
0000
0100
0000
,
0001
0000
0000
0101
0000
0000
0101
0000
0000
0000
0100
0000
0010
0000
1000
0000
,
0100
0000
0000
0110
0000
0000
0011
0000
0000
0101
0000
0000
0001
0000
1000
0000
,
0010
0000
0000
0110
0000
0000
0110
0000
0000
0000
0010
0000
0100
0000
0001
0000
,
1000
0000
0000
1100
0000
0000
0110
0000
0000
0011
0000
0000
1001
0000
1000
0000
,
0001
0100
0010
1000
0100
0010
0011
0000
,
1000
0100
0010
0001
0100
0010
0110
0000
,
1000
0001
0100
1000
0100
0001
1000
0010
,
0100
0001
1000
0100
0110
0000
0110
0000
,
1000
0100
1000
0100
0000
0010
0001
0000
0100
0000
0010
0000
1000
0000
0001
0000
,
1000
0100
1000
0000
0001
0010
0001
0000
0100
0000
0010
0000
1000
0000
0100
0000
,
0010
0000
0001
0000
0100
0000
0010
1000
0000
0001
0000
0100
0010
0000
1000
0000
,
0001
0100
0001
0100
0001
0000
1000
0100
1000
0100
1000
0000
0001
0000
0100
0000
,
0001
0010
0001
0010
0000
0100
1000
0000
0010
0000
0100
0000
0001
0000
1000
0000
,
0001
0010
0001
0000
1000
0100
1000
0000
0010
0000
0100
0000
0001
0000
0010
0000
,
0100
0000
1000
0000
0010
0000
0100
0001
0000
1000
0000
0010
0100
0000
0001
0000
,
1000
0010
1000
0010
1000
0000
0001
0010
0001
0010
0001
0000
1000
0000
0010
0000
,
0100
0001
0100
0001
0000
1000
0100
0000
0010
0000
0001
0000
0100
0000
0100
0000
,
0110
0000
0110
0000
0110
0000
0110
0000
0100
0010
0100
0010
0000
0000
0000
0000
,
1000
0000
0000
0001
0000
0000
1000
0000
0000
0001
0100
0000
1000
0000
0100
0000
,
0001
0000
0000
1000
0000
0000
0001
0000
0000
1000
0100
0000
0001
0000
0100
0000
,
1000
0000
0000
0001
0000
0000
1000
0000
0000
0001
0010
0000
1000
0000
0010
0000
,
0001
0000
0000
1000
0000
0000
0001
0000
0000
1000
0010
0000
0001
0000
0010
0000
,
1000
0000
0000
1100
0000
0000
0100
0000
0010
0000
0000
0011
0000
0000
0001
0000
,
0100
0000
0000
0110
0000
0000
1000
0000
0001
0100
0001
0000
0000
0000
0000
0000
,
0100
0000
0000
0110
0000
0000
0100
0000
1000
0000
0000
1100
0000
0000
1000
0000
,
1001
0000
0000
1001
0000
0000
0110
0000
0100
0010
0100
0010
0000
0000
0000
0000
,
0001
0000
0000
0101
0000
0000
0000
0000
0100
0000
0000
0001
0000
0000
0000
0000
,
1000
0000
0000
1100
0000
0000
1000
0000
0001
0000
0000
0101
0000
0000
0001
0000
,
1000
0000
0000
1010
0000
0000
0000
0000
1000
0000
0000
0010
0000
0000
0000
0000
,
1000
0000
0000
1001
0000
0000
0001
0000
0110
0000
0000
0000
0000
0000
0000
0000
,
0010
0000
0000
0011
0000
0000
0000
0000
0001
0000
0000
0010
0000
0000
0000
0000
,
0010
0000
0000
0110
0000
0000
0100
0000
1000
0000
0000
1010
0000
0000
1000
0000
,
0010
0000
0000
0110
0000
0000
1000
0000
0001
0000
0000
1001
0000
0000
0000
0000
,
0011
0000
0000
0101
0000
0000
1001
0000
0000
1010
0000
0000
0110
0000
0001
0000
,
1000
0100
1000
0100
0000
0010
0001
0000
0100
0000
0010
0000
1000
0000
0001
0000
,
1000
0100
1000
0000
0001
0010
0001
0000
0100
0000
0010
0000
1000
0000
0100
0000
,
0010
0000
0001
0000
0100
0000
0010
1000
0000
0001
0000
0100
0010
0000
1000
0000
,
0001
0100
0001
0100
0001
0000
1000
0100
1000
0100
1000
0000
0001
0000
0100
0000
,
0001
0010
0001
0010
0000
0100
1000
0000
0010
0000
0100
0000
0001
0000
1000
0000
,
0001
0010
0001
0000
1000
0100
1000
0000
0010
0000
0100
0000
0001
0000
0010
0000
,
0100
0000
1000
0000
0010
0000
0100
0001
0000
1000
0000
0010
0100
0000
0001
0000
,
1000
0010
1000
0010
1000
0000
0001
0010
0001
0010
0001
0000
1000
0000
0010
0000
,
0100
0000
0001
0000
0000
0010
0000
0000
1000
0000
0000
0100
0000
0000
0001
0000
,
0000
0000
1000
0000
0000
0010
0000
0000
0001
0000
0000
0100
0000
0000
1000
0000
,
0000
0000
0001
0000
0000
0100
0000
0000
1000
0000
0000
0010
0000
0000
0001
0000
,
0000
0000
1000
0000
0000
0100
0000
0000
0001
0000
0000
0010
0000
0000
1000
0000
,
0001
0000
0000
1000
0000
0000
0001
0000
0000
1000
0010
0000
0001
0000
0010
0000
,
1000
0000
0000
0001
0000
0000
1000
0000
0000
0001
0010
0000
1000
0000
0010
0000
,
0001
0000
0000
1000
0000
0000
0001
0000
0000
1000
0100
0000
0001
0000
0100
0000
,
1000
0000
0000
0001
0000
0000
1000
0000
0000
0001
0100
0000
1000
0000
0100
0000
,
0001
0010
0100
1000
0010
0100
0001
1000
,
1100
1000
0010
0100
0001
1000
0100
0010
,
0011
0010
0100
0010
0110
0100
1000
0001
,
1001
0000
0000
0000
1001
0000
0000
0000
0001
0010
0100
1000
0001
0100
0010
0000
,
1000
0100
0010
0001
0100
0010
1000
0001
,
0101
0001
0010
0100
1000
0100
0010
0100
,
1100
0100
1000
0010
0110
0100
0010
0001
,
1001
0000
0000
0000
1001
0000
0000
0000
1000
0001
0100
0010
1000
0100
0010
0000
,
0001
0100
0000
0100
1000
0000
1000
0100
0000
0100
0001
0000
0010
0000
0000
0000
,
1000
0100
0000
0100
0001
0000
0001
0100
0000
0100
1000
0000
0010
0000
0000
0000
,
0001
0100
0000
0100
1000
0000
1000
0100
0000
0100
0001
0000
0010
0000
0000
0000
,
1000
0100
0000
0100
0001
0000
0001
0100
0000
0100
1000
0000
0010
0000
0000
0000
,
0001
0100
0000
0010
1000
0000
0100
0010
0000
0001
0100
0000
0001
0000
0000
0000
,
1000
0100
0000
0001
1000
0000
0010
0001
0000
0100
0010
0000
1000
0000
0000
0000
,
1000
0010
0000
0100
0001
0000
0010
0100
0000
1000
0010
0000
1000
0000
0000
0000
,
0001
0100
0000
1000
0001
0000
0010
1000
0000
0001
0100
0000
0010
0000
0000
0000
,
1100
0000
0000
1100
0000
0000
1100
0000
0000
0000
0100
0000
0010
0000
0001
0000
,
0011
0000
0000
0011
0000
0000
0011
0000
0000
0000
0001
0000
0100
0000
0010
0000
,
0110
0000
0000
0110
0000
0000
0110
0000
0000
0000
0100
0000
1000
0000
0001
0000
,
1001
0000
0000
1001
0000
0000
1001
0000
0000
0000
0010
0000
0100
0000
1000
0000
,
1100
0000
0000
0110
0000
0000
0011
0000
0000
0000
0001
0000
1000
0000
0100
0000
,
0110
0000
0000
0011
0000
0000
1001
0000
0000
0000
0001
0000
0100
0000
0010
0000
,
0110
0000
0000
1100
0000
0000
1010
0000
0000
0000
1000
0000
0001
0000
0100
0000
,
0110
0000
0000
1001
0000
0000
0110
0000
0000
0000
0100
0000
0010
0000
0001
0000
,
1000
0100
1000
0100
0000
0010
0001
0000
0100
0000
0010
0000
1000
0000
0001
0000
,
1000
0100
1000
0000
0001
0010
0001
0000
0100
0000
0010
0000
1000
0000
0100
0000
,
0010
0000
0001
0000
0100
0000
0010
1000
0000
0001
0000
0100
0010
0000
1000
0000
,
0001
0100
0001
0100
0001
0000
1000
0100
1000
0100
1000
0000
0001
0000
0100
0000
,
0001
0010
0001
0010
0000
0100
1000
0000
0010
0000
0100
0000
0001
0000
1000
0000
,
0001
0010
0001
0000
1000
0100
1000
0000
0010
0000
0100
0000
0001
0000
0010
0000
,
0100
0000
1000
0000
0010
0000
0100
0001
0000
1000
0000
0010
0100
0000
0001
0000
,
1000
0010
1000
0010
1000
0000
0001
0010
0001
0010
0001
0000
1000
0000
0010
0000
,
1001
0000
0000
0000
;
