#TITLE:If You Want Peace... Prepare for War;
#SUBTITLE:Are You Dead Yet? (2005);
#ARTIST:Children of Bodom;
#TITLETRANSLIT:;
#SUBTITLETRANSLIT:;
#ARTISTTRANSLIT:;
#CREDIT:Zybanthia;
#BANNER:war-banner.png;
#BACKGROUND:war-bg.png;
#LYRICSPATH:;
#CDTITLE:Zybanthia-cdtitle.png;
#MUSIC:If You Want Peace... Prepare for War.mp3;
#OFFSET:-0.108;
#SAMPLESTART:0.100;
#SAMPLELENGTH:19.760;
#SELECTABLE:YES;
#BPMS:0.000=170.000;
#STOPS:;
#BGCHANGES:;
// cache tags:
#FIRSTBEAT:0.000;
#LASTBEAT:656.000;
#SONGFILENAME:Songs/Astronomic Metal Collection 2/(Zybanthia) If You Want Peace Prepare for War/If You Want Peace... Prepare for War.sm;
#HASMUSIC:1;
#HASBANNER:1;
#MUSICLENGTH:237.714;
// end cache tags

//---------------dance-single - ----------------
#NOTES:
     dance-single:
     :
     Hard:
     11:
     1.000,1.000,1.000,0.766,1.000,1821.000,475.000,182.000,0.000,10.000:
1001
0000
0000
1001
0000
0000
1001
0000
0000
0000
0000
0000
0000
0000
0000
0000
,
1001
0000
0000
0000
0000
0000
0000
0000
0000
0000
0000
0000
1001
0000
0000
0000
0000
0000
0000
0000
0000
0000
0000
0000
1001
0000
0000
0000
0000
0000
0000
0000
0000
0000
0000
0000
0000
0000
0100
0000
0000
0000
0100
0000
0000
0000
0002
0000
0000
0000
0000
0000
0000
0000
0000
0000
0000
0000
0000
0000
0000
0003
0000
0000
,
1001
0000
0000
1001
0000
0000
1001
0000
0000
0000
0000
0000
0000
0000
0000
0000
,
1001
0000
0000
0000
0000
0000
1001
0000
0000
0000
0000
0000
1001
0000
0000
0000
0000
0000
0000
1000
0000
1000
0000
0000
0120
0000
0000
0000
0000
0000
0030
0000
,
1001
0100
0010
1001
0010
0100
1001
0100
0010
1000
0100
0001
0010
1000
0100
0010
,
1001
0100
0010
1001
0010
0100
1001
0100
0010
0001
0100
0010
1000
0001
0100
0010
,
1001
0100
0010
1001
0010
0100
1001
0100
0010
1000
0001
0100
0010
1000
0100
0010
,
1001
0000
0000
1001
0000
0000
1001
0000
0000
1001
0000
0000
1001
0000
0000
0000
,
1001
0010
0100
1000
0011
0100
1000
0010
1100
0010
0100
1000
0101
0010
0100
0010
,
1001
0000
0100
0000
0010
0000
0001
0000
1100
0000
0010
0000
0100
0000
1000
0000
0002
0003
0200
0300
1000
0000
0020
0030
0200
0300
0001
0000
0200
0300
2000
3000
,
0011
0100
0010
0001
1010
0100
0010
0001
1100
0001
0010
0100
1001
0010
0100
1000
,
0011
0000
0100
0000
0010
0000
1000
0000
0101
0000
0010
0000
0100
0000
1000
0000
0002
0003
0200
0300
1000
0000
0020
0030
0200
0300
0001
0000
0200
0300
2000
3000
,
0011
0100
0010
0001
1010
0100
0010
0001
1000
0100
0010
0100
0011
1000
0010
0100
,
1000
0000
0100
0000
0001
0000
0010
0000
1100
0000
0001
0000
0100
0000
0010
0000
0002
0003
0200
0300
1000
0000
0020
0030
0200
0300
0001
0000
0200
0300
2000
3000
,
0011
0100
0010
0100
1001
0010
0100
1000
0010
0100
0001
0010
1100
0010
1000
0100
,
0011
0000
0100
0000
1000
0000
0110
0000
0001
0000
0010
0000
1100
0000
0010
0000
0002
0003
0200
0300
1000
0000
0020
0030
0200
0300
0001
0000
0200
0300
2000
3000
,
0020
0000
0000
0000
0000
0000
0000
0000
0000
0000
0000
0000
0000
0000
0000
0000
0000
0000
0000
0000
0000
0000
0000
0000
0000
0030
0000
0000
0001
0000
0000
0000
0100
0000
0000
0000
0000
0000
0000
0000
0100
0000
0000
0000
0000
0000
0000
0000
0001
0000
0000
0000
0000
0000
0000
0000
0000
0000
0000
0000
0001
0000
0000
0000
,
0100
0000
0100
0000
0001
0000
0000
0001
0100
0000
0100
0000
0001
0000
0000
0001
,
0100
0010
0100
0010
0100
0010
0100
0010
0100
0010
0100
0010
0100
0010
0100
0010
,
0100
0010
0100
0010
0100
0010
0100
0010
0100
0010
0100
0010
0100
0010
0100
0010
,
1100
0000
0000
0000
0000
0000
1100
0000
0000
0000
0000
0000
0022
0000
0000
0000
0000
0033
0000
0000
0000
0011
0000
0000
1100
0000
0000
0000
0000
0000
1100
0000
0000
0000
0000
0000
0022
0000
0000
0000
0000
0033
0000
0000
0000
0011
0000
0000
,
1100
0000
1100
0000
0010
0100
0010
1000
0001
0010
0100
1000
0001
0100
1000
0010
,
1100
0000
0000
0000
0000
0000
1100
0000
0000
0000
0000
0000
0022
0000
0000
0000
0000
0033
0000
0000
0000
0011
0000
0000
1100
0000
0000
0000
0000
0000
1100
0000
0000
0000
0000
0000
0022
0000
0000
0000
0000
0033
0000
0000
0000
0011
0000
0000
,
1100
0000
1100
0000
0010
0001
0010
0001
0100
0010
0100
0010
1000
0100
1000
0100
,
1010
0000
0000
0000
0000
0000
1010
0000
0000
0000
0000
0000
0202
0000
0000
0000
0000
0303
0000
0000
0000
0101
0000
0000
1010
0000
0000
0000
0000
0000
1010
0000
0000
0000
0000
0000
0202
0000
0000
0000
0000
0303
0000
0000
0000
0101
0000
0000
,
1010
0000
1010
0000
0100
0010
0001
1000
0010
0100
0001
0010
1000
0100
0010
0001
,
1010
0000
0000
0000
0000
0000
1010
0000
0000
0000
0000
0000
0202
0000
0000
0000
0000
0303
0000
0000
0000
0101
0000
0000
1010
0000
0000
0000
0000
0000
1010
0000
0000
0000
0000
0000
0202
0000
0000
0000
0000
0303
0000
0000
0000
0101
0000
0000
,
1010
0000
1010
0000
0010
0001
0010
0001
0100
0010
0100
0010
1000
0100
1000
0100
,
1001
0000
0000
0000
0000
0000
1001
0000
0000
0000
0000
0000
0220
0000
0000
0000
0000
0330
0000
0000
0000
0110
0000
0000
1001
0000
0000
0000
0000
0000
1001
0000
0000
0000
0000
0000
0010
0000
0000
0000
0000
0000
0100
0000
0000
0000
0000
0000
,
0001
0000
0100
0000
0010
0000
1000
0000
0001
0000
0100
0000
0020
0000
0000
0030
,
1001
0000
0000
0000
0000
0000
1001
0000
0000
0000
0000
0000
0220
0000
0000
0000
0000
0330
0000
0000
0000
0110
0000
0000
1001
0000
0000
0000
0000
0000
1001
0000
0000
0000
0000
0000
0010
0000
0000
0000
0000
0000
0100
0000
0000
0000
0000
0000
,
0010
0000
0220
0330
2200
3300
0220
0330
0202
0303
0220
0330
0220
0330
0022
0033
,
1001
0000
0000
0000
0000
0000
1001
0000
0000
0000
0000
0000
0220
0000
0000
0000
0000
0330
0000
0000
0000
0110
0000
0000
1001
0000
0000
0000
0000
0000
1001
0000
0000
0000
0000
0000
0100
0000
0000
0000
0000
0000
0001
0000
0000
0000
0000
0000
,
1000
0010
0000
0020
0030
0100
0020
0030
,
1001
0000
0000
0000
0000
0000
1001
0000
0000
0000
0000
0000
0220
0000
0000
0000
0000
0330
0000
0000
0000
0110
0000
0000
1001
0000
0000
0000
0000
0000
1001
0000
0000
0000
0000
0000
0100
0000
0000
0000
0000
0000
0010
0000
0000
0000
0000
0000
,
0001
0100
0011
1100
0011
1100
0001
0010
0100
1000
0011
1100
0001
0010
0100
1000
,
0011
0000
0000
0000
0000
0000
0011
0000
0000
0000
0000
0000
2200
0000
0000
0000
0000
3300
0000
0000
0000
1100
0000
0000
0011
0000
0000
0000
0000
0000
0011
0000
0000
0000
0000
0000
2200
0000
0000
0000
0000
3300
0000
0000
0000
1100
0000
0000
,
0011
0000
0011
0000
1000
0010
0100
0001
0010
1000
0100
0010
1000
0001
0010
0100
,
0011
0000
0000
0000
0000
0000
0011
0000
0000
0000
0000
0000
2200
0000
0000
0000
0000
3300
0000
0000
0000
1100
0000
0000
0011
0000
0000
0000
0000
0000
0011
0000
0000
0000
0000
0000
2200
0000
0000
0000
0000
3300
0000
0000
0000
1100
0000
0000
,
0011
0000
0011
0000
0100
1000
0100
1000
0010
0100
0010
0100
0001
0010
0001
0010
,
0101
0000
0000
0000
0000
0000
0101
0000
0000
0000
0000
0000
2020
0000
0000
0000
0000
3030
0000
0000
0000
1010
0000
0000
0101
0000
0000
0000
0000
0000
0101
0000
0000
0000
0000
0000
2020
0000
0000
0000
0000
3030
0000
0000
0000
1010
0000
0000
,
0101
0000
0101
0000
1000
0010
0100
0001
0010
1000
0001
0100
0010
0001
1000
0010
,
0101
0000
0000
0000
0000
0000
0101
0000
0000
0000
0000
0000
2020
0000
0000
0000
0000
3030
0000
0000
0000
1010
0000
0000
0101
0000
0000
0000
0000
0000
0101
0000
0000
0000
0000
0000
2020
0000
0000
0000
0000
3030
0000
0000
0000
1010
0000
0000
,
0101
0000
0101
0000
0010
0100
0010
0100
0001
0010
0001
0010
1000
0010
1000
0010
,
1001
0000
0100
0000
0010
0000
1002
0000
0000
0003
0100
0010
1200
0000
0000
0000
,
0000
0300
0100
0000
0010
0000
0001
0000
0100
0000
1000
0000
0100
0000
0010
0000
,
1001
0000
0100
0000
0010
0000
1002
0000
0000
0003
0100
0010
1200
0000
0000
0000
,
0000
0300
0000
0010
0000
0000
0100
0000
0000
1000
0000
0000
0100
0000
0000
0010
0000
0000
0020
0000
0000
0030
0000
0000
,
1001
0000
0100
0000
0010
0000
1002
0000
0000
0003
0100
0010
1200
0000
0000
0000
,
0000
0300
0100
0000
0010
0000
0001
0000
0100
0000
1000
0000
0100
0000
0010
0000
,
1001
0000
0100
0000
0010
0000
1002
0000
0000
0003
0100
0010
1200
0000
0000
0000
,
0000
0300
0000
0010
0000
0000
0100
0000
0000
1000
0000
0000
0100
0000
0000
0010
0000
0000
0020
0000
0000
0030
0000
0000
,
1100
0010
0100
0011
1000
0001
1100
0010
0100
0001
0010
1000
0100
0010
0100
1000
,
0011
0100
0010
1100
0001
1000
0011
0100
0010
1000
0100
0001
0020
0000
0000
0030
,
1100
0001
0010
0100
0011
1000
0100
0010
1000
0001
0010
0100
1001
0010
0100
1000
,
0001
0000
0010
0000
0100
0000
1000
0000
0101
0000
0010
0000
0100
0000
1000
0000
0002
0003
0200
0300
1000
0000
0020
0030
0200
0300
0001
0000
0200
0300
2000
3000
,
0001
0010
0100
0010
1001
0100
0010
0001
1000
0100
0010
0001
1010
0100
0010
0001
,
0010
0000
0100
0000
0001
0000
0010
0000
1100
0000
0001
0000
0010
0000
1000
0000
0002
0003
0200
0300
1000
0000
0020
0030
0200
0300
0001
0000
0200
0300
2000
3000
,
0101
0010
0100
0010
1001
0100
0010
1000
0100
0001
0010
0100
0011
1000
0100
0010
,
0100
0000
1000
0000
0001
0000
0010
0000
1100
0000
0001
0000
0010
0000
0100
0000
0002
0003
0200
0300
1000
0000
0020
0030
0200
0300
0001
0000
0200
0300
2000
3000
,
0001
0010
0100
1000
0101
0010
0100
1000
0100
0001
0010
0100
0011
1000
0100
0001
,
1100
0011
1100
0011
1100
0001
1100
0010
1100
0011
1100
0001
1100
0011
1100
0011
,
1100
0000
0000
0000
0000
0000
1100
0000
0000
0000
0000
0000
0022
0000
0000
0000
0000
0033
0000
0000
0000
0011
0000
0000
1100
0000
0000
0000
0000
0000
1100
0000
0000
0000
0000
0000
0010
0000
0000
0000
0000
0000
1000
0000
0000
0000
0000
0000
,
0100
0001
1000
0010
0100
0010
0002
0003
,
0110
0000
0000
0110
0000
0000
2002
0000
0000
0000
3003
0000
0110
0000
0000
0110
0000
0000
0202
0000
0000
0000
0303
0000
,
0010
1000
0100
1000
0001
0100
0020
0030
,
1010
0000
0000
0000
0000
0000
1010
0000
0000
0000
0000
0000
0202
0000
0000
0000
0000
0303
0000
0000
0000
0101
0000
0000
1010
0000
0000
0000
0000
0000
1010
0000
0000
0000
0000
0000
0100
0000
0000
0000
0000
0000
1000
0000
0000
0000
0000
0000
,
0010
0001
0010
0001
0010
0001
0010
0001
0010
0001
0010
0001
0010
0001
0010
0001
,
1100
0000
0000
0000
0000
0000
1100
0000
0000
0000
0000
0000
0022
0000
0000
0000
0000
0033
0000
0000
0000
0011
0000
0000
1100
0000
0000
0000
0000
0000
1100
0000
0000
0000
0000
0000
0010
0000
0000
0000
0000
0000
0001
0000
0000
0000
0000
0000
,
1000
0000
0010
0000
0100
0000
0001
0000
0100
0000
0010
0000
1000
0000
0100
0000
0022
0000
0000
0000
0000
0033
0000
0000
0202
0000
0000
0000
0000
0303
0000
0000
,
1010
0101
1000
0101
1010
0001
1010
0101
,
1000
0101
1010
0001
1010
0101
1000
0101
,
1010
0001
0100
0010
1100
0000
0100
0010
1000
0001
0100
0010
1100
0000
0100
0010
,
0100
0001
0100
0010
1100
0000
0100
0010
0001
0010
0100
1000
0011
0100
0010
0100
,
1010
0101
1000
0101
1010
0001
1010
0101
,
1000
0101
1010
0001
1010
0101
1000
0101
,
1010
0001
0100
0010
1100
0000
0100
0010
1000
0001
0100
0010
1100
0000
0010
0100
,
0010
0001
0010
0100
1000
0100
0010
0001
0010
0100
1000
0100
0010
0001
0010
0100
1000
0100
0011
0000
0000
0011
0000
0000
,
1010
0101
1000
0101
1010
0001
1010
0101
,
1000
0101
1010
0001
1010
0101
1000
0101
,
1010
0001
0100
0010
1100
0000
0100
0010
0100
0001
0100
0010
1100
0000
0100
0010
,
1000
0001
0100
0010
1100
0000
0100
0010
0001
0010
0100
1000
0011
0100
0010
0100
,
1010
0101
1000
0101
1010
0001
1010
0101
,
1000
0101
1010
0001
1010
0101
1000
0101
,
1001
0110
0000
1001
0110
0000
1101
1011
,
0000
0000
0000
0000
1101
0000
0000
0000
1011
0000
0000
0000
0000
0000
0000
0000
1001
0000
0000
0000
1001
0000
0000
0000
0202
0000
0000
0000
0000
0303
0000
0000
,
1001
0000
0100
0000
0010
0000
1002
0000
0000
0003
0100
0010
1200
0000
0000
0000
,
0000
0300
0100
0000
0010
0000
0001
0000
0100
0000
1000
0000
0100
0000
0010
0000
,
1001
0000
0100
0000
0010
0000
1002
0000
0000
0003
0100
0010
1200
0000
0000
0000
,
0000
0300
0000
0010
0000
0000
0100
0000
0000
1000
0000
0000
0100
0000
0000
0010
0000
0000
0020
0000
0000
0030
0000
0000
,
1001
0000
0100
0000
0010
0000
1002
0000
0000
0003
0100
0010
1200
0000
0000
0000
,
0000
0300
0100
0000
0010
0000
0001
0000
0100
0000
1000
0000
0100
0000
0010
0000
,
1001
0000
0100
0000
0010
0000
1002
0000
0000
0003
0100
0010
1200
0000
0000
0000
,
0000
0300
0000
0010
0000
0000
0100
0000
0000
1000
0000
0000
0100
0000
0000
0010
0000
0000
0020
0000
0000
0030
0000
0000
,
0202
0000
0000
0000
0000
0000
0000
0003
0000
0000
0000
0300
0000
0000
0001
0000
0100
0000
0000
0000
0100
0000
0000
0000
0001
0000
0000
0000
0000
0000
0001
0000
,
0100
0010
0100
0010
0100
0010
0100
0010
0100
0010
0100
0010
0100
0010
0100
0010
,
0101
0000
0000
0110
0000
0000
1010
0000
0002
0000
0000
0003
1000
0100
0001
1000
,
0100
0001
1000
0100
0001
1000
0100
0001
1000
0100
0001
1000
0100
0001
1000
0100
,
0001
1000
0100
0001
1000
0100
0001
1000
0100
0010
1000
0100
0010
0100
1000
0001
,
0100
0000
0000
0010
0000
0000
1000
0000
0000
0100
0000
0000
0001
0000
0000
0010
0000
0000
1000
0000
0000
0010
0000
0000
0100
0000
0000
0010
0000
0000
0100
0000
0000
1000
0000
0000
0002
0000
0000
0000
0000
0000
0000
0003
0000
0100
0000
0000
,
0020
0000
0000
0000
0000
0000
0000
0000
0000
0000
0000
0000
0000
0030
0000
0000
1000
0000
0001
0000
0010
0000
0100
0000
2000
0000
0000
0000
0000
0000
3000
0000
,
0001
0010
0100
1000
0200
0000
0000
0300
1000
0001
0010
0100
0020
0000
0000
0030
,
0100
1000
0100
0010
0002
0000
0000
0003
0010
0001
0100
0010
0100
1000
0010
0001
,
0100
0010
0100
1000
0010
0001
0100
0010
0100
1000
0100
0010
0001
0010
0100
1000
,
0200
0000
0000
0000
0000
0000
0000
0300
0010
0001
0100
0010
0100
1000
0010
0001
,
0100
0010
0100
1000
0010
0001
0100
0010
0100
1000
0010
0001
0100
0010
0100
1000
,
0100
0010
0100
1000
0010
0001
0010
0100
0010
0001
0100
0010
0100
1000
0001
0010
,
0100
0000
0000
1000
0000
0000
0010
0000
0000
0001
0000
0000
1000
0000
0000
0100
0000
0000
0001
0000
0000
0010
0000
0000
1000
0000
0000
0100
0000
0000
0010
0000
0000
0001
0000
0000
0010
0000
0100
0000
1000
0000
0100
0000
0010
0000
0001
0000
,
0010
0000
0100
0000
1000
0000
0001
0000
0010
0000
0100
0000
0001
0000
0000
0100
0000
0000
0010
0000
0000
1000
0000
0000
0010
0000
0000
0200
0000
0000
0000
0000
0000
0000
0000
0000
0000
0000
0000
0000
0000
0000
0000
0000
0000
0000
0000
0000
,
0000
0000
0000
0000
0000
0000
0000
0000
0000
0000
0000
0000
0000
0000
0000
0000
0000
0000
0000
0000
0000
0000
0000
0000
0000
0000
0000
0000
0000
0000
0000
0000
0000
0000
0000
0000
0000
0000
0000
0000
0000
0000
0000
0000
0000
0300
0000
0000
2000
0000
0000
0000
0000
0000
0000
0000
0000
0000
0000
0000
0000
0000
0000
0000
0000
0000
0000
0000
0000
0000
0000
0000
0000
0000
0000
0000
0000
0000
0000
0000
0000
0000
0000
0000
0000
0000
0000
0000
3000
0000
0000
0000
0000
0000
0000
0000
0100
0000
0000
0000
0000
0000
0000
0000
0000
0000
0000
0000
0010
0000
0000
0000
0000
0000
0000
0000
0000
0000
0000
0000
0001
0000
0000
0000
0000
0000
0000
0000
0020
0000
0000
0000
0000
0000
0000
0000
0000
0000
0000
0000
0030
0000
0000
0000
0001
0000
0000
0000
0000
0000
0000
0000
0000
0000
0000
0000
0100
0000
0000
0000
0000
0000
0000
0000
0000
0000
0000
0000
1000
0000
0000
0000
0000
0000
0000
0000
0000
0000
0000
0000
0010
0000
0000
0000
0000
0000
0000
0000
0000
0000
0000
0000
,
0200
0000
0000
0000
0000
0000
0000
0000
0000
0300
0000
0000
1000
0100
0010
1000
0100
0001
1000
0010
0001
0100
0010
0001
,
1000
0100
0001
1000
0010
0001
1000
0100
0001
1000
0100
0010
0001
1000
0100
0010
0001
0010
0100
1000
0001
0100
1000
0010
,
0100
0000
1000
0000
0010
0000
0100
0000
0001
0000
0010
0000
0100
0000
1000
0000
0020
0000
0000
0000
0000
0000
0000
0000
0000
0000
0000
0000
0000
0000
0030
0000
0000
0000
0000
0000
1001
0000
0000
0100
0000
0000
0010
0000
0000
0001
0000
0000
,
1000
0010
0100
0001
1000
0100
0010
0001
1000
0100
0010
1000
0100
0010
0001
0010
,
0100
0001
0010
0100
0001
0100
1000
0100
0010
0100
1000
0010
0001
0100
0010
0001
,
0100
0000
0000
0001
0000
0000
0010
0000
0000
1000
0000
0000
0001
0000
0000
0010
0000
0000
1000
0000
0000
0100
0000
0000
0001
0000
0000
1000
0000
0000
0100
0000
0020
0000
0000
0000
0000
0000
0000
0000
0030
0000
0001
0000
0000
0020
0000
0000
,
0000
0000
0000
0030
0000
0100
0000
0000
0000
0000
0000
0000
0020
0000
0000
0030
0000
0000
0002
0000
0000
0000
0000
0000
0000
0000
0000
0000
0000
0000
0003
0000
0000
0000
0000
0000
1000
0000
0000
0100
0000
0000
0010
0000
0000
0100
0000
0000
,
1000
0100
0010
0001
0010
0100
1000
0001
0010
0100
1000
0010
0001
0010
0100
1000
,
0100
0010
0001
0010
0100
1000
0100
0010
0001
0100
0010
0100
0001
0100
0001
0100
,
0001
0100
0001
0100
0010
1000
0001
0100
0010
0100
1000
0100
0001
0010
1000
0100
,
0010
0100
1000
0010
0002
0000
0000
0000
0000
0000
0000
0000
0220
0000
0000
0000
,
0000
0000
0000
0000
0000
0000
0000
0000
0000
0000
0000
0333
0001
0010
0100
1000
,
0001
0000
0000
0000
0100
0000
0000
0000
1000
0000
0000
0000
0010
0000
0000
0000
0000
0000
0202
0000
0000
0000
0000
0000
0000
0000
0000
0000
0000
0000
0000
0000
0000
0303
0000
0000
0001
0000
0000
0010
0000
0000
0100
0000
0000
0010
0000
0000
,
0100
1000
0001
0010
1000
0010
0100
0001
0010
0100
0010
1000
0001
0010
0100
1000
,
0010
0100
0020
0030
0202
0000
0000
0000
0000
0000
0000
0303
0001
0010
0100
1000
,
0001
0010
0100
1000
0001
0010
0100
1000
0001
0010
0100
1000
0001
0010
0100
1000
,
0001
0010
0100
1000
0001
0010
0100
1000
0001
0010
0100
1000
0001
0100
0001
0100
,
0010
0100
0010
0100
0010
1000
0010
1000
0100
0010
0000
0000
0001
0010
1100
0011
,
1000
0000
0100
0000
0011
0000
1100
0000
0022
0000
0000
0033
0000
0000
0220
0000
0000
0330
0000
0000
2200
0000
0000
3300
0011
0000
1000
0000
0100
0000
0010
0000
,
1000
0010
0100
1000
0010
1000
0100
0010
0100
1000
0100
1000
0010
1000
0100
1000
,
0010
0100
1000
0100
0001
0010
0100
0010
0100
1000
0010
0100
1111
1000
0100
0010
,
1000
0010
0100
1000
0010
1000
0100
0010
0100
1000
0100
1000
0101
0000
0000
0110
,
0000
0000
1010
0000
0022
0000
0000
0033
0202
0000
0000
0303
1010
0000
0101
0000
,
1000
0101
1010
0001
1010
0101
1000
0101
,
1010
0000
0001
0000
1010
0000
0101
0000
1000
0000
0101
0000
1010
0001
0100
0010
,
1100
0000
0100
0010
1000
0001
0100
0010
1100
0000
0100
0010
0100
0001
0100
0010
,
1100
0000
0100
0010
0001
0010
0100
1000
0011
0100
0010
0100
1010
0000
0101
0000
,
1000
0101
1010
0001
1010
0101
1000
0101
,
1010
0000
0001
0000
1010
0000
0101
0000
1000
0000
0101
0000
1010
0001
0100
0010
,
1100
0000
0100
0010
1000
0001
0100
0010
1100
0000
0100
0010
0100
1000
0100
0010
,
1001
0010
0100
0001
1000
0100
0010
0001
1100
0010
0100
0001
1010
0000
0101
0000
,
1000
0101
1010
0001
1010
0101
1000
0101
,
1010
0000
0001
0000
1010
0000
0101
0000
1000
0000
0101
0000
1010
0001
0100
0010
,
1100
0000
0100
0010
1000
0001
0100
0010
1100
0000
0100
0010
0100
0001
0100
0010
,
1100
0000
0100
0010
0001
0010
0100
1000
0011
0100
0010
0100
1010
0000
0101
0000
,
1000
0101
1010
0001
1010
0101
1000
0101
,
1010
0001
1010
0101
1000
0101
1001
1001
,
0001
0010
0100
1001
0000
0000
1001
0000
0000
1000
0010
0100
1001
0000
0000
1001
0000
0000
0010
0001
0100
1001
0000
0000
,
1001
0000
0010
0000
0022
0000
0000
0033
0202
0000
0000
0303
1010
0000
0101
0000
,
1000
0101
1010
0001
1010
0101
1000
0101
,
1010
0000
0001
0000
1010
0000
0101
0000
1000
0000
0101
0000
1010
0000
0100
0010
,
1100
0000
0010
0100
0010
0000
0100
0010
1100
0000
0010
0100
0010
0000
0100
0010
,
1100
0000
0010
0100
0010
0000
0100
0010
1100
0000
0010
0100
1010
0000
0101
0000
,
1000
0101
1010
0001
1010
0101
1000
0101
,
1010
0000
0001
0010
1000
0100
0011
1100
0010
0001
0100
0010
1100
0001
0100
0010
,
1100
0000
0100
0010
0100
0001
0100
0010
1100
0010
0100
1000
0001
0100
0010
1000
,
0001
0110
1000
0100
0001
0100
0010
1100
0001
0010
1000
0100
1010
0000
0101
0000
,
1000
0101
1010
0001
1010
0101
1000
0101
,
1010
0000
0001
0000
1010
0000
0101
0000
1000
0000
0101
0000
1010
0100
0010
0100
,
0011
0000
0100
0010
0100
0000
0010
0100
0011
0000
0100
0010
0100
0000
0010
0100
,
0011
0000
0100
0010
0001
0010
1000
0100
0011
0000
0100
0000
1010
0000
0101
0000
,
1000
0101
1010
0001
1010
0101
1000
0101
,
1010
0001
1010
0101
1000
0101
1001
0110
,
0000
1001
0110
0000
1101
1011
0000
1111
,
1111
0000
0000
0000
;
