#TITLE:Hell's Kitchen;
#SUBTITLE:Falling into Infinity (1997);
#ARTIST:Dream Theater;
#TITLETRANSLIT:;
#SUBTITLETRANSLIT:;
#ARTISTTRANSLIT:;
#CREDIT:Kevin (Sloqx), Crocodx for bn and bg;
#BANNER:HK bn.jpg;
#BACKGROUND:HK bg.jpg;
#LYRICSPATH:;
#CDTITLE:!cdtitle.png;
#MUSIC:Dream Theater - Hell's Kitchen.mp3;
#OFFSET:-0.091;
#SAMPLESTART:101.512;
#SAMPLELENGTH:12.000;
#SELECTABLE:YES;
#BPMS:0.000=95.320,4.000=96.440,8.000=98.000,12.000=92.160,16.000=99.400,20.000=99.600,24.000=95.800,28.000=94.960,32.000=64.720,40.000=65.680,48.000=122.070,51.000=120.510,54.000=120.750,57.000=121.530,60.000=120.120,63.000=120.060,66.000=119.880,69.000=120.570,72.000=120.270,75.000=122.160,78.000=119.700,81.000=120.030,84.000=118.380,87.000=119.850,90.000=121.350,93.000=120.000,96.000=120.870,99.000=120.480,102.000=119.610,105.000=120.840,108.000=121.140,111.000=120.870,114.000=119.220,117.000=119.910,120.000=121.890,123.000=121.200,126.000=120.060,129.000=121.200,132.000=121.080,135.000=120.900,138.000=120.660,141.000=115.920,143.000=121.650,146.000=121.710,149.000=120.420,152.000=119.310,155.000=121.590,158.000=120.930,161.000=121.050,164.000=117.400,166.000=122.430,169.000=121.710,172.000=118.650,175.000=119.240,177.000=120.900,180.000=120.330,183.000=123.240,186.000=119.560,188.000=119.760,191.000=121.050,194.000=118.920,197.000=119.520,199.000=120.600,202.000=122.130,205.000=120.420,208.000=119.240,210.000=120.000,213.000=121.710,216.000=120.120,219.000=121.620,222.000=120.720,225.000=120.390,228.000=120.990,231.000=119.670,234.000=119.490,237.000=122.550,240.000=119.970,243.000=120.930,246.000=121.100,248.500=117.760,251.000=121.050,253.500=119.600,256.000=122.180,258.500=120.900,261.000=120.400,263.500=121.680,266.000=119.050,268.500=120.970,271.000=120.500,273.500=119.230,276.000=121.980,278.500=122.500,281.000=120.080,283.500=121.820,286.000=116.360,288.500=122.400,291.000=118.450,293.500=120.930,296.000=120.530,298.500=120.630,301.000=121.370,303.500=120.380,305.500=119.180,308.000=120.250,310.500=121.430,313.000=119.680,315.000=120.640,318.500=120.890,322.000=121.450,325.500=119.950,329.000=120.540,332.500=119.040,336.000=122.470,339.500=119.950,343.000=119.880,346.500=122.680,350.000=121.310,353.500=118.860,357.000=122.400,360.500=119.840,364.000=120.320,372.000=120.200,376.500=121.620,379.500=119.400,382.500=119.610,385.500=121.680,387.500=119.430,390.500=122.310,393.500=119.100,396.500=122.340,398.500=119.850,401.500=120.300,404.500=121.960,408.500=118.140,411.500=120.960,414.500=121.770,417.500=120.000,420.500=119.850,423.500=120.420,426.500=121.350,429.500=120.180,432.500=121.920,435.500=119.400,438.500=119.880,441.500=119.520,444.500=122.010,447.500=121.200,450.500=118.740,453.500=120.600,455.500=121.740,458.500=120.750,461.500=120.450,464.500=121.000,466.500=119.490,469.500=122.280,472.500=120.900,475.500=105.960,479.500=8.520;
#STOPS:;
#BGCHANGES:;
// cache tags:
#FIRSTBEAT:0.000;
#LASTBEAT:480.500;
#SONGFILENAME:Songs/Astronomic Metal Collection/Hell's Kitchen - Sloqx/Dream Theater - Hell's Kitchen.sm;
#HASMUSIC:1;
#HASBANNER:1;
#MUSICLENGTH:256.843;
// end cache tags

//---------------dance-single - ----------------
#NOTES:
     dance-single:
     :
     Challenge:
     11:
     0.710,1.000,0.284,0.549,0.800,1062.000,73.000,141.000,0.000,0.000:
1000
0001
0100
0010
1000
0100
0010
0000
,
0100
1000
0001
0010
0100
1000
0001
0000
,
0100
0001
1000
0100
0010
0001
1000
0000
,
0020
0000
0000
2030
0000
0000
3200
0000
,
0310
0001
1000
0010
0100
0001
1000
0000
,
0010
0100
0001
0010
0100
1000
0001
0000
,
0010
0100
1000
0001
0100
0010
1000
0000
,
0002
0000
2003
0000
,
3020
2030
3200
0320
,
0032
0203
0320
2030
,
3002
0000
0000
0000
0023
0000
0000
0000
0230
0000
0000
1000
2300
0000
0000
0000
,
3020
0000
0000
0000
0000
0000
0000
0000
0000
0000
0000
0000
0230
0000
0000
0000
0000
0000
0000
0000
0000
0000
0000
0000
0302
0000
0000
0000
0000
0000
0000
0000
0000
1003
0000
0000
0100
0000
0000
0000
0020
0000
0000
0000
0000
0000
0000
0000
,
0130
1000
0001
0101
0000
0001
1000
0010
,
0100
1001
0000
1000
0100
0010
0001
0011
,
0000
0100
1000
0010
0100
0101
1010
1010
,
0001
0100
0010
1001
0000
1000
0100
0010
,
0001
1001
0000
0001
0100
0010
0100
1001
,
0000
0001
1000
0010
1000
0011
1100
1100
,
0001
0100
0010
1001
0000
1000
0100
0010
,
0001
1010
0000
0001
1000
0100
0010
1100
,
0000
0001
0100
0010
0100
1001
1100
1100
,
0001
0100
0010
1010
0000
0001
0010
0100
,
1000
0011
0000
0001
1000
0010
1000
0101
,
0000
0001
2000
0000
0000
0000
0000
3000
,
0100
0020
0000
0000
0000
0000
0000
0000
,
0030
0002
0000
0003
0100
0020
0000
0000
,
0000
0000
0000
0000
0030
2000
0000
3001
,
0002
0000
0203
0000
0000
0300
0020
0000
,
0000
0000
0000
0000
0000
0000
0030
2000
,
0000
3000
0200
0000
0300
0020
0000
0030
,
0002
0000
0000
0000
0000
0003
2000
0000
,
0000
0000
0000
3000
0020
0000
0000
0000
,
0000
0030
0200
0000
0300
0002
0000
0003
,
2000
0000
3000
0020
0000
0030
0200
0000
,
0301
2000
0000
3000
0200
0000
0300
0020
,
0000
0000
0000
0000
0000
0000
0000
0000
0030
0000
0000
0000
0000
0000
0001
0100
0001
0000
0100
0000
0010
0000
0100
0001
2000
0000
0000
0000
0000
0000
0000
0000
,
3000
2000
0000
0000
0000
0000
3000
0000
0020
0000
0000
0000
0030
0000
0200
0000
,
0000
0000
0301
0000
2000
0000
0000
0000
0000
0000
3000
0000
0000
0001
0100
0000
,
0020
0000
2030
0000
3100
0010
0002
0000
,
0003
2000
0000
3000
0200
0000
0000
0000
,
0300
1000
0002
0000
0003
0200
0000
0300
,
0020
0000
1030
0001
0200
0000
0300
0010
,
0020
0000
1030
0100
0020
0000
0000
0030
,
0001
0200
0000
0000
0000
0000
0000
0000
0320
0000
0000
0000
0000
0000
0000
0000
1030
0000
0001
0000
0010
0000
0000
0000
0200
0000
0000
0000
0000
0000
0000
0000
,
2300
0000
3002
0000
0003
0100
0200
0000
,
0302
0000
0000
0000
0000
0000
0003
0000
1000
0100
0010
0100
2000
0000
0000
0000
,
3000
0000
0001
0000
0100
0000
0010
0000
1000
0000
0100
0000
0010
0000
0000
0000
0010
0000
0000
0000
0000
0000
0001
0010
0100
1000
0001
0100
0001
1000
0010
0100
,
0001
1000
0100
0010
0100
1000
0001
0010
0100
1000
0001
0010
0100
1000
0001
0100
0001
1000
0010
1000
0001
0100
0010
1000
0100
0010
0001
1000
0020
0000
0000
0000
,
0000
0000
0000
0230
0000
0000
0000
0000
0000
0300
0000
0000
0001
1000
0020
0000
0000
0000
0000
0000
0000
0000
0000
0000
,
0000
0000
0000
0000
0000
0000
0030
0000
0000
0000
0000
0000
0100
0000
0001
0000
0100
0000
0001
0000
0100
0000
0001
0000
1000
0000
0000
0010
0000
0000
2000
0000
0000
0000
0000
0000
0000
0000
0000
0000
0000
0000
0000
0000
0000
0000
0000
0000
,
3000
0000
0000
0001
0000
0000
0200
0000
0000
0000
0000
0000
0000
0000
0000
0000
0000
0000
0310
0000
0000
1000
0000
0000
0200
0000
0000
0000
0000
0000
0000
0000
0000
0000
0000
0000
0300
0000
0000
0000
0000
0000
0010
0000
0100
0000
1000
0000
,
0100
0000
0000
0000
0000
0000
0000
0000
0010
0000
0000
0000
0000
0000
0000
0000
0001
0000
0000
0000
0000
0000
0000
0000
1000
0000
0000
0000
0000
0000
0000
0000
0100
0000
0000
0000
0000
0000
0000
0000
0010
0000
0000
0000
0000
0000
0000
0000
0001
0000
0000
0000
0000
0000
0000
0000
0010
0000
0000
0000
0000
0000
0000
0000
0100
0000
0000
0000
0000
0000
0000
0000
1000
0000
0000
0000
0000
0000
0000
0000
0010
0000
0000
0000
0000
0000
0000
0000
0100
0000
0000
0000
0000
0000
0000
0000
0001
0000
0000
0000
0000
0000
0000
0000
1000
0000
0000
0000
0000
0000
0000
0000
0100
0000
0000
0000
0000
0000
0000
0000
0010
0000
0000
0000
0000
0000
0000
0000
0001
0000
0000
0000
0000
0000
0000
0000
1000
0000
0000
0000
0000
0000
0000
0000
0100
0000
0000
0000
0000
0000
0010
0000
0000
0000
0000
0000
0100
0000
0000
0000
0000
0000
0010
0000
0000
0000
0000
0000
0100
0000
0000
0000
0000
0000
1000
0000
0000
0000
0000
0000
0001
0000
0000
0000
0000
0000
0100
0000
0000
0000
0000
0000
,
0020
0000
0000
0000
0030
0000
0100
0001
0100
0000
0010
0000
2000
0000
0000
0000
0000
0000
0000
0000
3000
0000
0000
0000
0001
0000
0100
0000
0020
0000
0000
0000
,
0000
0000
0000
0000
0000
0000
0000
0000
0000
0000
0000
0000
0000
0000
0000
0000
0000
0000
0000
0000
0000
0000
0000
0000
1030
0000
0000
0000
0000
0000
0000
0000
0000
0000
0000
0000
0100
0000
0000
0000
0000
0000
0000
0000
0000
0000
0000
0000
0010
0000
0000
0000
0000
0000
0000
0000
0000
0000
0000
0000
0100
0000
0000
0000
0000
0000
0000
0000
0000
0000
0000
0000
1000
0000
0000
0000
0000
0000
0000
0000
0100
0000
0000
0000
0000
0000
0000
0000
0010
0000
0000
0000
0000
0000
0000
0000
0001
0000
0000
0000
0000
0000
0000
0000
0010
0000
0000
0000
0000
0000
0000
0000
0100
0000
0000
0000
0000
0000
0000
0000
1000
0000
0000
0000
0000
0000
0001
0000
0000
0000
0000
0000
0100
0000
0000
0000
0000
0000
0010
0000
0000
0000
0000
0000
0100
0000
0000
0000
0000
0000
0001
0000
0000
0000
0000
0000
1000
0000
0000
0000
0000
0000
0100
0000
0000
0000
0000
0000
0010
0000
0000
0000
0000
0000
0001
0000
0000
0000
0000
0000
1000
0000
0000
0000
0000
0000
0100
0000
0000
0000
0000
0000
,
0010
0100
1000
0001
0010
0100
0010
0001
1000
0100
0010
0001
1000
0010
0100
0001
1000
0010
1000
0001
0010
0100
1000
0001
0100
0010
1000
0100
0010
0001
0010
0100
,
1000
0001
0010
0100
1000
0001
0100
0010
0200
0000
0000
0000
0300
0000
0000
0000
2002
0000
0000
0000
0000
0000
0000
0000
0000
0000
0000
0000
0000
0000
0000
0000
,
3003
1000
0020
0000
0000
0000
0000
0030
,
0202
0000
0000
0000
0000
0000
0000
0000
0303
0000
0010
1000
0200
0000
0000
0000
,
0000
0000
0000
0000
0300
0000
0000
0000
1000
0000
0100
0000
0010
0000
0100
0000
1001
0000
0000
0000
0000
0000
0001
0100
0001
1000
0100
0010
0001
0010
0100
1000
,
0100
0010
0001
1000
0010
0100
0001
1000
0010
1000
0001
0100
0010
1000
0100
0010
0001
0100
0010
1000
0001
0010
0100
1000
0001
0100
0010
1000
0001
0100
0001
1000
,
0010
0100
0001
1000
0100
0010
0100
1000
0001
0010
0001
1000
0010
0100
0001
1000
0100
1000
0001
0100
0010
1000
0100
0010
0001
0100
0010
1000
0100
0010
0001
0010
,
0100
1000
0001
0100
0010
0100
0010
1000
0001
0000
0000
0000
0000
0000
0000
0000
0001
0100
0001
0100
0001
0100
0001
0100
0001
0100
0001
0100
0001
0100
0001
0100
,
0001
0100
0001
0100
0010
1000
0010
1000
0010
1000
0010
1000
0010
1000
0010
1000
0010
1000
0010
1000
0010
1000
0010
1000
0001
0010
0001
0010
0001
0010
0001
0010
,
0001
0010
0001
0010
0001
0010
0001
0010
0001
0010
0001
0010
0100
1000
0100
1000
0100
1000
0100
1000
0100
1000
0100
1000
0100
1000
0100
1000
0100
1000
0100
1000
,
0001
0100
0010
1001
1000
0100
0010
0100
,
1001
0001
0100
0010
1000
1001
0001
0010
,
0100
1000
0011
0011
1000
0001
0010
1100
,
0001
0100
0010
1000
0011
0100
1000
0001
,
0010
1001
0001
0100
0010
0100
0101
1000
,
0100
0000
0010
0001
1001
0000
1010
0000
0001
0000
0100
0000
0010
1000
1100
0000
,
0011
0000
0001
0000
0100
0000
0010
0100
0101
0000
1010
0000
1000
0000
0001
0000
,
0010
0100
1001
0000
1100
0000
0001
0000
0100
0000
0010
0000
0100
0000
1001
0000
,
1000
0010
1000
0100
0011
0001
1000
0010
,
0100
1001
0001
0010
0100
1000
0011
0001
,
1000
0000
0000
0010
0000
0000
1000
0001
0010
1100
0000
0000
0010
0000
0000
0001
0000
0000
0100
0000
0000
0010
1000
0100
,
0011
0000
0000
0001
0000
0000
1000
0000
0000
0010
0000
0000
0100
0001
1000
0110
0000
0000
0001
0000
0000
0010
0000
0000
,
0100
1000
0100
0011
0000
0000
0001
0000
0000
1000
0000
0000
0010
0000
0000
0100
0000
0000
1001
0000
0000
0001
0000
0000
,
0010
0100
0010
1001
1000
0100
0010
0001
,
1100
0000
0000
0000
0000
0000
0001
0000
0000
0000
0000
0000
0100
0000
0000
0000
0000
0000
0010
0000
1000
0000
0100
0000
0011
0000
0000
0000
0000
0000
0001
0000
0000
0000
0000
0000
1000
0000
0000
0010
0000
0000
0100
0000
0000
0001
0000
0000
,
0010
0001
0100
0010
0100
0001
1000
0100
0010
0001
1000
0010
0100
0001
1000
0100
,
0010
0100
1000
0001
0010
0100
1000
0001
0100
0010
0100
0001
1000
0100
0010
0001
,
1000
0010
1000
0001
0010
0100
1000
0001
0010
0001
0100
0010
0100
0001
1000
0010
,
1000
0001
0100
0010
1000
0001
0010
0100
1000
0001
0100
0001
1000
0100
0010
0100
,
1000
0001
0100
0010
0100
0001
1000
0010
1000
0001
0010
0100
1000
0010
0100
0001
,
1000
0100
1000
0001
0010
0100
1000
0001
0010
0001
0100
0010
0100
0001
1000
0010
,
0100
0001
1000
0100
0010
0100
1000
0001
0010
0001
0100
0010
1000
0001
0010
0100
,
1000
0001
0010
0001
0100
0010
1000
0100
0010
0001
0100
0010
1000
0001
0010
0100
,
1000
0001
0100
0001
1000
0010
0100
0001
1000
0010
1000
0100
0010
0001
0100
0010
,
1000
0001
0010
0100
1000
0001
0100
0010
0100
0001
1000
0100
0010
0001
1000
0100
,
0010
0100
1000
0001
0100
0010
1000
0100
0010
0001
0010
0100
1000
0001
0100
0010
,
1000
0100
0010
0100
1000
0001
0010
0100
1000
0001
0100
0001
1000
0100
0010
0001
,
0010
0100
1000
0010
0100
0001
1000
0010
1000
0001
0010
0100
1000
0001
0010
0100
,
1000
0000
0001
0000
0100
0000
0010
0000
0100
0001
1000
0000
0100
0000
0010
0000
0001
0000
0010
0000
0100
0000
1000
0000
0001
0000
0100
0000
0010
0000
0100
0000
,
0001
1000
0100
0000
0010
0000
0001
0000
1000
0000
0100
0000
0011
0000
0000
0000
1100
0000
0000
0000
0101
0000
0000
0000
1010
0000
0000
0000
0101
0000
0000
0000
,
1100
0002
0000
0000
0203
0000
0000
0320
,
0000
0000
2030
0000
0000
3002
0000
0000
,
0023
0000
0000
0000
0000
0000
0000
0000
0000
0130
0000
0000
1000
0001
0100
0010
0000
0000
0100
0000
0000
0002
0000
0000
,
0000
0000
2003
0000
0000
3200
0000
0000
,
0320
0000
0000
0032
0000
0000
0203
0000
,
0000
0000
0000
0301
0000
0000
1000
0010
0100
0001
0000
0000
1000
0000
0000
0020
0000
0000
0000
0000
0000
0000
0000
0000
,
2030
0000
0000
3002
0000
0000
0023
0000
,
0000
0000
0000
0230
0000
0000
0000
0000
0000
2300
0000
0000
0000
0000
0000
3001
0000
0000
0100
0010
1000
0100
0000
0000
,
0010
0002
0000
0000
0023
0000
0000
0230
,
0000
0000
0000
0000
0000
0000
0000
0000
2300
0000
0000
0000
0000
0000
0000
0000
0000
0000
0000
0000
3001
0100
0001
0000
0100
0001
1000
0000
0010
0000
1000
0000
,
0001
0010
0100
1000
0001
0000
0010
0000
0001
0000
1000
0000
0010
0100
0010
0000
0100
0000
0001
1000
0100
0000
0010
0000
0001
0000
0010
0000
0100
0000
1000
0000
,
0010
0100
2001
0000
0000
0000
0000
0000
3020
0000
0000
0000
0000
0000
2030
0000
,
0000
0000
3002
0000
0000
0023
0000
0000
,
0000
0000
0000
0000
0130
0000
2000
0000
0000
0000
0000
0000
3000
0000
0001
0100
,
0001
0100
0001
0100
0020
0000
0000
0000
0000
0000
0000
0000
0000
0000
0000
0000
2030
0000
0000
0000
0000
0000
0000
0000
0000
0000
0000
0000
3200
0000
0000
0000
,
0000
0000
0310
0001
0200
0000
0000
0000
0300
0000
1010
0000
1001
0000
0011
0000
,
1100
0011
0101
1010
1001
0011
1100
0101
,
0101
0002
0000
0000
2003
0000
0000
3002
,
0000
0000
0203
0000
0000
0320
0000
0000
,
2030
0000
0000
3002
0000
0203
0000
0320
,
0000
0000
2030
0000
0000
3200
0000
0000
,
2300
0000
0000
3002
0000
0000
0023
0000
,
0000
0230
0000
0320
0000
0032
0000
0000
,
0203
0000
0000
0302
0000
0000
2003
0000
,
3010
0020
0000
0000
2030
0000
0000
3002
,
0000
0000
0203
0000
0000
0000
0300
2020
,
0000
3030
0000
0000
0000
0000
0000
0000
;
