#TITLE:Hitori No Yoru;
#SUBTITLE:- Great Teacher Onizuka 2nd Opening;
#ARTIST:Porno Graffiti;
#TITLETRANSLIT:;
#SUBTITLETRANSLIT:;
#ARTISTTRANSLIT:;
#CREDIT:;
#BANNER:Hitori No Yoru.png;
#BACKGROUND:Hitori No Yoru-bg.png;
#LYRICSPATH:;
#CDTITLE:Dj DMA Otaku Original.png;
#MUSIC:Hitori No Yoru.mp3;
#OFFSET:0.148;
#SAMPLESTART:34.463;
#SAMPLELENGTH:12.000;
#SELECTABLE:YES;
#BPMS:0.000=174.000;
#STOPS:;
#BGCHANGES:;
// cache tags:
#FIRSTBEAT:10.500;
#LASTBEAT:707.000;
#SONGFILENAME:Songs/Otaku's Dream 1st Anime Mix/DJ DMAxel - Hitori No Yoru/Hitori No Yoru.sm;
#HASMUSIC:1;
#HASBANNER:1;
#MUSICLENGTH:248.641;
// end cache tags

//---------------dance-single - ----------------
#NOTES:
     dance-single:
     :
     Hard:
     7:
     0.488,0.604,0.454,0.004,0.000,736.000,113.000,1.000,0.000,0.000:
0000
0000
0000
0000
,
0000
0000
0000
0000
,
0000
0000
0000
0000
0000
1000
0010
0000
,
0110
0101
0011
0010
,
1000
0010
0000
0100
0000
0000
0010
0010
,
1000
0010
0100
0000
0101
0000
0011
0000
,
0001
0010
0000
0010
0000
0100
0000
0110
,
0000
1010
0101
0110
,
0001
0100
0000
1000
0000
0010
0000
0000
,
1010
0010
0100
0000
0101
0000
0010
0001
,
0010
0000
0100
1000
0010
0001
0100
0000
,
1000
0010
1000
0001
,
0100
0010
0001
0010
,
0001
1000
0010
0100
,
0010
1000
0000
0010
0000
0100
0000
0000
,
0010
0001
0010
0001
,
0010
0100
0010
0001
,
0010
0001
0100
0010
,
0001
0010
1000
1010
,
0100
0000
0010
0000
0100
0010
0100
0000
,
0010
0000
0001
0000
0010
0001
0010
0000
,
0001
0000
0100
0000
1000
1100
0000
0010
,
0000
0000
1000
0000
0010
1000
0010
0000
,
0100
0000
0010
0010
0100
0000
0101
0000
,
1010
0000
0101
0000
0010
1000
0000
1000
,
0001
1000
0000
1000
0010
1000
0000
0010
,
1000
0010
1000
0001
0100
0010
0001
0000
,
0010
0000
0011
0000
0001
0100
0000
0000
,
1000
0010
1000
0010
,
1000
0010
0100
0010
,
0000
0001
0010
1000
,
0010
1000
0100
0001
,
0100
0010
0001
0010
,
1000
0000
0001
0000
1000
0000
0001
1000
,
0001
0010
1000
1010
,
0000
0110
0000
0000
0000
0100
0000
0000
,
0000
0101
0000
0000
0000
0000
0010
0000
,
0000
0011
0000
0000
0000
0101
0000
0000
,
0000
0000
0000
1010
,
0000
0110
0000
0000
0000
0101
0000
0000
,
0000
1010
0000
0000
0000
0110
0000
0000
,
0001
0100
1000
0010
,
1000
0000
1010
0000
0000
0100
0000
0000
,
0011
0000
0001
0000
0100
0010
0001
0000
,
0010
1000
0000
0010
0000
0000
1000
0000
,
1010
0000
0000
0000
0000
0100
0000
0010
,
0000
0001
0000
0010
0000
0000
1000
0000
,
0000
1010
0000
0000
0000
0100
0000
0010
,
0000
0001
0000
0010
0000
0000
0010
0001
,
0100
0000
1000
0000
0010
0000
1000
0010
,
1000
0000
0100
0010
0001
0000
0010
0000
,
0100
0010
0011
0001
,
0101
0010
1000
0001
,
1000
0010
0001
0100
,
0010
0001
0010
1001
,
0010
1000
0010
1000
,
0010
0100
0010
1010
,
0100
0010
0000
0001
0010
0000
1000
0001
,
0100
1000
0010
0001
0100
0000
1000
0000
,
1000
0010
0100
0000
0001
0010
0000
0001
,
0100
1000
0010
0001
0000
0010
0000
0011
,
0000
1000
1010
0100
,
0110
0100
1000
1100
,
0001
0101
0010
1100
,
1000
0100
0001
0000
0000
0100
0000
0010
,
0000
0010
0001
0000
0001
0000
0101
0000
,
0001
0000
0100
1000
0000
0010
0000
1000
,
0010
0000
1000
0000
1010
0000
1000
0001
,
0100
1000
0010
0001
0100
1000
0010
0000
,
1010
0000
0100
0100
0010
0000
1000
0000
,
1010
0000
0100
0000
0101
0000
0010
0001
,
0010
0000
1000
0000
0010
0000
1000
0010
,
1000
0010
0100
0110
,
0010
1010
0100
0010
,
0001
0000
0010
0000
1000
0000
0001
1000
,
0001
0000
1000
0000
0010
0000
1000
0010
,
0100
0010
0001
0010
,
0010
0001
0000
0000
0000
0000
0100
0000
,
0000
0101
0000
0000
0000
0100
0000
0000
,
1100
0000
0101
0000
,
0000
0000
0000
0000
0000
0010
0100
0000
,
0000
1001
0000
0000
0000
0000
1010
0000
,
0000
0101
0000
0000
0000
0011
0000
0001
,
0000
0100
0000
0000
1000
0000
0010
0000
,
0000
1000
1010
0000
0000
0100
0000
0000
,
0010
0001
0010
0100
,
0010
0001
0010
1000
,
0010
0100
0010
1000
,
0100
0010
0001
0010
,
1010
0100
0101
0010
,
0001
0010
1000
0010
,
1000
0010
0000
0000
0100
0000
0001
0000
,
0010
0001
0010
1010
,
0100
0010
1010
0100
,
0010
0001
0010
0011
,
0000
0100
0000
0101
0000
0010
0000
0000
,
1000
0010
1000
0010
,
0000
1010
0000
0000
0000
0100
0000
0010
,
0000
0001
0010
0001
,
0010
0000
0100
0000
0010
0000
0001
0010
,
0010
0000
1000
0010
0010
0000
1000
0000
,
0100
0101
0010
1000
,
0001
1000
0100
0010
,
0001
0100
0010
1000
,
0010
1000
0100
0001
,
1000
0010
1000
0100
,
0010
0000
0001
0000
0100
0000
0001
0001
,
0001
0001
0001
0000
1000
1000
1000
1000
,
0010
0010
0010
0000
0100
0000
0100
0000
,
0100
0001
0000
0010
0001
0000
0010
0001
,
0100
0000
1000
0100
0000
1100
0000
0100
,
0000
0001
0100
0000
0000
0000
0010
0000
,
0001
0000
0000
0010
0000
0000
0000
0000
,
0110
0000
0000
0000
0100
0000
0000
0001
,
0000
0010
0000
1010
0000
0000
0000
0000
,
0000
0101
0000
0000
0010
0000
1000
0010
,
0000
0100
0010
0100
0000
0001
0000
0100
,
0000
1000
0000
0010
0000
0000
1000
0010
,
0100
0010
0000
0001
0000
0010
0000
0010
,
0001
0001
0100
1000
,
0010
1000
0001
1000
,
0010
0000
1000
0000
0001
0000
1000
0001
,
1000
0000
0010
1000
0010
0000
0100
0000
,
0010
0100
0010
1000
,
0001
0010
0100
0010
,
0001
1000
0010
1000
,
0001
0001
0000
1000
1000
0000
0010
0000
,
1010
0000
0100
0100
0010
0000
0100
0000
,
0101
0010
0001
0011
,
0011
0000
0100
0000
1100
0000
0010
1000
,
0010
0000
0001
0000
1001
0000
0001
0001
,
0101
0000
0010
0010
1010
0000
0100
0100
,
0110
0000
0100
0100
0000
0101
0010
0000
,
0100
0010
0001
0010
,
0000
0010
1010
0000
0000
0000
0110
0000
,
0100
0001
0010
0100
,
0010
0001
0010
1000
,
0010
1010
0100
0010
,
0100
0010
0001
0011
,
0000
0100
0000
0000
0000
0001
0100
0000
,
0010
0100
0010
0110
,
0010
1000
0010
1000
,
0010
1000
0000
1000
0010
0000
0100
0000
,
0110
0000
0100
0000
0001
0000
0010
0001
,
0000
0010
0001
0010
,
0000
0011
0000
0000
0000
0001
0000
0100
,
0000
1000
0010
1000
,
0000
0010
0000
0000
0000
1010
0000
0100
,
0000
0010
0000
0001
0000
0000
0010
0000
,
0001
0000
0010
0000
1000
0000
0010
1000
,
0010
0000
0100
0001
0010
0000
0001
0000
,
0010
0011
0100
0110
,
0010
1000
0010
0000
0100
0000
0101
0000
,
0010
0011
0001
0101
,
0010
1000
0010
1000
,
1010
0100
0010
0110
,
0010
0000
1000
0000
0010
0000
1000
0010
,
1000
0010
1000
0010
1000
0001
1000
0001
,
1000
0001
0100
0001
0100
0001
0100
0001
,
0010
0001
0010
0001
0010
0010
0100
1000
,
0010
0001
0100
0001
0000
0101
0000
0000
,
0010
0110
0010
1010
,
0100
0000
0000
0110
0001
0000
0100
0001
,
0001
0000
0010
0001
0000
0010
0000
1000
,
0000
1010
0000
0200
0000
0000
0310
0000
,
0110
0001
0101
1010
,
0101
0010
0010
0100
,
0110
1001
0100
0101
,
1010
0000
1010
0010
0100
0000
0101
0000
,
0010
0100
0101
0010
,
0001
0010
0000
1000
0000
0010
0000
0100
,
0000
0010
0110
0101
,
0010
0000
1000
0000
0100
0001
0100
0000
,
0010
1000
0010
1000
,
1010
0100
0110
0010
,
1000
0000
1000
0000
0001
0001
0000
0100
,
1000
0010
0001
0100
1000
0010
0000
0000
;

//---------------dance-single - ----------------
#NOTES:
     dance-single:
     :
     Challenge:
     8:
     0.507,0.604,0.093,0.012,0.000,856.000,23.000,3.000,0.000,0.000:
0000
0000
0000
0000
,
0000
0000
0000
0000
,
0000
0000
0000
1001
,
0010
0000
1000
0010
0000
0000
0100
0100
,
0000
0010
0000
0001
0000
0010
0000
1000
,
0000
0010
0000
0100
0000
0100
0000
0100
,
0000
0001
0000
0010
0000
1000
0010
0000
,
0100
0010
0010
0010
,
0010
0001
0000
0001
0000
0100
1000
0000
,
1000
0000
0010
0000
1000
0000
1000
1000
,
0001
0001
0001
0100
0010
1000
0010
0000
,
1000
0000
0001
0000
0100
0000
0001
0010
,
0000
0010
0000
0001
0100
1000
0010
0000
,
1000
0000
0010
1000
0000
0010
0100
0000
,
0010
0001
0000
0000
0010
0000
0100
0000
,
1000
0000
0010
0000
1000
0010
1000
0010
,
0000
0100
0000
0010
0001
0010
0001
0000
,
0010
0000
0001
0010
0001
0100
1000
0010
,
0001
0010
1000
0010
,
1000
0000
0010
0000
0100
0110
0000
0000
,
0010
1000
0001
1001
,
0010
0000
1000
0000
0010
1010
0000
0100
,
0010
0000
0010
0000
0001
0010
0000
0010
,
0000
1000
0010
1000
,
0001
0100
0000
1000
0010
1000
0000
1000
,
0010
0100
0000
0010
0001
0010
0000
0001
,
0100
1000
0010
0001
0100
1000
0010
0000
,
0001
0100
0000
0001
0000
0100
0100
0001
,
0000
0010
0001
0010
0000
0001
0010
0100
,
1000
0010
1000
0000
0010
1000
0010
1000
,
0010
0100
0000
0000
0000
0000
0010
0000
,
0001
0000
0010
0000
0001
0010
0001
0010
,
0000
1000
0000
1000
0010
1000
0010
0100
,
0010
0100
0001
0100
1000
0010
0001
0100
,
1000
0010
0000
1000
,
0000
1010
0000
0000
0000
0000
0100
0000
,
0000
0101
0000
0000
0000
0000
0010
0000
,
0000
1010
0000
0000
0000
0100
0000
0000
,
0000
0000
0100
0010
,
0000
1010
0000
0000
0000
0100
0000
0000
,
0000
0101
0000
0000
0000
0010
0000
0000
,
0001
0000
0010
0000
0001
0000
0010
1000
,
0000
1000
1000
0000
0000
0000
0001
0000
,
0100
0010
0000
0001
0000
0001
0100
1000
,
0010
0001
0000
0100
1000
0000
1000
0010
,
1000
0010
0000
1000
0000
1000
0010
1000
,
0010
0100
0000
0010
0001
0000
0010
0000
,
0001
0010
0000
0001
0000
0001
0100
1000
,
0010
0001
0000
0100
0000
0001
0100
1000
,
0010
0001
0000
0010
0100
0010
0100
0010
,
0001
0010
0000
1000
0010
0000
1000
0000
,
0010
0000
1000
0001
,
1000
0010
1000
0010
,
0100
0010
0001
0010
,
1000
0010
1000
0001
,
0001
1000
0010
1000
,
0010
0000
0100
0000
0010
0000
0001
0100
,
1000
0010
0010
1000
0010
1000
0010
0100
,
0010
0100
0001
0100
0001
0100
0001
0010
,
0001
0010
1000
0010
1000
0010
1000
0010
,
0100
0010
0100
0100
0000
0110
0000
0000
,
0100
0001
0100
0000
0010
0000
1000
1000
,
0010
0010
0100
0000
0001
0000
0100
0000
,
0010
1000
0010
1000
,
1000
0010
0000
0100
0000
0001
0100
0000
,
0010
0100
0000
0000
0010
0000
0100
0000
,
0100
0100
0000
0010
0000
0010
0010
0000
,
0001
0000
0010
0000
1000
0000
1000
0010
,
1000
0001
0000
0100
1000
0010
0001
0000
,
0010
0000
0001
0000
0010
0000
0001
0010
,
0000
0100
0000
0001
0000
0000
0100
0000
,
1000
0010
1000
1000
,
1000
0010
0000
0100
0000
0000
0010
0000
,
0100
0000
0010
0000
0100
0000
0001
0100
,
0000
0010
0000
0000
1000
0000
0010
1000
,
0010
1000
0001
1000
0001
1000
0001
1000
,
0001
0100
0010
0100
,
0000
0110
0000
0000
0000
0000
0100
0000
,
0000
0101
0000
0000
0000
0000
0010
0000
,
0000
1010
0000
0000
0000
0100
0000
0000
,
0000
0000
0000
0000
0000
0010
0000
0000
,
0000
0011
0000
0000
0000
0100
0000
0000
,
0000
0101
0000
0000
0000
0010
0000
0000
,
1000
0000
0010
0000
1000
0001
0000
0100
,
0000
0100
0001
0000
0000
0000
1000
0001
,
0000
1000
0000
0001
0000
0101
0000
1000
,
0010
1000
0000
0010
1000
0000
0010
0000
,
1000
0010
0000
1000
0000
0001
0100
0000
,
1000
0010
1000
0000
0010
0000
0001
0100
,
0000
0010
0000
0001
0000
0010
0001
0010
,
0100
1000
0000
0010
0000
1000
1000
1010
,
0000
0100
0000
0100
0100
0010
0001
0010
,
0001
0100
0000
0010
0001
0000
0010
0000
,
0001
0010
0000
0001
0000
0100
0100
0001
,
0100
1000
0000
0010
1000
0000
1000
0010
,
1000
0010
0000
1000
0010
0000
1000
0010
,
1000
0010
0000
1000
0010
0000
1000
0000
,
0010
0100
0000
0010
0001
0000
0100
1000
,
0010
0001
0000
0100
0000
0010
0001
0010
,
0100
0010
0000
0001
0000
0001
0000
1000
,
0100
1000
0000
0010
1000
0000
0010
0000
,
0002
0000
1003
0010
,
1000
0010
0100
0001
,
0100
1000
0010
0001
,
0010
0001
0000
0000
0010
0000
0001
0000
,
0010
0100
0010
1000
,
0001
0000
0010
0000
1000
0000
0001
1000
,
0001
0001
1000
0100
0100
0010
0100
1000
,
0010
1000
0010
1000
0010
1000
0010
0100
,
0001
0100
0001
0010
0001
0100
1000
0010
,
0001
0110
0010
0010
0000
0011
0000
0000
,
0000
0100
0000
0000
0101
0000
0000
0010
,
0000
1000
0000
0010
0000
0000
0000
0000
,
1000
0000
0000
1001
0000
0000
0100
0000
,
0000
0010
0001
0000
0000
0000
0000
0010
,
0000
0000
0000
0000
0001
0000
0000
0010
,
0000
1000
0000
0010
0000
1000
0010
1000
,
0100
1000
0000
0010
0000
1000
0010
0001
,
0100
1000
0000
0010
0000
0000
0002
0000
,
1000
0000
0010
0000
0100
0000
1000
0003
,
0010
1000
0100
0001
,
0100
0000
1000
0000
0010
0000
0001
0100
,
1000
0010
0001
0100
1000
0010
1000
0000
,
0010
1000
0010
1000
,
1000
0000
1000
0010
1000
0001
0100
0000
,
1000
0010
0001
0100
,
0010
0000
0001
0100
1000
0000
2000
0000
,
0010
0100
0001
0010
,
0100
0000
0010
0000
0001
0000
0010
3000
,
0001
0000
0010
0000
0001
0000
0001
0100
,
1000
0010
0001
0100
1000
0000
1000
0010
,
1000
0000
0100
0001
0100
0000
0001
0010
,
0001
0000
0100
0001
0100
0000
0000
0001
,
0100
1000
0010
1000
0010
1000
0000
0010
,
0010
1000
0010
0000
0000
0000
0100
0000
,
0001
0100
0000
0001
0000
0001
0100
1000
,
0010
0001
0000
0100
1000
0000
0010
1000
,
0010
1000
0000
0010
0000
1000
0010
0001
,
0100
1000
0000
0010
1000
0000
0010
0000
,
0100
0010
0000
0001
0000
0001
0100
1000
,
0010
0001
0000
0100
0000
0001
0100
1000
,
0010
1000
0000
0010
1000
0010
1000
0010
,
0100
0010
0000
0001
0100
0000
0010
0000
,
0010
0001
0000
0010
0000
0001
0100
1000
,
0010
0001
0000
0100
0010
0000
0100
0000
,
0101
1000
0000
0010
0000
1000
0010
1000
,
0010
1000
0000
1000
0100
0000
0001
0100
,
1000
0010
0000
0001
0000
1000
0010
1000
,
0010
1000
0000
0000
0100
0000
0001
0100
,
0001
0100
0000
0010
0001
0010
0001
0100
,
1000
0010
0000
0000
0100
0010
0001
0000
,
0010
0001
0010
0100
,
0010
1000
0010
0100
,
0001
0010
1000
0010
,
1000
0100
0010
0001
,
0010
0100
0000
0000
0010
0000
0001
0000
,
1000
0000
0010
0000
0001
0000
1000
0010
,
0000
1000
0001
1000
0001
1000
0010
1000
,
0010
0100
0010
0001
0010
0000
0001
0010
,
0001
0010
0100
0010
0001
0100
1000
0000
,
0010
0001
0010
1000
0000
0010
0000
0000
,
1000
1010
0100
0100
,
0001
0100
0000
0010
0000
0001
0100
0000
,
0010
0000
1000
0000
0010
0000
1000
0010
,
0000
1000
0010
0000
1000
0000
0001
0000
,
0100
0010
0001
0100
,
0001
0100
0000
0010
0000
0100
1000
0000
,
0010
0000
1000
0010
0000
1000
0010
1000
,
0001
0100
1000
0010
0001
0100
1000
0000
,
0010
0010
0001
0010
,
0100
0010
0000
0001
0000
0010
1000
0000
,
0010
0001
0100
0010
,
1000
0010
0000
0100
0000
0010
0001
0000
,
0010
0100
0001
0010
,
1000
0100
0000
0010
0000
1000
0001
0000
,
0100
0000
1000
0100
0001
0100
1000
1000
,
0001
0100
1000
0010
0001
0010
0100
0000
;

//---------------dance-single - ----------------
#NOTES:
     dance-single:
     :
     Easy:
     4:
     0.326,0.355,0.076,0.028,0.000,541.000,19.000,7.000,0.000,0.000:
0000
0000
0000
0000
,
0000
0000
0000
0000
,
0000
0000
0000
0010
,
0100
0010
1000
0001
,
1000
0010
1000
0010
,
0100
0001
0010
1000
,
0010
1000
0100
0001
,
0010
0001
0010
1000
,
0010
1000
0010
0100
,
0001
0000
0010
0000
1000
0002
0000
0000
,
0000
0000
0003
1000
,
0010
1000
0010
0100
,
0010
0001
0000
0010
,
0001
0010
0100
0001
,
1000
0010
0000
0010
,
0001
0010
1000
0100
,
0010
0001
0010
1000
,
0010
1000
0010
0100
,
0010
0001
0010
0011
,
0000
0000
0000
0000
0000
0101
0000
0000
,
0000
0000
0000
1010
,
0000
0000
0000
0000
0000
0110
0000
0000
,
0000
0000
0000
0000
0000
0001
0000
0000
,
0010
0100
0010
0100
,
0001
0010
1000
0010
,
1000
0010
0100
0002
,
0000
0000
0003
1000
,
0010
1000
0010
0100
,
0010
0001
0010
0100
,
0010
0001
0010
1000
,
0010
1000
0010
0100
,
0010
0100
0010
0001
,
1000
0001
1000
0010
,
1000
0100
0010
0010
,
0001
0010
1000
0010
,
0000
0110
0000
0000
0000
0000
1000
0000
,
0000
1001
0000
0000
0000
0000
0010
0000
,
0000
1010
0000
0000
0000
0100
0000
0000
,
0000
0000
0000
0000
0000
0010
0000
0000
,
0011
0000
0000
0000
0000
0100
0000
0000
,
0000
0101
0000
0000
0000
0010
0000
0000
,
1000
0010
1000
0010
,
0000
0000
0000
0100
,
0010
0001
0010
1000
,
0010
1000
0010
0100
,
0010
0001
0010
0100
,
0010
0001
0000
0001
,
1000
0010
1000
0010
,
0100
0010
0001
0010
,
0100
0010
0001
0010
,
0100
0001
1000
0000
,
0001
0000
0000
0000
,
0000
0000
0000
1000
,
0000
0000
0000
0000
,
0000
0000
0000
0010
,
0000
0000
0000
0000
,
0000
0000
0000
0100
,
0100
0100
0010
0010
,
1000
1000
0010
0010
,
0100
0100
0010
0001
,
0010
0000
1000
0000
1000
0010
0000
0000
,
0100
0010
0010
0010
,
0010
0001
0010
0001
,
0010
0001
0010
0010
,
0100
0001
1000
1000
,
0010
1000
0010
0100
,
0010
0001
0010
1000
,
0010
0100
0001
2000
,
0000
0000
3000
0010
,
0100
0010
0001
0010
,
1000
0010
0100
0010
,
0001
0010
0100
0010
,
0001
0000
0000
0010
,
0001
1000
0010
0100
,
0010
1000
0000
0100
,
0010
0000
0100
0000
0010
0000
0000
0001
,
0010
0000
0000
1000
0010
0000
0100
0000
,
0000
0101
0000
0000
0000
0000
0010
0000
,
0000
1010
0000
0000
0000
0000
0100
0000
,
0000
0110
0000
0000
0000
0101
0000
0000
,
0000
0000
0000
0010
,
0000
1010
0000
0000
0000
0000
0110
0000
,
0000
0100
0000
0000
0000
0000
0010
0000
,
0001
0010
0100
0000
,
0000
0000
0000
0010
,
0001
1000
0010
0100
,
0010
0001
0010
1000
,
0010
1000
0010
0100
,
0010
0001
0010
0001
,
0100
0001
0100
1000
,
0010
1000
0010
0100
,
0010
0100
0010
0001
,
0010
1000
0000
0000
,
0010
0001
0010
0100
,
0010
0001
0010
0100
,
0010
0001
0010
1000
,
0010
1000
0010
0100
,
0010
0010
0100
0010
,
0001
0010
0001
0010
,
0001
0100
1000
0010
,
1000
0010
0100
0010
,
0000
0000
0000
0000
,
0000
0000
0000
0001
,
0000
0000
0000
0000
,
0000
0000
0000
1000
,
0000
0000
0000
0000
,
0000
0000
0000
0010
,
0100
0010
0001
0010
,
1000
0010
0100
0010
,
0100
0010
0001
1000
,
0010
0000
0100
0000
0000
0110
0000
0000
,
0000
0001
0000
0000
0000
0000
0000
0000
,
0000
0000
0000
0000
,
0000
1000
0000
0000
0000
0000
0000
0000
,
0000
0000
0000
0000
,
0000
0010
0000
0000
0000
0000
0000
0000
,
0000
0000
0000
0200
,
0000
0000
0000
0300
0000
0000
0020
0000
,
0000
0000
0000
0030
0000
0000
0100
0000
,
0010
0100
0010
0001
,
0010
0001
0010
1000
,
0010
1000
0010
1000
,
0100
1000
0001
1000
,
0001
0100
0010
0001
,
0010
1000
0001
0010
,
1000
0100
0010
0001
,
0010
1000
0001
0010
,
1000
0100
0001
0010
,
1000
0100
0001
0010
,
0100
0100
0001
0010
,
1000
0010
1000
0010
,
0000
0010
0000
0010
,
0000
0001
0000
0010
,
1000
0010
0100
0010
,
0001
0000
0000
0001
,
0010
0100
0010
1000
,
0010
0100
0010
1000
,
0010
0100
0010
0001
,
0010
0000
0000
0010
,
0001
0010
1000
0010
,
1000
0010
0100
0010
,
0001
0100
0010
0001
,
0010
0001
0010
1000
,
0010
1000
0010
0100
,
0010
0001
0100
1000
,
0010
1000
0100
1000
,
0100
0001
0100
0001
,
0010
0001
0010
0100
,
0010
0010
0001
0010
,
1000
0010
0100
0010
,
0001
0100
1000
0010
,
0000
0000
0001
0000
,
1000
0000
0001
0000
,
1000
0000
0010
0000
,
0100
0000
0010
0000
,
0001
0000
1000
0000
,
0010
0000
1000
0100
,
0001
0010
1000
0010
,
1000
0010
0100
0010
,
0001
0010
0001
0100
,
0001
0000
1000
0000
0000
1100
0000
0000
,
0100
0001
0010
0001
,
0010
0001
0010
0100
,
0010
0001
0010
0100
,
1000
0020
0130
0010
,
1000
0010
1000
0100
,
0010
0001
0010
1000
,
0010
0100
0010
1000
,
0100
0001
0010
0011
,
0001
0100
1000
0010
,
1000
0010
0100
0010
,
0001
0100
1000
0010
,
1000
0010
0001
0010
,
0011
0001
0100
1000
,
0010
1000
0010
1000
,
0100
0001
0200
0000
,
0000
0000
0301
0000
;

//---------------dance-single - ----------------
#NOTES:
     dance-single:
     :
     Medium:
     6:
     0.434,0.497,0.257,0.000,0.000,692.000,64.000,0.000,0.000,0.000:
0000
0000
0000
0000
,
0000
0000
0000
0000
,
0000
0000
0000
1000
,
0010
0100
0010
0001
,
0010
0001
0010
0000
1000
0000
0010
0000
,
0100
0100
0010
1000
,
1000
0100
0010
0001
,
0000
0100
0010
0001
,
1000
0010
0010
0100
,
0010
1000
0010
1000
,
0010
1000
0010
0100
,
0110
0100
0001
0010
,
0001
0010
1000
0010
,
1000
0010
0100
0010
,
0001
0010
1000
1010
,
0100
0010
0100
0010
,
0001
0010
0001
0101
,
0010
1000
0010
0100
,
0010
1000
0010
1010
,
0100
0010
0100
0000
,
0010
0001
0010
0011
,
0010
1000
0010
0100
,
0100
0010
0100
0010
,
0100
0001
0100
1000
,
1000
0010
0100
0010
,
0100
0000
0010
0000
0001
0000
0010
0001
,
0010
1000
0010
1000
0010
0100
0010
0000
,
0001
0010
1000
0010
,
1000
0010
0100
0010
,
0001
0100
0010
0001
,
0010
1000
0010
1000
,
0010
1000
0001
1000
,
0010
0000
1000
0000
0010
0000
0100
0001
,
0100
0000
1000
0000
0010
0000
1000
0010
,
1000
0010
0100
0010
,
0000
0110
0000
0000
0000
0100
0000
0000
,
0000
0101
0000
0000
0000
0010
0000
0000
,
1010
0000
1010
0000
,
0000
0000
0000
0000
0000
0100
0000
0000
,
0101
0000
0000
0000
0000
0010
0000
0000
,
1000
0000
0000
0100
,
0010
0000
0001
0000
0100
0000
1000
0010
,
0000
1000
1010
0000
0000
0000
0100
0000
,
0010
0001
0010
0001
,
0010
1000
0010
1000
,
0010
0100
0010
0001
,
0010
0100
0010
0001
,
0010
1000
1000
0010
,
1000
0010
0100
0010
,
1000
0010
0100
0001
,
0010
0001
0010
1010
,
0100
0010
1000
0010
,
0100
0010
0001
0011
,
0100
1000
0010
1000
,
0010
0100
0010
1010
,
0100
0001
0100
0010
,
0001
0010
0001
0101
,
0001
0010
1000
0010
,
1000
0010
0100
0010
,
0100
0010
1010
0101
,
0010
0100
0000
0000
0000
1010
0000
0000
,
0100
0001
0010
0001
,
0010
1000
0010
1000
,
0010
0100
0010
0001
,
0010
0100
0010
0001
,
0010
0100
0010
0001
,
0010
0100
0010
0001
,
0010
1000
0010
1000
,
0010
0000
1000
0100
0001
0100
1000
0000
,
0010
0100
0010
0001
,
0010
0100
0010
0001
,
0010
1000
0010
1000
,
0010
0100
0010
1000
,
0010
0100
0010
0001
,
0100
0000
0010
0000
0001
0000
0010
0001
,
0010
0000
1000
0000
0010
0000
1000
0010
,
0100
0010
0001
0000
,
0000
0011
0000
0000
0000
0000
0100
0000
,
0000
0101
0000
0000
0000
0000
0010
0000
,
0000
1010
0000
0000
0000
0110
0000
0000
,
0000
0000
0100
0010
,
0000
0011
0000
0000
0000
0000
0100
0000
,
0000
0101
0000
0000
0000
0010
0000
1000
,
0000
0010
0000
0100
0000
0010
0000
1000
,
0000
0010
0110
0000
0000
0000
0010
0000
,
1000
0010
0100
0010
,
0001
0010
0001
0010
,
0001
0010
0100
1000
,
0010
0100
0010
0001
,
0010
0001
0010
0100
,
0010
1000
0100
0001
,
0100
0000
1000
0000
0010
0000
1000
0010
,
0100
0000
0010
0001
0010
0000
0100
0000
,
1000
0010
0100
0010
,
1000
0100
0010
0001
,
0010
0100
0100
0010
,
1000
0010
0100
0010
,
0001
0010
1000
0010
,
0010
1000
0010
0000
,
1010
0100
0010
1000
,
0010
0100
0010
0010
,
0001
0010
0001
0010
,
1000
0010
1000
0001
,
0100
0010
0001
0010
,
1000
0010
0100
0110
,
1000
0100
0001
0010
,
0001
0010
0001
0011
,
0100
0101
0010
0110
,
1000
1010
0100
0010
,
0010
0011
0100
0101
,
0011
0000
0100
0000
0000
0110
0000
0000
,
0000
1000
0000
0000
0001
0000
0000
1000
,
0000
0010
0000
0100
0000
0000
0000
0000
,
0000
0010
0000
0000
0001
0000
0000
0010
,
0000
1000
0000
0010
0000
0000
0000
0000
,
0000
0100
0000
0000
0010
0000
0000
0001
,
0000
1000
0010
0000
0000
0000
1000
0000
,
0000
1010
0000
0000
0000
0000
0100
0000
,
0010
0100
0000
0000
0000
0000
0010
0000
,
0001
0010
1000
0010
,
1000
0100
0010
0001
,
0010
1000
0010
0100
,
0010
1000
0010
0110
,
1000
0010
0100
0010
,
0001
0010
0001
0010
,
1000
0010
1000
0010
,
1000
0010
0100
0010
,
0001
0010
1000
0010
,
0100
0010
0001
0010
,
0100
0010
0001
1000
,
0001
0000
1000
0001
1000
0000
0010
1000
,
0010
0000
0100
0010
0100
0000
0010
0001
,
0010
0000
0001
0100
0001
0000
1000
0000
,
0010
0000
1000
0000
0010
1010
0000
0100
,
0000
0100
0010
0000
0000
0000
0100
0000
,
0001
0010
0001
0010
,
1000
0010
1000
1010
,
0100
0000
0010
0000
0001
0000
0010
0001
,
0010
1000
0010
1000
,
1010
0100
0110
1000
,
0010
0100
0010
0001
,
0010
1000
0010
1010
,
0100
0010
0000
0100
0001
0000
0010
0000
,
0001
0010
0000
0000
1000
0000
0010
0000
,
1000
0010
0100
0010
,
0101
0010
1000
1010
,
0100
0010
1000
0010
,
0001
0010
1000
0010
,
0010
0001
0010
0011
,
0001
0000
0100
0000
0010
0000
1000
0010
,
1000
0000
0100
0010
0100
0000
0010
0000
,
0001
0010
1000
0010
,
0100
0010
0100
0010
,
0100
0010
0100
0001
,
0100
0001
1000
0100
,
1000
0001
1000
0010
,
0100
0000
0010
0000
0001
0000
0001
0100
,
1000
0010
0000
0000
1000
0100
0001
0100
,
1000
0010
0001
0000
0100
0000
0001
0000
,
0001
0100
0000
1000
0010
0000
0100
0001
,
0100
1000
0010
0001
0000
0100
0000
0001
,
0100
0010
1010
0100
,
0110
1000
1010
0010
,
0011
0001
0101
0010
,
0011
0000
0100
0000
0001
0100
0010
0000
,
1000
0010
0100
0010
,
1000
0010
0000
0100
0000
0010
0000
1010
,
0000
0100
0000
0110
0000
0001
0100
0000
,
1000
0011
0000
0100
1000
0010
0001
0000
,
0100
1100
0010
0001
,
0101
0010
0001
0011
,
0100
0110
1000
1010
,
0100
0001
0101
0010
,
0011
0100
0101
0010
,
1010
0100
0010
0110
,
1000
0000
1000
0010
0000
0001
1000
0100
,
0010
0000
0001
0100
1000
0010
0000
0000
;
