#TITLE:We Gotz Game;
#SUBTITLE:;
#ARTIST:Interrupt Vector VS DJ PLAGUE;
#TITLETRANSLIT:;
#SUBTITLETRANSLIT:;
#ARTISTTRANSLIT:;
#CREDIT:;
#BANNER:we gotz bn.png;
#BACKGROUND:we gotz bg.png;
#LYRICSPATH:;
#CDTITLE:;
#MUSIC:song.ogg;
#OFFSET:0.029;
#SAMPLESTART:29.953;
#SAMPLELENGTH:12.000;
#SELECTABLE:YES;
#DISPLAYBPM:244.000;
#BPMS:0.000=244.100,528.000=122.050,560.000=999999.000,564.000=244.100,581.750=244.100;
#STOPS:;
#BGCHANGES:;
// cache tags:
#FIRSTBEAT:32.000;
#LASTBEAT:581.750;
#SONGFILENAME:Songs/Speedcore Rejects/We Gotz Game - [Tyler]/We Gotz Game.sm;
#HASMUSIC:1;
#HASBANNER:1;
#MUSICLENGTH:152.021;
// end cache tags

//---------------dance-single - T. Moore----------------
#NOTES:
     dance-single:
     T. Moore:
     Challenge:
     13:
     0.898,1.000,0.559,0.434,0.658,721.000,85.000,66.000,116.000,0.000:
0000
0000
0000
0000
,
0000
0000
0000
0000
,
0000
0000
0000
0000
,
0000
0000
0000
0000
,
0000
0000
0000
0000
,
0000
0000
0000
0000
,
0000
0000
0000
0000
,
0000
0000
0000
0000
,
1002
0000
0000
0000
,
0203
0000
0000
0000
,
0320
0000
0000
0000
,
2030
0000
0000
0000
,
3002
0000
0000
0000
,
0023
0000
0230
0000
,
2300
0000
0000
0000
,
3002
0000
0000
0000
0000
0000
0000
0000
0000
0000
0000
0000
0000
0000
0000
0000
0000
0000
0000
0000
0000
0000
0000
0000
0000
0000
0000
0000
0000
0000
0000
0003
,
0201
0000
0000
0000
,
0320
0000
0000
0000
0000
0000
0000
0000
0000
0000
0000
0000
0000
0000
0000
0000
0000
0000
0000
0000
0000
0000
0000
0000
0000
0000
0000
0000
0000
0000
0000
0030
,
2010
0000
0000
0000
,
3200
0000
0000
0000
0000
0000
0000
0000
0000
0000
0000
0000
0000
0000
0000
0000
0000
0000
0000
0000
0000
0000
0000
0000
0000
0000
0000
0000
0000
0000
0000
0300
,
0012
0000
0000
0000
,
0203
0000
0000
0000
0000
0000
0000
0000
0000
0000
0000
0000
0000
0000
0000
0000
0320
0000
0000
0000
0000
0000
0000
0000
0000
0000
0000
0000
0000
0000
0000
0030
,
2010
0000
0000
0000
,
3200
0000
0000
0000
0000
0000
0000
0000
0000
0000
0000
0000
0000
0000
0000
0000
0000
0000
0000
0000
0000
0000
0000
0000
0000
0000
0000
0000
0000
0000
0000
0300
,
0012
0000
0000
0000
,
2003
0000
0000
0000
0000
0000
0000
0000
0000
0000
0000
0000
0000
0000
0000
3000
,
1020
0000
0000
0000
0000
0000
0000
0000
0000
0000
0000
0000
0000
0000
0000
0030
,
0102
0000
0000
0000
0000
0000
0000
0000
0000
0000
0000
0000
0000
0000
0000
0003
,
2002
0000
0000
0000
,
0000
0000
0000
0000
,
3003
0000
0000
0000
,
0000
0000
00M0
00M0
00M0
0000
0000
0000
,
1000
0100
0010
0001
,
1000
0010
0100
0001
,
1000
0100
1000
0100
0010
0000
0000
0000
0001
0000
0000
0000
1000
0000
0000
0000
,
0010
0000
0000
0000
0000
0000
0000
0000
0100
0000
0000
0000
0000
0100
0000
0000
0001
0000
0000
0000
0000
0001
0000
0000
1000
0000
0000
0000
0000
0000
0000
0000
,
0100
0010
0001
1000
,
0010
0100
0001
1000
,
0100
0010
0100
0010
0001
0000
0000
0000
1000
0000
0000
0000
0010
0000
0000
0000
,
0100
0000
0000
0000
0000
0000
0000
0000
0001
0000
0000
0000
0000
0001
0000
0000
1000
0000
0000
0000
0000
1000
0000
0000
0100
0000
0000
0000
0000
0000
0000
0000
,
0010
0001
1000
0010
,
0100
0001
1000
0100
,
0010
0001
0010
0001
1000
0000
0000
0000
0010
0000
0000
0000
0100
0000
0000
0000
,
0001
0000
0000
0000
0000
0000
0000
0000
1000
0000
0000
0000
0000
1000
0000
0000
0100
0000
0000
0000
0000
0100
0000
0000
0010
0000
0000
0000
0000
0000
0000
0000
,
0001
1000
0001
1000
0010
0000
0000
0000
0100
0000
0000
0000
0001
0000
0000
0000
,
1000
0100
1000
0100
0010
0000
0000
0000
0001
0000
0000
0000
1000
0000
0000
0000
,
0010
0100
0010
0100
0001
0000
0000
0000
1000
0000
0000
0000
0100
0000
0000
0000
,
0010
0001
0010
0001
1000
0000
0000
0000
0010
0000
0100
0001
0100
0000
0001
0000
,
1000
0001
0100
0010
1000
0001
0010
0100
,
1000
0010
0101
0001
,
1000
0000
0001
1000
0100
0000
0010
0000
0001
0000
0000
0000
1000
0000
0001
0000
,
0100
0000
0010
0000
1010
0000
1000
0001
,
0010
0001
0010
0100
1000
0000
0000
0000
1001
0000
0000
0000
0001
0000
0100
0000
,
0010
0000
0000
0000
0000
0000
0000
0000
1000
0000
0000
0000
0000
1000
0000
0000
0100
0000
0000
0000
0000
0100
0000
0000
1000
0000
0000
0000
0000
0000
0000
0000
,
0001
0001
0001
0001
,
0100
0000
0100
0000
0010
1000
0010
1000
0001
0000
0000
0000
0010
0000
0000
0000
,
0110
0000
0100
0000
1000
0000
0100
1000
0001
0000
0000
0000
0100
0000
0000
0000
,
1010
0000
1000
0000
1001
0000
0001
0010
,
0100
1000
0100
0010
0001
0000
0000
0000
1001
0000
0000
0000
0001
0000
1000
0000
,
1010
0000
0000
0000
0000
0000
0000
0000
0010
0000
0000
0000
0000
0010
0000
0000
0100
0000
0000
0000
0000
0100
0000
0000
0001
0000
0000
0000
0000
0000
0000
0000
,
1001
1000
1100
0100
,
0011
0010
0100
1000
1001
0000
0001
0000
,
0100
0001
0100
0010
1000
0000
0000
0000
1001
0000
0000
0000
0001
0000
0000
0000
,
0011
0000
0000
0000
0000
0000
0000
0000
0010
0000
0000
0000
0000
0010
0000
0000
0100
0000
0000
0000
0000
0100
0000
0000
0010
0000
0000
0000
0000
0000
0000
0000
,
0022
0000
0000
0033
0022
0000
0000
0033
0022
0000
0000
0033
0022
0000
0000
0033
,
1100
1001
0101
0110
,
2000
3020
2030
3020
2030
0000
0000
3000
2000
0000
0000
3000
1002
0000
0000
0003
,
0011
0000
0000
0000
0000
0000
0000
0000
0100
0000
0000
0000
0000
0100
0000
0000
1000
0000
0000
0000
0000
1000
0000
0000
0100
0000
0000
0000
0000
0000
0000
0000
,
0022
0000
0000
0033
0022
0000
0000
0033
0022
0000
0000
0033
0022
0000
0000
0033
,
1100
1001
0101
1010
,
2000
3002
2003
3002
2003
0000
0000
3000
2000
0000
0000
3000
1200
0000
0000
0300
,
0011
0000
0000
0000
0000
0000
0000
0000
1000
0000
0000
0000
0000
1000
0000
0000
0001
0000
0000
0000
0000
0001
0000
0000
1000
0000
0000
0000
0000
0000
0000
0000
,
0020
0000
0000
0230
,
0340
4030
3040
0430
0304
4003
3004
0043
0430
4300
3400
0340
0034
4003
3004
0403
,
0320
0000
0000
0230
,
0340
4030
3040
0430
0304
4003
3004
0043
0430
4300
3400
0340
0034
4003
3004
0403
,
0320
0000
0000
0000
0000
0000
0000
0000
1000
0000
0000
0000
0000
0000
0000
0030
0020
0000
0000
0000
0000
0000
0000
0000
0230
0000
0000
0000
0000
0000
0000
0000
,
0340
4030
3040
0430
0304
4003
3004
0043
0430
4300
3400
0340
0034
4003
3004
0403
,
0320
0000
0000
0000
0000
0000
0000
0000
1000
0000
0000
0000
0000
0000
0000
0030
0020
0000
0000
0000
0000
0000
0000
0000
0230
0000
0000
0000
0000
0000
0000
0000
,
0340
4030
3040
0430
0304
4003
3004
0043
0430
4300
3400
0340
0034
4003
3004
0403
,
0310
0000
1000
0000
0100
M00M
0100
0000
0001
0000
0010
0000
0100
M00M
0100
0000
,
0010
0000
1000
0000
0100
M00M
0100
0000
0001
0000
0000
0000
0001
0000
0000
0000
,
1000
0000
0010
0000
0100
M00M
0100
0000
0010
0000
0001
0000
0100
M00M
0100
0000
,
1000
0000
0010
0000
0100
M00M
0100
0000
1000
0000
0000
0000
0001
0000
0000
0000
,
1001
1000
1010
0010
,
0110
0000
0100
0001
1001
0000
1000
0000
,
1100
0000
0100
0010
0011
0000
0001
1000
,
1010
0010
0100
0000
1001
0000
0001
0001
,
0010
0000
0001
0000
0100
M00M
0100
0000
1000
0000
0010
0000
0100
M00M
0100
0000
,
0010
0000
0001
0000
0100
M00M
0100
0000
1000
0000
0000
0000
0001
0000
0000
0000
,
1001
0000
1000
0000
0100
M00M
0100
0000
0001
0000
0010
0000
0100
M00M
0100
0000
,
0010
0000
1000
0000
0100
M00M
0100
0000
0000
0000
0000
0000
1000
0000
0000
0000
,
0001
0010
0100
1000
0001
0000
0100
0000
0110
0000
0000
0000
0010
0000
0000
0000
,
1010
0010
0100
0001
1001
0000
1000
0000
,
0001
0010
0001
0000
1000
0000
0001
0100
0001
0000
1000
0001
0010
0000
0100
1000
,
0001
0000
0010
0100
1000
0000
0001
1000
0001
0000
0000
0000
1000
0000
1000
0000
,
0010
0000
0000
0000
0000
0000
0100
0000
0000
0000
0000
0000
0001
0000
0000
0000
0000
0000
1000
0000
0000
0000
0000
0000
0100
0000
0000
0000
0000
0000
0010
0000
0000
0001
0000
0000
1000
0000
0000
0000
0000
0000
0001
0000
0100
0000
0001
0000
,
0100
0010
1000
0010
0100
0001
1000
0001
,
0010
0100
1000
0001
0100
0001
1000
0010
,
0110
0100
0101
0001
,
1100
0000
0000
1000
0000
0000
0001
0000
0000
0100
0000
0000
0010
0000
0000
0010
0000
0000
1000
0000
0000
0001
1000
0001
,
1000
0100
0010
0001
0100
0001
1000
0010
,
1000
0001
0010
0100
1000
0001
0100
0001
,
1001
1000
1100
0100
,
0011
0000
0000
0000
0000
0000
0001
0000
0000
0000
0000
0000
1000
0000
0000
0000
0000
0000
0001
0000
0000
0000
0000
0000
0010
0000
0000
0000
0000
0000
0100
0000
0000
1000
0000
0000
0001
0000
0000
0000
0000
0000
0100
0000
0001
0000
0100
0000
,
0001
1000
0001
0010
0100
1000
0001
1000
,
0010
0100
0010
1000
0100
1000
0001
0010
,
0100
1000
0100
1000
0001
0010
0001
0010
0100
1000
0100
1000
0001
0010
0001
0010
,
0100
0000
0000
1000
0000
0000
0001
0000
0000
1000
0000
0000
0010
0000
0000
0010
0000
0000
0100
0000
0000
0001
1000
0001
,
1000
0001
0010
0001
0100
0010
1000
0001
,
0010
0001
1000
1000
0010
0100
0001
1000
,
0200
0000
0000
0000
0310
0001
0010
0100
1000
0001
1000
0100
0010
0001
0010
0100
,
1000
0000
0000
0001
0000
0000
0100
0000
0000
0001
0000
0000
1000
0000
0000
1000
0000
0000
0010
0000
0000
0100
0001
0100
,
0001
0100
0010
1000
0001
1000
0010
0100
,
0004
0000
0000
0000
0000
0000
0000
0000
4003
3400
0340
0034
4003
3004
4003
3004
,
0403
0340
4030
3004
0403
0304
4003
3040
0430
0304
4003
3004
4003
3400
0340
0034
,
1003
0000
0000
0001
0000
0000
0100
0000
0000
0001
0000
0000
1000
0000
0000
1000
0000
0000
0100
0000
0000
0010
0001
0010
,
0001
1000
0100
0010
0001
1000
0001
0100
,
0010
1000
0001
0001
0010
0010
0100
1000
,
1001
0000
0001
0000
0101
0000
0100
0010
,
1000
0000
0000
0001
0000
0000
1000
0000
0000
0100
0000
0000
0010
0000
0000
0010
0000
0000
0001
0000
0000
1000
0001
1000
,
0001
0100
0010
1000
0100
1000
0001
1000
,
0010
0100
0001
0100
0010
0010
1000
0000
,
1001
0001
1001
1000
,
0010
0000
0000
0100
0000
0000
0001
0000
0000
0100
0000
0000
0010
0000
0000
0010
0000
0000
1000
0000
0000
0001
1000
0001
,
1000
0100
0010
0001
0100
0001
1000
0010
,
0100
0001
1000
1000
0100
0100
0010
0000
,
0011
0001
1001
1000
,
0010
0000
0000
1000
0000
0000
0001
0000
0000
0010
0000
0000
0100
0000
0000
0100
0000
0000
1000
0000
0000
0001
1000
0001
,
1000
0001
0100
0010
1000
0010
0100
0001
,
1000
0100
0010
0001
0100
0100
0010
1000
,
1001
0000
0001
0000
0010
0100
1000
0000
,
1001
0001
0100
0000
0000
1001
0100
0000
,
0011
0000
0001
0000
0000
0000
0000
0000
1000
0000
0001
1000
0001
0000
0000
0000
0000
0000
0000
0000
0000
0000
0001
0000
0010
0000
0001
0000
1000
0000
0000
0000
,
0101
0000
0010
0000
0000
1001
0010
0000
,
1100
0000
0100
0000
0000
0000
0000
0000
0010
0000
0001
0010
0001
0000
0000
0000
0000
0000
0000
0000
0000
0000
1000
0000
0010
0000
1000
0000
0001
0000
0000
0000
,
1001
0000
0100
0000
0000
0011
0100
0000
,
1100
0000
1000
0000
0000
0000
0000
0000
0001
0000
1000
0001
1000
0000
0000
0000
0000
0000
0000
0000
0000
0000
1000
0000
0010
0000
1000
0000
0001
0000
0000
0000
,
1100
0000
0010
0000
0000
1001
0010
0000
,
1100
0000
1000
0000
0000
0000
0000
0000
0001
0000
1000
0001
1000
0000
0000
0000
0000
0000
0000
0000
0000
0000
1000
0000
0100
0000
0010
0000
0001
0000
0000
0000
,
200M
0000
0000
0000
,
0M0M
00M0
0M0M
00M0
0M0M
00M0
0M0M
00M0
0M0M
00M0
0M0M
00M0
0M0M
00M0
0M0M
00M0
,
0M0M
00M0
0M0M
00M0
0M0M
00M0
3M0M
00M0
M000
0M00
M0M0
0M00
000M
0M00
M0M0
000M
,
0M00
M000
0M00
00M0
000M
0M00
00M0
0M00
000M
00M0
M00M
0M00
M000
0M00
000M
00M0
,
000M
0M00
M000
0M00
M000
00M0
000M
00M0
0M00
M000
0M00
00M0
000M
0M00
00M0
0M00
,
M000
0000
0M00
0000
00M0
0000
000M
M000
000M
0000
00M0
0000
0M00
0000
M000
0000
0000
0000
0000
0000
0000
0000
0000
0000
0000
0000
0000
0000
0000
0000
0000
0000
;
