#TITLE:Jambi;
#SUBTITLE:;
#ARTIST:Despina Vandi;
#TITLETRANSLIT:;
#SUBTITLETRANSLIT:;
#ARTISTTRANSLIT:;
#CREDIT:;
#BANNER:Jambi-BN.png;
#BACKGROUND:Jambi-BG.png;
#LYRICSPATH:;
#CDTITLE:Revolver.png;
#MUSIC:Jambi.ogg;
#OFFSET:-0.021;
#SAMPLESTART:90.330;
#SAMPLELENGTH:14.600;
#SELECTABLE:YES;
#DISPLAYBPM:132.000;
#BPMS:0.000=132.000,13.500=72.220,28.000=132.000,287.000=66.000;
#STOPS:;
#BGCHANGES:;
// cache tags:
#FIRSTBEAT:0.000;
#LASTBEAT:289.750;
#SONGFILENAME:Songs/SSSC Pack 2/Jambi - [Revolver]/Jambi.sm;
#HASMUSIC:1;
#HASBANNER:1;
#MUSICLENGTH:105.000;
// end cache tags

//---------------dance-single - D. D'Agostino----------------
#NOTES:
     dance-single:
     D. D'Agostino:
     Challenge:
     12:
     1.000,1.000,0.152,0.400,1.000,793.000,16.000,42.000,89.000,0.000:

1010
0000
0000
0000
0000
0000
0000
0000
0010
0000
0000
0000
0000
0100
0000
0000
0001
0000
0000
0000
0000
0000
0000
0000
0011
0000
0000
0000
0000
0000
0000
0000
0010
0000
0000
0000
0000
0100
0000
0000
0001
0000
0000
0000
0000
0000
0000
0000
0100
0000
0000
0000
0000
0000
0000
0000
1000
0000
0000
0000
0000
0010
0000
0000
,
1000
0000
0000
0000
0000
0000
0000
0000
0010
0000
0000
0000
0000
1000
0000
0000
0100
0000
0000
0000
0000
0000
0000
0000
0101
0000
0000
0000
0000
0000
0000
0000
0001
0000
0000
0000
0000
0100
0000
0000
1000
0000
0000
0000
0000
0000
0000
0000
0020
0000
0000
0000
0000
0000
0000
0000
0130
0000
0000
0000
0000
0001
0000
0000
,
0100
0000
0000
0000
0000
0000
0000
0000
0001
0000
0000
0000
0000
1000
0000
0000
0100
0000
0000
0000
0000
0000
0000
0000
0110
0000
0000
0000
0000
0000
0000
0000
0010
0000
0000
0000
0000
1000
0000
0000
0010
0000
0000
0000
0000
0000
0000
0000
0001
0000
0000
0000
0000
0000
0000
0000
0100
0000
0000
0000
0000
0001
0000
0000
,
0100
0000
0000
0000
0000
0000
0000
0000
0001
0000
0000
0000
0000
0010
0000
0000
0100
0000
0000
0000
0000
0000
0000
0000
1100
0000
0000
0000
0000
0000
0000
0000
000M
0000
0000
0000
0000
0000
0000
0000
00M0
0000
0000
0000
0000
0000
0000
0000
M000
0000
0000
0000
0000
0000
0000
0000
0M00
0000
0000
0000
0000
0000
0000
0000
,
00M0
000M
0M00
000M
M000
00M0
0M00
000M
,
00M0
0M00
000M
M000
00M0
M000
000M
0M00
,
000M
00M0
M000
0M00
000M
00M0
M000
000M
,
1000
0100
1000
0000
0001
0000
0100
0000
0010
0000
0000
0000
1000
0001
1000
0000
0010
0000
0100
0000
0001
0000
0010
0000
0100
1000
0100
0000
0010
0000
0001
0000
,
1000
0010
1000
0000
0001
0000
0010
0000
0100
0000
0000
0000
1000
0100
1000
0000
0010
0000
0100
0000
0001
0000
0000
0000
0001
0000
0000
0000
0000
0000
0000
0000
,
1000
0100
1000
0000
0010
0000
0100
0000
0001
0000
0000
0000
0010
0100
0010
0000
0001
0000
1000
0000
0100
0000
0010
0000
0001
1000
0001
0000
0100
0000
0001
0000
,
1000
0100
1000
0000
0001
0000
0010
0000
0100
0000
0000
0000
1000
0001
1000
0000
0010
0000
1000
0000
0100
0000
0000
0000
0100
0000
0000
0000
0000
0000
0010
0001
,
0010
0000
0001
1000
0001
0000
0100
0000
0010
0000
1000
0000
0001
0000
0010
0100
0010
0000
0001
0000
1000
0000
0010
0000
0100
0001
0100
0000
0010
0000
1000
0000
,
0001
0010
0001
0000
0100
0000
0010
0000
1000
0000
0000
0000
0001
0010
0001
0000
1000
0000
0010
0000
0100
0000
0000
0000
0100
0000
0000
0000
0000
0000
0010
1000
,
0010
0000
1000
0001
1000
0000
0010
0000
0100
0000
0001
0000
0010
0000
0100
1000
0100
0000
0010
0000
0001
0000
1000
0000
0010
0100
0010
0000
1000
0000
0001
0000
,
1000
0000
0100
0000
1000
0000
0000
0000
0010
0000
0000
0000
0100
0000
0000
0000
0001
0000
0000
0000
0000
0000
0000
0000
00M0
0000
0000
0000
M000
000M
00M0
0M00
M000
0000
0000
0000
0000
0000
0000
0000
0000
0000
0000
0000
0000
0000
0000
0000
0000
0000
0000
0000
0000
0000
0000
0000
0000
0000
0000
0000
0000
0000
0000
0000
,
1M00
0001
1000
0000
0010
0000
0100
0000
0001
0000
0000
0000
10M0
0100
1000
0000
0001
0000
0010
0000
0100
0000
1000
0000
0001
0100
0001
0000
1000
0000
0100
0000
,
10M0
0001
1000
0000
0010
0000
0100
0000
0001
0000
0000
0000
M010
0001
0010
0000
0100
0000
1000
0000
0010
0000
0000
0000
0010
0000
0000
0000
0000
0000
0000
0000
,
M100
0001
0100
0000
0010
0000
1000
0000
0100
0000
0000
0000
10M0
0001
1000
0000
0010
0000
0100
0000
0001
0000
1000
0000
0100
0010
0100
0000
1000
0000
0001
0000
,
1M00
0010
1000
0000
0001
0000
0100
0000
0010
0000
0000
0000
100M
0010
1000
0000
0001
0000
0010
0000
0100
0000
0000
0000
0100
0000
0000
0000
0000
0000
1000
0100
,
10M0
0000
0001
0010
0001
0000
1000
0000
0100
0000
0010
0000
0M01
0000
1000
0010
1000
0000
0001
0000
0100
0000
0010
0000
1000
0001
1000
0000
0100
0000
0010
0000
,
M001
0010
0001
0000
1000
0000
0001
0000
0100
0000
0000
0000
001M
1000
0010
0000
0100
0000
0001
0000
1000
0000
0000
0000
1000
0000
0000
0000
0000
0000
0100
1000
,
01M0
0000
1000
0001
1000
0000
0010
0000
0100
0000
0001
0000
10M0
0000
0100
1000
0100
0000
0010
0000
0001
0000
0010
0000
0100
1000
0100
0000
1000
0000
0001
0000
,
M100
0010
0100
0000
0010
0000
1000
0000
0001
0000
0000
0000
10M0
0100
1000
0000
0001
0000
0010
0000
0100
0000
0000
0000
1000
0000
0000
0000
0010
0000
0000
0000
,
0110
0000
0000
0000
0000
0000
0000
0000
0100
0000
0000
0000
0000
0001
0000
0000
0010
0000
0000
0000
0000
0000
0000
0000
0110
0000
0000
0000
0000
0000
0000
0000
0100
0000
0000
0000
0000
0001
0000
0000
0100
0000
0000
0000
1000
0000
0000
0000
0001
0000
0000
0000
0000
0000
0000
0000
0100
0000
0000
0000
0000
0010
0000
0000
,
0100
0000
0000
0000
0000
0000
0000
0000
0010
0000
0000
0000
0000
0001
0000
0000
0010
0000
0000
0000
0000
0000
0000
0000
0110
0000
0000
0000
0000
0000
0000
0000
0100
0000
0000
0000
0000
0001
0000
0000
1000
0000
0000
0000
0000
0000
0000
0000
0200
0000
0000
0000
0000
0000
0000
0000
0310
0000
0000
0000
0000
0001
0000
0000
,
0010
0000
0000
0000
0000
0000
0000
0000
0001
0000
0000
0000
0000
0100
0000
0000
1000
0000
0000
0000
0000
0000
0000
0000
1100
0000
0000
0000
0000
0000
0000
0000
0100
0000
0000
0000
0000
0001
0000
0000
0010
0000
0000
0000
0100
0000
0000
0000
1000
0000
0000
0000
0000
0000
0000
0000
0001
0000
0000
0000
0000
1000
0000
0000
,
0010
0000
0000
0000
0000
0000
0000
0000
1000
0000
0000
0000
0000
0100
0000
0000
0010
0000
0000
0000
0000
0000
0000
0000
1010
0000
0000
0000
0000
0000
0000
0000
1000
0000
0000
0000
0000
0010
0000
0000
0001
0000
0000
0000
0000
0000
0000
0000
2000
0000
0000
0000
0000
0000
0000
0000
3010
0000
0000
0000
0000
0100
0000
0000
,
0010
0000
0000
0000
0000
0000
0000
0000
0100
0000
0000
0000
0000
0010
0000
0000
0001
0000
0000
0000
0000
0000
0000
0000
0011
0000
0000
0000
0000
0000
0000
0000
0010
0000
0000
0000
0000
0100
0000
0000
0001
0000
0000
0000
0010
0000
0000
0000
0100
0000
0000
0000
0000
0000
0000
0000
1000
0000
0000
0000
0000
0010
0000
0000
,
1000
0000
0000
0000
0000
0000
0000
0000
0010
0000
0000
0000
0000
0001
0000
0000
0010
0000
0000
0000
0000
0000
0000
0000
1010
0000
0000
0000
0000
0000
0000
0000
1000
0000
0000
0000
0000
0100
0000
0000
0010
0000
0000
0000
0000
0000
0000
0000
2000
0000
0000
0000
0000
0000
0000
0000
3010
0000
0000
0000
0000
0001
0000
0000
,
0100
0000
0000
0000
0000
0000
0000
0000
0001
0000
0000
0000
0000
0100
0000
0000
0010
0000
0000
0000
0000
0000
0000
0000
0011
0000
0000
0000
0000
0000
0000
0000
0001
0000
0000
0000
0000
0010
0000
0000
0100
0000
0000
0000
0001
0000
0000
0000
1000
0000
0000
0000
0000
0000
0000
0000
0100
0000
0000
0000
0000
0010
0000
0000
,
0100
0000
0000
0000
0000
0000
0000
0000
0010
0000
0000
0000
0000
0001
0000
0000
1000
0000
0000
0000
0000
0000
0000
0000
1010
0000
0000
0000
0000
0000
0000
0000
0010
0000
0000
0000
0000
1000
0000
0000
0100
0000
0000
0000
0000
0100
0000
0000
0010
0000
0000
0000
0000
0010
0000
0000
0001
0000
0000
0000
0000
0001
0000
0000
,
1000
0001
0100
1000
0200
0000
0310
0000
,
00M0
0010
1000
0001
0020
0000
1030
0000
,
M000
1000
0010
0001
0200
0000
0310
0002
,
0000
0013
1000
0100
0020
0000
0031
0000
,
000M
0000
0000
0001
0100
0001
0100
0000
0000
0010
0000
0000
2000
0000
0000
0000
0000
0000
3001
0000
0000
0000
0000
0000
,
000M
0001
0010
0100
0002
0000
0103
0000
,
0M00
0100
1000
0001
0200
0000
1300
0200
,
0000
0310
1000
0001
0010
0100
1000
0000
,
M000
1000
0010
0001
0020
0000
0130
0000
,
0M00
0100
0001
0010
2000
0000
3010
0000
,
00M0
0010
0001
0100
0020
0000
0031
0020
,
0000
0130
1000
0100
0002
0000
1003
0000
,
M000
0000
0000
1000
0000
0000
0100
0000
0000
0001
0000
0000
0200
0000
0000
0000
0000
0000
0000
0000
1300
0000
0000
0000
,
M000
0000
0000
1000
0000
0000
0010
0000
0000
0001
0000
0000
0020
0000
0000
0000
0000
0000
0000
0000
0130
0000
0000
0000
,
0M00
0100
0001
0010
2000
0000
3010
0002
,
0000
0103
1000
0100
0002
0000
0000
0023
,
0000
0000
0000
0000
0000
0000
0000
0000
0130
1000
0001
1000
0100
1000
0001
1000
,
0M10
1000
0010
0000
0100
0000
0001
0000
1000
0000
0000
0000
0M01
0010
0001
0000
1000
0000
0100
0000
0010
0000
0001
0000
0100
0001
0100
0000
0001
0000
1000
0000
,
001M
0100
0010
0000
1000
0000
0001
0000
0010
0000
0000
0000
010M
1000
0100
0000
0010
0000
0001
0000
1000
0000
0000
0000
1000
0000
0000
0000
0000
0000
0000
0000
,
001M
1000
0010
0000
0100
0000
0001
0000
1000
0000
0000
0000
0M01
0010
0001
0000
1000
0000
0100
0000
0010
0000
0001
0000
1000
0010
1000
0000
0001
0000
0100
0000
,
001M
1000
0010
0000
0100
0000
0001
0000
1000
0000
0000
0000
01M0
1000
0100
0000
0010
0000
0001
0000
0100
0000
0000
0000
0100
0000
0000
0000
0000
0000
0001
0100
,
00M1
0000
1000
0001
1000
0000
0100
0000
1000
0000
0010
0000
M100
0000
0001
1000
0001
0000
0010
0000
0100
0000
0010
0000
0001
1000
0001
0000
0100
0000
0001
0000
,
1M00
0010
1000
0000
0001
0000
0010
0000
0100
0000
0000
0000
M010
0001
0010
0000
0100
0000
1000
0000
0001
0000
0000
0000
0001
0000
0000
0000
0000
0000
1000
0010
,
1M00
0000
0001
0100
0001
0000
0100
0000
0010
0000
1000
0000
010M
0000
0010
0001
0010
0000
0100
0000
1000
0000
0001
0000
0100
0010
0100
0000
0001
0000
1000
0000
,
01M0
0000
0000
0000
0000
0000
1000
0000
0100
0010
0001
0010
0100
0010
0001
0010
,
0100
0000
0000
0000
0000
0000
2000
0000
0000
0000
0000
0000
0000
0000
0000
3010
0000
0000
0000
0000
0100
0000
0000
0000
0000
0000
0000
0002
0000
0000
0000
0000
0000
0000
0000
0000
0000
0000
0000
1003
0000
0000
0000
0000
0000
0000
0000
0000
,
0000
0000
0000
0020
0000
0000
0000
0000
0000
0130
0000
0001
0000
2000
0000
0000
0000
0000
3100
0000
0000
0000
0000
0000
,
0000
0000
0000
0020
0000
0000
0000
0000
0000
0031
0000
1000
0000
0020
0000
0000
0000
0000
0230
0000
0000
0000
0000
0000
,
0301
1000
0002
0000
0000
0000
0000
0000
0000
0000
0000
0000
1003
0000
0100
0000
0010
0000
0002
0000
0000
0000
0000
0000
0003
0000
0000
0000
0000
0000
0000
0000
,
0000
0000
0000
0000
0000
0000
2000
0000
0000
0000
0000
0000
0000
0000
0000
3010
0000
0000
0000
0000
0100
0000
0000
0000
0001
0000
0000
0000
2000
0000
0000
0000
0000
0000
0000
0000
0000
0000
0000
0000
0000
0000
3100
0000
0000
0000
0000
0000
,
0000
0000
0000
0000
0000
0000
0000
0000
0020
0000
0000
0000
0000
0000
0000
0000
0000
0000
0000
0000
0000
0000
0130
0000
0000
0000
0000
1000
0000
0000
0000
0000
0002
0000
0000
0000
0000
0000
0000
0000
0000
0000
0000
0000
0000
0000
0000
0000
0103
0000
0000
0000
0000
0000
0000
0000
0000
0000
0000
0000
0000
0000
0000
0000
,
0000
0000
0000
0000
0000
0000
0000
0000
0000
0000
0000
0000
0000
0000
0000
0000
0000
0000
0000
0000
0000
0000
0000
0000
0020
0000
0000
0000
0000
0000
0000
0000
0000
0000
0000
0000
0000
0000
0000
0000
0000
0000
0000
0000
0000
0000
0000
0000
0000
0000
0000
0000
0000
0000
0000
0000
1030
0000
0000
0000
0000
0000
0000
0000
0000
0000
0000
0000
0000
0000
0000
0000
0002
0000
0000
0000
0000
0000
0000
0000
0000
0000
0000
0000
0000
0000
0000
0000
0000
0000
0000
0000
0000
0000
0000
0000
0000
0000
0000
0000
0000
0000
0000
0000
0000
0000
0000
0000
0003
0000
0000
0000
0000
0000
0020
0000
0000
0000
0000
0000
0000
0000
0000
0000
0000
0000
0000
0000
0000
0000
0000
0000
0000
0000
0000
0000
0000
0000
0000
0000
0000
0000
0000
0000
0000
0000
0000
0000
0000
0000
0000
0000
0000
0000
0000
0000
0230
0000
0000
0000
0000
0000
0000
0000
0000
0000
0000
0000
0000
0000
0000
0000
0000
0000
0000
0000
0000
0000
0000
0000
0000
0000
0000
0000
0000
0000
0000
0000
0000
0000
0000
0000
,
0000
0000
0000
2300
0000
0000
0000
0000
0000
0000
0000
0000
3000
0000
0000
0000
,
0001
0100
0001
0000
1000
0000
0010
0000
0100
0000
0001
0000
1000
0100
1000
0000
0001
0000
0010
0000
0100
0000
1000
0000
0001
0100
0001
0000
1000
0000
0001
0000
,
0010
0001
0010
0000
0100
0000
1000
0000
0100
0000
0010
0000
0001
1000
0001
0000
0100
0000
0010
0000
1000
0000
0001
0000
0100
0001
0100
0000
0010
0000
1000
0000
,
0001
0100
0001
0000
0010
0000
0100
0000
1000
0000
0001
0000
0100
0010
0100
0000
0001
0000
1000
0000
0010
0000
1000
0000
0100
1000
0100
0000
0010
0000
0001
0000
,
0100
0001
0100
0000
0010
0000
1000
0000
0001
0000
0100
0000
0001
1000
0001
0000
0010
0000
0100
0000
1000
0000
0001
0000
1001
0000
0000
0000
0000
0000
0000
0000
,
1000
0010
1000
0000
0001
0000
0100
0000
0001
0000
0010
0000
0100
0010
0100
0000
1000
0000
0100
0000
0010
0000
0001
0000
1000
0001
1000
0000
0010
0000
1000
0000
,
0001
0100
0001
0000
1000
0000
0010
0000
1000
0000
0001
0000
0010
0001
0010
0000
0001
0000
1000
0000
0100
0000
0010
0000
0100
1000
0100
0000
1000
0000
0001
0000
,
0100
0001
0100
0000
0010
0000
0100
0000
0001
0000
1000
0000
0001
0010
0001
0000
1000
0000
0100
0000
0010
0000
0001
0000
1000
0100
1000
0000
0001
0000
0100
0000
,
0010
1000
0010
0000
0100
0000
0001
0000
1000
0000
0001
0000
0010
0001
0010
0000
0100
0000
1000
0000
0001
0000
0100
0000
0101
0000
0000
0000
0000
0000
0000
0000
,
0000
0000
0000
0000
0000
0000
0000
0000
0000
00M0
0M00
000M
M000
0M00
00M0
M000
000M
00M0
M000
0M00
000M
00M0
0000
0000
0000
0000
0000
0000
0000
0000
0000
0000
0000
0000
0000
0000
0000
0000
0000
0000
0000
0000
0000
0000
0000
0000
0000
0000
;
