#TITLE:Illusion World;
#SUBTITLE:(Bahamut's Stage);
#ARTIST:植松伸夫;
#TITLETRANSLIT:;
#SUBTITLETRANSLIT:;
#ARTISTTRANSLIT:Nobuo Uematsu;
#CREDIT:;
#BANNER:Illusion World (Bahamut's Stage).png;
#BACKGROUND:Illusion World (Bahamut's Stage)-bg.png;
#LYRICSPATH:;
#CDTITLE:Dj DMA Original Simfile.png;
#MUSIC:Illusion World (Bahamut's Stage).mp3;
#OFFSET:0.060;
#SAMPLESTART:47.253;
#SAMPLELENGTH:12.000;
#SELECTABLE:YES;
#BPMS:0.000=320.049;
#STOPS:;
#BGCHANGES:;
// cache tags:
#FIRSTBEAT:1.000;
#LASTBEAT:726.000;
#SONGFILENAME:Songs/toune 2/Illusion World (Bahamut's Stage)/Illusion World (Bahamut's Stage).sm;
#HASMUSIC:1;
#HASBANNER:1;
#MUSICLENGTH:133.062;
// end cache tags

//---------------dance-single - ----------------
#NOTES:
     dance-single:
     :
     Challenge:
     10:
     0.819,1.000,0.421,0.023,0.000,704.000,56.000,3.000,0.000,0.000:
0000
0000
1000
0100
0010
1000
0100
0010
,
1000
0010
1000
0010
0100
1000
0001
0100
,
1000
0001
0100
0001
0100
0001
0100
0001
,
0010
0100
0010
0100
1000
0010
1000
0010
,
1000
0001
1000
0001
1000
0001
0010
1000
,
0001
1000
0001
0100
0001
0100
0001
0100
,
0001
0100
1000
0010
1000
0010
1000
0010
,
1000
0010
0100
0010
0001
0100
0010
0100
,
0010
0010
0100
1000
0010
1000
0010
1000
,
0010
1000
0010
1000
0100
1000
0100
1000
,
0010
0100
0001
0100
0001
0100
0001
0010
,
0100
1000
0001
0010
0100
0010
0001
0100
,
1000
0000
0010
1000
0100
0000
0001
1000
,
0001
0000
1000
0001
1000
0000
0100
1000
,
0010
0000
0100
1000
0010
0000
1000
0010
,
0100
0000
0100
0010
0001
0000
1000
0100
,
0002
0000
0000
0000
,
0000
0003
1000
0100
0010
0001
0100
1000
,
0100
0100
0001
1000
,
0010
1000
0010
1000
,
0010
0100
0010
0001
,
1000
0000
0000
0000
,
0000
1000
0100
0001
,
0100
1000
0100
0010
,
1000
0010
0100
0010
,
0001
0000
0000
0000
,
0000
0001
0100
1000
,
0100
0100
0001
0100
,
1000
0100
1000
0010
,
0100
0000
0000
0000
,
0000
0001
0100
1000
,
0100
0001
0100
1000
,
0100
0010
0010
0100
,
0000
0000
0000
0000
,
0000
0011
0000
0000
,
1100
0000
0100
1000
,
0100
0101
0000
1100
,
0000
1010
0000
0101
,
0000
0100
0001
1000
,
0001
0000
1000
0010
,
0000
1000
0010
1000
,
0010
0000
0100
0010
,
0000
0011
0000
0000
,
0101
0000
0001
0100
,
1000
1010
0000
0101
,
0000
0110
0000
0101
,
0000
0001
0000
0000
,
0100
0000
0001
0100
,
1000
0100
0000
0000
,
0010
0000
0000
0000
,
0000
0000
0001
1000
0010
0100
1000
0100
,
0010
0001
0010
0100
0010
0001
1000
0100
,
1000
0100
0010
0001
0010
0100
1000
0010
,
0001
1000
0100
0010
0001
1000
0100
0010
,
0010
0001
1000
0100
0010
0100
1000
0010
,
0100
0001
0010
0100
1000
0100
1000
0100
,
0010
0001
0010
0001
0010
0100
1000
0100
,
0001
0010
0100
0100
1000
0010
0100
1000
,
0100
1000
0100
1000
0001
0100
0001
0100
,
1000
0010
0100
0010
0001
0010
1000
0100
,
1000
0100
0010
0001
0010
0100
1000
0010
,
1000
0100
1000
0010
0001
0010
0100
1000
,
0010
0000
1000
0010
0100
0000
0100
1000
,
0001
0000
0100
0001
1000
0000
0100
1000
,
0001
0000
0100
1000
0010
0000
0001
1000
,
0100
0000
0010
0100
1000
0000
0001
0001
,
0100
0100
0010
1000
,
0010
1000
0001
0100
,
0100
1000
0001
0100
,
1000
0000
0000
0000
,
0000
0100
0001
0100
,
1000
0100
0001
0100
,
1000
0010
1000
0010
,
0100
0000
0000
0000
,
0000
0001
0100
0010
,
0001
0100
1000
0010
,
0001
0100
1000
0100
,
0001
0000
0000
0000
,
0000
0100
1000
0010
,
1000
0010
0010
0100
,
0001
0100
1000
0100
,
0001
0000
0000
0000
,
0000
0011
0000
0000
,
0101
0000
0001
0100
,
1000
0101
0000
1100
,
0000
0110
0000
0101
,
0000
1100
0000
1000
,
0100
0010
0001
0100
,
0000
1010
0000
0000
,
0110
0000
0000
0000
,
0000
1100
0000
0000
,
0101
0000
0001
0100
,
1000
1100
0000
0101
,
0000
0110
0000
1010
,
0000
0101
0000
0000
,
0101
0000
0100
1000
,
0010
1100
0000
0000
,
0101
0000
0000
0100
,
0000
0010
0000
0001
,
0000
0100
0000
1000
,
0000
0010
0000
1000
,
0000
1000
0010
0000
,
0100
0000
0001
0000
,
0100
0000
1000
0000
,
0100
0010
0001
0100
,
1000
0010
0100
0001
,
0010
0100
0000
0000
,
2002
0000
0000
0000
,
0000
0000
0000
0000
,
0000
0000
0000
3003
,
0000
0010
0001
0100
,
0100
1000
0100
0001
,
0100
1000
0010
1000
,
0010
0000
0000
0000
,
0000
0100
0001
0100
,
1000
0100
0001
0100
,
1000
0010
1000
0010
,
1000
0000
0000
0000
,
0000
0001
0100
0100
,
1000
0100
0001
0100
,
0001
0010
0001
0010
,
0100
0000
0000
0000
,
0000
0010
1000
1000
,
0010
1000
0100
0001
,
0100
1000
0100
0100
,
0010
0000
0000
0000
,
0000
0101
0000
0000
,
1010
0000
0001
0100
,
1000
1100
0000
0101
,
0000
0110
0000
1001
,
0000
0011
0000
0001
,
0100
0000
1000
0010
,
0000
1010
0000
0000
,
0110
0000
0000
0000
,
0000
0101
0000
0000
,
0010
0000
1000
0001
,
0100
1100
0000
0101
,
0000
0110
0000
1001
,
0000
0011
0000
0000
,
0101
0000
0100
1000
,
0010
0101
0000
0000
,
1001
0000
0000
0001
,
0100
0000
1000
0010
0001
0100
0010
1000
,
0100
0010
1000
0100
0010
0001
0010
1000
,
0100
0001
0010
1000
0100
0010
1000
0100
,
0010
1000
0100
0001
0001
0010
0100
0100
,
1000
1000
0100
0010
0001
0010
0100
0010
,
0010
0001
0100
0010
1000
1000
0100
0100
,
0010
0100
0010
0001
1000
0100
0010
0100
,
0001
1000
0010
1000
0010
0100
0001
0010
,
0001
0100
0100
0010
0100
1000
0001
0100
,
1000
0001
1000
0001
1000
0001
0010
1000
,
0010
1000
0100
0010
1000
0010
0100
0001
,
0010
0100
0010
0100
0001
0010
0100
1000
,
0001
0010
0100
1000
1000
0000
1000
0001
,
1000
0000
0100
0001
1000
0000
0100
0010
,
1000
0000
1000
0100
1000
0000
0010
1000
,
0100
0000
0100
0010
0100
0000
0010
0001
,
0100
1000
0100
0010
0100
0000
1000
0000
,
0010
1000
0001
0100
,
1000
0010
1000
0010
,
0100
0000
0000
0000
,
0000
0100
0010
0001
,
0100
1000
0100
0001
,
0100
1000
0010
1000
,
0010
0000
0000
0000
,
0000
0001
0100
0010
,
1000
0010
1000
0010
,
0100
0001
0100
1000
,
0010
0000
0000
0000
,
0000
0100
0010
0001
,
0100
1000
0010
1000
,
0010
0100
0001
0010
,
0001
0000
0000
0000
,
0000
0101
0000
0000
,
1010
0000
0100
0010
,
1000
0110
0000
0101
,
0000
1010
0000
0101
,
0000
1000
0000
1000
,
0010
0000
0100
0010
,
0000
0100
0000
0001
,
0100
0000
1000
0000
;

//---------------dance-single - ----------------
#NOTES:
     dance-single:
     :
     Hard:
     8:
     0.563,0.682,0.556,0.346,0.000,404.000,74.000,46.000,0.000,0.000:
0000
0002
0000
0000
,
0000
0203
0000
0000
,
0000
2300
0000
0000
,
0000
3020
0000
0000
,
0000
0230
0000
0000
,
0000
0302
0000
0000
,
0000
2003
0000
0000
,
0000
3020
0000
0000
,
0000
0230
0000
0000
,
0000
0302
0000
0000
,
0000
2003
0000
0000
,
0000
3002
0000
0000
,
0000
0023
0000
0230
,
0000
0020
0300
0032
,
0000
2000
0003
3002
,
0000
2003
0000
3200
,
0000
0000
0000
0000
,
0000
0300
0001
0100
1000
0100
1000
1000
,
0010
0010
0100
0100
,
1000
0001
0001
1000
,
0001
0001
0001
0001
,
1010
0000
0000
0000
,
0000
0010
1000
0001
,
0001
0100
0001
1000
,
1000
0010
1000
0010
,
1010
0000
0000
0000
,
0000
0010
0100
0100
,
0100
0010
1000
0010
,
0010
0010
0010
0010
,
1010
0000
0000
0000
,
0000
1000
0010
1000
,
0001
1000
1000
0010
,
0001
0001
1000
1000
,
0011
0000
0000
0000
,
0000
0101
0000
0000
,
0101
0000
1000
1000
,
0010
0110
0000
1010
,
0000
0101
0000
1100
,
0000
0001
1000
0001
,
1000
0000
0010
0100
,
0000
1000
1000
0100
,
0100
0000
1000
0100
,
0000
1001
0000
0000
,
0011
0000
0100
1000
,
0010
0011
0000
0011
,
0000
0110
0000
0101
,
0000
0001
0000
0000
,
0001
0000
0010
0001
,
1000
0100
0000
0000
,
0010
0000
0000
0000
,
0000
0200
0000
0000
,
0000
0302
0000
0000
,
0000
2003
0000
0000
,
0000
3020
0000
0000
,
0000
0230
0000
0000
,
0000
0302
0000
0000
,
0000
2003
0000
0000
,
0000
3020
0000
0000
,
0000
0230
0000
0000
,
0000
0302
0000
0000
,
0000
2003
0000
0000
,
0000
3020
0000
0000
,
0030
1000
0000
0100
,
0000
1000
0000
1000
,
0000
0010
0000
0001
,
0000
0001
0000
0100
,
0100
0101
1000
0100
,
1000
1000
1000
1000
,
1000
0001
0100
0100
,
1100
0000
0000
0000
,
0000
0001
1000
1000
,
1000
0100
0001
0100
,
0001
0010
0100
0010
,
0110
0000
0000
0000
,
0000
0001
1000
0100
,
0100
1000
1000
0001
,
0001
0010
0001
0100
,
0110
0000
0000
0000
,
0000
0010
0010
0001
,
0010
1000
1000
0100
,
0100
0100
0001
0001
,
1010
0000
0000
0000
,
0000
0101
0000
0000
,
1010
0000
0001
0010
,
0100
0101
0000
1100
,
0000
0110
0000
0011
,
0000
1010
0000
0100
,
0001
0100
0100
0010
,
0000
0011
0000
0000
,
0110
0000
0000
0000
,
0000
1100
0000
0000
,
0011
0000
0100
1000
,
0010
0011
0000
1100
,
0000
0110
0000
0110
,
0000
0101
0000
0000
,
1001
0000
0100
0010
,
0001
0101
0000
0000
,
1100
0000
0000
0100
,
0000
0100
0000
1000
,
0000
0010
0000
0100
,
0000
0001
0000
0001
,
0000
0001
0100
0000
,
1000
0000
0001
0000
,
0100
0000
0010
0000
,
0001
0010
0001
0100
,
0100
0100
0001
0010
,
0010
1000
0000
0000
,
0202
0000
0000
0000
,
0000
0000
0000
0000
,
0000
0000
0000
0303
,
0000
1000
0100
0001
,
0100
0001
0001
1000
,
0010
0010
1000
0001
,
1001
0000
0000
0000
,
0000
0001
0010
0010
,
0100
0001
1000
1000
,
0010
0010
0010
0100
,
0110
0000
0000
0000
,
0000
0010
1000
1000
,
1000
0010
0100
0010
,
0100
0100
0001
1000
,
1100
0000
0000
0000
,
0000
1000
0001
1000
,
0010
0100
0001
0001
,
0100
0001
0010
1000
,
0101
0000
0000
0000
,
0000
1100
0000
0000
,
1001
0000
0010
0100
,
0010
1010
0000
1100
,
0000
0101
0000
0101
,
0000
1001
0000
0001
,
0010
0000
0010
0001
,
0000
1100
0000
0000
,
1100
0000
0000
0000
,
0000
1010
0000
0000
,
0001
0000
0100
0010
,
0001
1010
0000
1010
,
0000
1001
0000
1100
,
0000
1100
0000
0000
,
1100
0000
0100
0001
,
0010
0101
0000
0000
,
1100
0000
0000
0000
,
0200
0000
0000
0000
,
0000
0302
0000
0000
,
0000
2003
0000
0000
,
0000
3002
0000
0000
,
0000
0203
0000
0000
,
0000
0320
0000
0000
,
0000
2030
0000
0000
,
0000
3002
0000
0000
,
0000
0203
0000
0000
,
0000
2300
0000
0000
,
0000
3020
0000
0000
,
0000
2030
0000
0000
,
0000
3001
0000
0010
,
0000
0001
0000
1000
,
0000
0010
0000
1000
,
0000
0010
0000
0100
,
0000
0110
0001
0010
,
1000
0001
0001
0100
,
0001
0010
0010
0010
,
1010
0000
0000
0000
,
0000
0001
0001
1000
,
0010
0001
0100
0100
,
1000
1000
1000
0100
,
0011
0000
0000
0000
,
0000
0001
1000
0010
,
0010
0010
0001
0001
,
0001
0100
1000
0001
,
1001
0000
0000
0000
,
0000
0100
0010
1000
,
0001
1000
0010
0010
,
0001
0001
0001
0100
,
1010
0000
0000
0000
,
0000
1010
0000
0000
,
1100
0000
1000
1000
,
0010
0101
0000
1001
,
0000
0101
0000
0011
,
0000
0100
0000
1000
,
0100
0000
0010
0001
,
0000
0001
0000
1000
,
0010
0000
0100
0000
;

//---------------dance-single - ----------------
#NOTES:
     dance-single:
     :
     Medium:
     6:
     0.443,0.614,0.556,0.248,0.000,306.000,74.000,33.000,0.000,0.000:
0000
0000
0000
0000
,
0000
0000
0000
0000
,
0000
0000
0000
0000
,
0000
0000
0000
0000
,
0000
0000
0000
0000
,
0000
0000
0000
0000
,
0000
0000
0000
0000
,
0000
0000
0000
0000
,
0000
0000
0000
0000
,
0000
0000
0000
0000
,
0000
0000
0000
0000
,
0000
0000
0000
0000
,
0000
0000
0000
0000
,
0000
0000
0000
0000
,
0000
0000
0000
0000
,
0000
0000
0000
0000
,
0000
0000
0000
0000
,
0000
0002
0000
0000
,
0013
0000
0100
0000
,
1000
0000
0001
0000
,
0001
0000
0001
0000
,
1010
0000
0000
0000
,
0000
0010
0000
0001
,
0000
0100
0000
1000
,
0000
0010
0000
0010
,
1010
0000
0000
0000
,
0000
0010
0100
0100
,
0100
0010
1000
0010
,
0010
0010
0010
0010
,
1010
0000
0000
0000
,
0000
1000
0000
1000
,
0000
1000
0000
0010
,
0000
0001
0000
1010
,
0000
0000
0000
0000
,
0000
0101
0000
0000
,
0101
0000
1000
1000
,
0010
0110
0000
1010
,
0000
0101
0000
1100
,
0000
0002
0000
0000
,
0003
0000
0010
0100
,
0000
2000
0000
0000
,
3000
0000
1000
0100
,
0000
1001
0000
0000
,
0011
0000
0100
1000
,
0010
0011
0000
0011
,
0000
0110
0000
0101
,
0000
0001
0000
0000
,
0001
0000
0010
0001
,
1000
0100
0000
0000
,
0010
0000
0000
0000
,
0000
0200
0000
0000
,
0000
0302
0000
0000
,
0000
2003
0000
0000
,
0000
3020
0000
0000
,
0000
0230
0000
0000
,
0000
0302
0000
0000
,
0000
2003
0000
0000
,
0000
3020
0000
0000
,
0000
0230
0000
0000
,
0000
0302
0000
0000
,
0000
2003
0000
0000
,
0000
3020
0000
0000
,
0030
1000
0000
0100
,
0000
1000
0000
1000
,
0000
0010
0000
0001
,
0000
0001
0000
0100
,
0100
0101
1000
0000
,
1000
0000
1000
0000
,
1000
0000
0100
0000
,
1100
0000
0000
0000
,
0000
0001
0000
1000
,
0000
0100
0000
0100
,
0000
0010
0000
0010
,
0110
0000
0000
0000
,
0000
0001
0000
0100
,
0000
1000
0000
0001
,
0000
0010
0000
0100
,
0110
0000
0000
0000
,
0000
0010
0000
0001
,
0000
1000
0000
0100
,
0000
0100
0000
0001
,
1010
0000
0000
0000
,
0000
0101
0000
0000
,
1010
0000
0001
0010
,
0100
0101
0000
1100
,
0000
0110
0000
0011
,
0000
1010
0000
0100
,
0001
0100
0100
0010
,
0000
0011
0000
0000
,
0110
0000
0000
0000
,
0000
1100
0000
0000
,
0011
0000
0100
1000
,
0010
0011
0000
1100
,
0000
0110
0000
0110
,
0000
0101
0000
0000
,
1001
0000
0100
0010
,
0001
0101
0000
0000
,
1100
0000
0000
0100
,
0000
0100
0000
1000
,
0000
0010
0000
0100
,
0000
0001
0000
0001
,
0000
0001
0100
0000
,
1000
0000
0001
0000
,
0100
0000
0010
0000
,
0002
0000
0003
0200
,
0000
0300
0002
0000
,
0000
0003
0000
0000
,
0202
0000
0000
0000
,
0000
0000
0000
0000
,
0000
0000
0000
0303
,
0000
1000
0100
0001
,
0100
0001
0001
1000
,
0010
0010
1000
0001
,
1001
0000
0000
0000
,
0000
0001
0000
0010
,
0000
0001
0000
1000
,
0000
0010
0000
0100
,
0110
0000
0000
0000
,
0000
0010
1000
1000
,
1000
0010
0100
0010
,
0100
0100
0001
1000
,
1100
0000
0000
0000
,
0000
1000
0000
1000
,
0000
0100
0000
0001
,
0000
0001
0000
1000
,
0101
0000
0000
0000
,
0000
1100
0000
0000
,
1001
0000
0010
0100
,
0010
1010
0000
1100
,
0000
0101
0000
0101
,
0000
1001
0000
0001
,
0010
0000
0010
0001
,
0000
1100
0000
0000
,
1100
0000
0000
0000
,
0000
1010
0000
0000
,
0001
0000
0100
0010
,
0001
1010
0000
1010
,
0000
1001
0000
1100
,
0000
1100
0000
0000
,
1100
0000
0100
0001
,
0010
0101
0000
0000
,
1100
0000
0000
0000
,
0200
0000
0000
0000
,
0000
0302
0000
0000
,
0000
2003
0000
0000
,
0000
3002
0000
0000
,
0000
0203
0000
0000
,
0000
0320
0000
0000
,
0000
2030
0000
0000
,
0000
3002
0000
0000
,
0000
0203
0000
0000
,
0000
2300
0000
0000
,
0000
3020
0000
0000
,
0000
2030
0000
0000
,
0000
3001
0000
0010
,
0000
0001
0000
1000
,
0000
0010
0000
1000
,
0000
0010
0000
0100
,
0000
0110
0001
0010
,
1000
0001
0001
0100
,
0001
0010
0010
0010
,
1010
0000
0000
0000
,
0000
0001
0000
1000
,
0000
0001
0000
0100
,
0000
1000
0000
0100
,
0011
0000
0000
0000
,
0000
0001
1000
0010
,
0010
0010
0001
0001
,
0001
0100
1000
0001
,
1001
0000
0000
0000
,
0000
0100
0000
1000
,
0000
1000
0000
0010
,
0000
0001
0000
0100
,
1010
0000
0000
0000
,
0000
1010
0000
0000
,
1100
0000
1000
1000
,
0010
0101
0000
1001
,
0000
0101
0000
0011
,
0000
0100
0000
1000
,
0100
0000
0010
0001
,
0000
0002
0000
0000
,
0000
0000
0003
0000
;

//---------------dance-single - ----------------
#NOTES:
     dance-single:
     :
     Easy:
     3:
     0.170,0.269,0.030,0.210,0.000,126.000,4.000,28.000,0.000,0.000:
0000
0000
0000
0000
,
0000
0000
0000
0000
,
0000
0000
0000
0000
,
0000
0000
0000
0000
,
0000
0000
0000
0000
,
0000
0000
0000
0000
,
0000
0000
0000
0000
,
0000
0000
0000
0000
,
0000
0000
0000
0000
,
0000
0000
0000
0000
,
0000
0000
0000
0000
,
0000
0000
0000
0000
,
0000
0000
0000
0000
,
0000
0000
0000
0000
,
0000
0000
0000
0000
,
0000
0000
0000
0000
,
0000
0000
0000
0000
,
0000
0000
0000
0000
,
0000
0020
0000
0000
,
0000
0000
0000
0000
,
0000
0000
0000
0000
,
0030
0000
0000
0000
,
0000
0200
0000
0000
,
0000
0000
0000
0000
,
0000
0000
0000
0000
,
0300
0000
0000
0000
,
0000
0002
0000
0000
,
0000
0000
0000
0000
,
0000
0000
0000
0000
,
0003
0000
0000
0000
,
0000
2000
0000
0000
,
0000
0000
0000
0000
,
0000
0000
0000
0000
,
3000
0000
0000
0000
,
0000
0010
0000
0000
,
0010
0001
0000
0000
,
0000
0000
0100
0000
,
0001
0000
0100
0000
,
1000
0000
0010
0000
,
0000
0100
0000
0000
,
0000
0010
0000
0000
,
0001
0000
0000
0000
,
0000
0100
0000
0000
,
0001
0000
0000
0000
,
0000
1000
0000
0000
,
0010
0000
0100
0000
,
0010
0000
1000
0000
,
0000
0010
0000
0000
,
0000
0100
0000
0000
,
0000
0001
0000
0000
,
0000
0020
0000
0000
,
0000
0000
0000
0000
,
0030
0000
0002
0000
,
0000
0000
0000
0000
,
0003
2000
0000
0000
,
0000
0000
0000
0000
,
3000
0020
0000
0000
,
0000
0000
0000
0000
,
0000
0030
0200
0000
,
0000
0000
0000
0000
,
0000
0302
0000
0000
,
0000
0000
0000
0000
,
0000
0003
1000
0000
,
0010
0000
1000
0010
,
0000
0000
0100
0000
,
0010
0000
0100
0002
,
0000
0000
0000
0000
,
0000
0000
0000
0000
,
0000
0000
0000
0000
,
0003
0000
0000
0000
,
0000
2000
0000
0000
,
0000
0000
0000
0000
,
0000
0000
0000
0000
,
0000
3000
0000
0000
,
0000
0200
0000
0000
,
0000
0000
0000
0000
,
0000
0000
0000
0000
,
0000
0300
0000
0000
,
0000
0020
0000
0000
,
0000
0000
0000
0000
,
0000
0000
0000
0000
,
0000
0000
0030
0000
,
0000
2000
0000
0000
,
3001
0000
0000
0000
,
0000
0000
0010
0100
,
0000
0010
0000
0001
,
0000
0000
0011
0000
,
0000
0100
0000
0000
,
0000
0000
0001
0000
,
1000
0000
0000
0000
,
0000
0010
0000
0000
,
0000
0100
0000
0000
,
0000
0000
0010
0100
,
0000
0001
0000
0100
,
0000
1000
0000
0000
,
0000
0010
0000
0000
,
0000
0100
0000
0000
,
0010
0000
0000
0000
,
0000
0001
0000
0100
,
0000
1000
0000
0100
,
0000
0001
0000
0100
,
0000
0020
0000
0000
,
0000
0000
0000
0000
,
0030
0000
0000
0200
,
0000
0000
0000
0000
,
0000
0000
0000
0000
,
0000
0300
0000
0000
,
2002
0000
0000
0000
,
0000
0000
0000
0000
,
0000
0000
0000
3003
,
0000
0010
0000
0100
,
0000
0010
0000
0100
,
0000
0001
0000
0000
,
0000
0000
0000
0000
,
0000
0020
0000
0000
,
0000
0000
0000
0000
,
0000
0030
0000
0000
,
0000
0000
0000
0000
,
0000
0002
0000
0000
,
0000
0000
0000
0000
,
0000
0000
0003
0000
,
0000
0000
0000
0000
,
0000
2000
0000
0000
,
0000
0000
0000
0000
,
0000
0000
3000
0000
,
0000
0000
0000
0000
,
0000
0000
0010
0000
,
0000
0011
0000
0000
,
0000
0000
0001
0100
,
0000
0000
1000
0100
,
0000
0000
0001
0000
,
0000
0000
0000
0000
,
0000
0000
0010
0000
,
0100
0000
0000
0000
,
0000
1000
0000
0000
,
0010
0000
0000
0000
,
0000
0001
0000
0010
,
0000
0100
0000
0001
,
0000
0010
0000
0000
,
0000
0000
0000
0000
,
0000
0000
1000
0000
,
0000
0010
0000
0000
,
0000
0200
0000
0000
,
0000
0000
0000
0000
,
0000
0300
0020
0000
,
0000
0000
0000
0000
,
0000
0000
0230
0000
,
0000
0000
0000
0000
,
0000
0000
0000
0000
,
0000
0000
0000
0000
,
0300
0000
0002
0000
,
0000
0000
0000
0000
,
0000
0000
0000
0000
,
0000
0000
0000
0000
,
0003
2000
0000
0000
,
0000
0000
0000
0000
,
0000
0000
0000
0000
,
0000
0000
0000
3000
,
0000
0010
0000
0000
,
0100
0000
0001
0000
,
1000
0010
0000
0000
,
0000
0000
0000
0000
,
0000
0000
0010
0100
,
0000
0000
0001
0010
,
0000
0000
1000
0000
,
0000
0000
0000
0000
,
0000
0000
0001
0000
,
1000
0001
0000
0000
,
0100
0000
1000
0000
,
0000
0000
0000
0000
,
0000
0020
0000
0000
,
0000
0000
0000
0000
,
0000
0030
0000
0000
,
0000
0000
0000
0000
,
0000
0001
0000
0000
,
0101
0000
0000
0000
,
0000
0000
0010
0000
,
1000
0000
0010
0000
,
0100
0000
0001
0000
,
1000
0000
0000
0000
;
