#TITLE:Takecore Of Yourself;
#SUBTITLE:;
#ARTIST:DJ Sharpnel;
#TITLETRANSLIT:;
#SUBTITLETRANSLIT:;
#ARTISTTRANSLIT:;
#CREDIT:;
#BANNER:takecore of your bn.png;
#BACKGROUND:takecore of your bg.png;
#LYRICSPATH:;
#CDTITLE:;
#MUSIC:Takecore Of Yourself.ogg;
#OFFSET:0.009;
#SAMPLESTART:181.991;
#SAMPLELENGTH:20.892;
#SELECTABLE:YES;
#DISPLAYBPM:184.000;
#BPMS:0.000=183.800;
#STOPS:;
#BGCHANGES:;
// cache tags:
#FIRSTBEAT:32.500;
#LASTBEAT:1203.000;
#SONGFILENAME:Songs/SHARPNELSTREAMZ v2/Takecore Of Yourself/takecore of yourself.sm;
#HASMUSIC:1;
#HASBANNER:1;
#MUSICLENGTH:392.784;
// end cache tags

//---------------dance-single - 15+ (TYLR)----------------
#NOTES:
     dance-single:
     15+ (TYLR):
     Hard:
     15:
     1.000,1.000,0.056,0.542,1.000,3167.000,22.000,213.000,31.000,0.000:
0000
0000
0000
0000
,
0000
0000
0000
0000
,
0000
0000
0000
0000
,
0000
0000
0000
0000
,
0000
0000
0000
0000
,
0000
0000
0000
0000
,
0000
0000
0000
0000
,
0000
0000
0000
0000
,
0000
0001
0000
1000
0000
0001
0000
0100
,
0000
0010
0000
1000
0000
0010
0000
0100
,
0000
0001
0000
0010
0000
0100
0000
1000
,
0000
0001
0000
0100
0000
0001
0000
1000
,
0000
0100
0000
0010
0000
0100
0000
1000
,
0000
0010
0000
0100
0000
0001
0000
0010
,
0000
0001
0000
0100
0000
0010
0000
1000
,
0002
1000
0000
1000
0000
1000
0000
1003
,
0011
0001
0100
0001
0010
0001
0100
0001
,
1000
0100
0010
0100
1000
0100
0010
0100
,
0100
1000
0001
1000
0100
1000
0001
1000
,
0100
0000
0010
0000
0001
0000
0010
0000
0100
1000
0001
0000
0100
0000
0001
0000
,
1002
0003
0000
0000
1000
0000
0000
0000
0100
0000
0000
0000
1000
0000
0000
0000
0001
0000
0000
0000
1000
0000
0000
0000
0100
0000
0000
0000
1000
0000
0000
0000
,
0010
0100
0001
0100
0010
0100
0001
1000
,
1000
0100
0010
0100
1000
0100
0010
0100
,
1000
0000
0010
0000
0100
0000
0010
0000
1000
0010
0100
0000
0001
0000
1000
0000
,
2100
3000
0000
0000
0100
0000
0000
0000
0010
0000
0000
0000
0100
0000
0000
0000
1000
0000
0000
0000
0100
0000
0000
0000
0010
0000
0000
0000
0100
0000
0000
0000
,
1000
0001
0100
0001
1000
0001
0100
0010
,
0010
1000
0100
1000
0010
1000
0100
0010
,
0001
0000
1000
0000
0010
0000
1000
0000
0001
1000
0010
0000
0100
0000
0001
0000
,
2002
0000
0000
0000
,
0000
0000
0000
0000
0000
0000
0000
0000
0000
0000
0000
0000
0000
0000
0000
3000
,
1003
0100
1000
0100
0010
0001
0010
0001
1000
0001
1000
0001
0100
0001
0100
0001
,
1000
0010
0100
0001
0010
0100
1000
0010
0200
0000
0000
0000
0000
0000
0000
0000
,
0301
0100
0010
1000
0001
1000
0100
0000
0010
0000
0100
1000
0001
0100
0010
0000
,
1000
0000
0010
0100
0000
0001
1000
0000
0100
1000
0100
0010
0001
0000
1000
0000
,
0001
0100
0001
1000
0000
0100
0010
0000
0001
0000
1000
0001
0010
0100
1000
0000
,
0001
0000
0100
0001
0000
1000
0100
0000
0010
0001
0010
0000
0100
0000
1000
0000
,
0002
0003
0100
0000
0010
0000
1000
0000
0000
0000
0001
0000
0010
0000
0000
0000
0100
0000
0000
0000
1000
0000
0100
0000
0010
0000
0001
0000
1000
0000
0000
0000
,
0010
0000
1000
0001
0000
0010
0100
0000
1000
0001
1000
0010
0100
0000
0001
0000
,
1000
0100
1000
0001
0000
0100
0010
0000
1000
0000
0010
0100
0001
1000
0100
0000
,
0010
0000
0100
1000
0000
0001
0100
0000
0010
0000
1000
0001
0000
0010
0100
0000
,
2000
3000
0100
0000
0010
0000
0001
0000
0000
0000
1000
0000
0010
0000
0000
0000
0100
0000
0000
0000
0001
0000
0100
0000
0010
0000
1000
0000
0001
0000
0000
0000
,
0010
0000
0100
1000
0001
0100
0010
0000
1000
0010
0100
0001
1000
0000
0100
0000
,
0010
0001
0010
0100
0000
1000
0001
0000
0100
0000
0001
0100
0010
1000
0001
0000
,
0010
0000
0100
0010
0000
0001
1000
0000
0010
0100
0010
0000
1000
0000
0001
0000
,
0020
0030
0100
0000
0010
0000
0001
0000
0000
0000
1000
0000
0010
0000
0000
0000
0100
0000
0000
0000
0001
0000
0100
0000
0010
0000
1000
0000
0001
0000
0000
0000
,
0010
0000
0001
0010
0000
0100
1000
0000
0001
1000
0100
0010
0001
0000
1000
0000
,
0010
0100
0001
1000
0000
0100
0010
0000
0001
0000
0010
0100
1000
0001
0100
0000
,
0001
0000
0100
0001
0000
1000
0100
0000
0010
0000
0100
1000
0000
0010
0100
0000
,
0002
0003
0100
0000
0010
0000
1000
0000
0000
0000
0001
0000
0010
0000
0000
0000
0100
0000
0000
0000
1000
0000
0001
0000
0100
0000
0001
0000
1000
0000
0000
0000
,
0100
0000
0010
0001
0000
1000
0001
0000
0010
0100
1000
0001
0100
0000
0010
0000
,
1000
0010
0100
0001
0000
1000
0100
0000
0010
0000
0100
1000
0001
0100
0001
0000
,
0010
0000
0100
1000
0000
0001
0100
0000
0001
1000
0001
0000
0010
0000
0100
0000
,
2000
3000
0100
0000
0010
0000
0001
0000
0000
0000
1000
0000
0010
0000
0000
0000
0100
0000
0000
0000
0001
0000
1000
0000
0100
0000
0010
0000
0001
0000
0000
0000
,
0100
0000
0001
0010
0000
0100
1000
0000
0001
0100
0010
1000
0001
0000
1000
0000
,
0010
0100
0001
1000
0000
0100
0010
0000
0001
0000
0010
0100
1000
0001
0100
0000
,
0010
0000
1000
0010
0000
0100
0001
0000
1000
0000
0010
0100
0000
0001
0010
0000
,
0200
0300
1000
0000
0100
0000
0010
0000
0000
0000
0001
0000
1000
0000
0000
0000
0010
0000
0000
0000
0100
0000
0001
0000
1000
0000
0001
0000
0100
0000
0000
0000
,
0010
0000
1000
0100
0000
0010
0001
0000
1000
0010
0100
0001
0010
0000
0100
0000
,
1000
0100
0010
0001
0000
0100
0010
0000
1000
0000
0010
0100
0001
1000
0100
0000
,
0010
0000
0001
1000
0000
0010
0100
0000
0001
1000
0001
0000
0100
0000
0010
0000
,
2000
3000
0001
0000
1000
0000
0010
0000
0000
0000
0100
0000
0001
0000
0000
0000
1000
0000
0000
0000
0100
0000
0010
0000
0001
0000
0010
0000
0100
0000
0000
0000
,
1000
0000
0001
0100
0000
0010
1000
0000
0100
1000
0001
0100
0010
0000
1000
0000
,
0100
1000
0100
0010
0001
1000
0001
0100
0010
1000
0100
0010
0001
0100
0010
1000
,
0100
0000
0000
1000
0000
0000
0001
0100
0010
0000
0000
1000
0000
0000
0001
0010
,
0200
0300
0000
0000
1000
0000
0001
0000
0100
0000
0000
0000
0001
0000
1000
0000
0100
0000
0010
0000
0001
0000
1000
0000
0000
0000
0000
0000
0010
0000
0100
0000
,
0001
0000
1000
0001
0010
0000
0100
1000
0001
0100
0010
1000
0000
0000
0001
1000
,
0010
0000
0100
0001
1000
0000
0100
0010
0001
1000
0010
0100
0000
0000
0001
1000
,
0100
0000
0010
0001
1000
0000
0001
0010
0100
1000
0100
0000
0010
0000
0001
0000
,
0200
0300
0000
0000
0001
0000
1000
0000
0100
0000
0000
0000
0010
0000
0001
0000
1000
0000
0010
0000
0100
0000
0001
0000
0000
0000
0000
0000
0100
0000
0010
0000
,
1000
0000
0001
0010
0100
0000
1000
0001
0100
0010
1000
0001
0000
0000
1000
0010
,
0100
0000
0001
0010
0100
0000
1000
0001
0100
0010
1000
0001
0000
0000
1000
0010
,
0100
0000
0001
0010
0100
0000
1000
0001
0100
0001
0100
0000
0010
0000
1000
0000
,
0200
0300
0000
0000
0010
0000
0001
0000
1000
0000
0000
0000
0001
0000
0010
0000
0100
0000
1000
0000
0010
0000
0100
0000
0000
0000
0000
0000
0001
0000
0100
0000
,
0010
0000
1000
0100
0010
0000
0100
1000
0001
0100
0010
1000
0000
0000
0010
0100
,
0001
0000
0010
0100
1000
0000
0001
1000
0100
0010
0001
0100
0000
0000
0001
0010
,
0100
0000
1000
0010
0100
0000
0001
0100
0010
1000
0010
0000
0100
0000
0001
0000
,
2000
3000
0001
0000
1000
0000
0001
0000
0100
0000
0001
0000
0100
0000
0001
0000
0100
0000
0010
0000
0100
0000
0010
0000
1000
0000
0010
0000
1000
0000
0010
0000
,
1000
0001
1000
0001
0010
0001
0010
0001
0010
0100
0010
0100
1000
0100
1000
0100
,
1000
0001
0100
0010
1000
0010
0100
0001
0010
0100
1000
0001
0100
0010
1000
0100
,
0010
0000
0000
0000
0000
0000
0000
0000
0001
0000
0000
0100
0000
0000
0010
0000
,
2000
3000
0100
0000
0010
0000
0001
0000
0100
0000
0001
0000
1000
0000
0100
0000
0010
0000
0001
0000
0100
0000
0001
0000
1000
0000
0100
0000
0010
0000
0001
0000
,
0100
0001
1000
0100
0010
0001
0100
0001
1000
0100
0010
0001
0100
0001
1000
0100
,
0010
0001
0100
0001
1000
0100
0010
0001
0100
0001
1000
0100
0010
0001
0100
0001
,
1000
0100
0010
0001
0100
0001
1000
0100
0010
0001
0100
0001
1000
0100
0010
0001
,
0200
0300
0001
0000
1000
0000
0100
0000
0010
0000
0001
0000
0100
0000
0001
0000
1000
0000
0100
0000
0010
0000
0001
0000
0100
0000
0001
0000
1000
0000
0100
0000
,
0010
0001
0100
0001
1000
0100
0010
0001
0100
0001
1000
0100
0010
0001
0100
0001
,
1000
0100
0010
0001
0100
0001
1000
0100
0010
0001
0100
0001
1000
0100
0010
0001
,
0100
0001
1000
0100
0010
0001
0100
0001
1000
0100
0010
0001
0100
0001
1000
0001
,
2000
3000
0010
0000
0100
0000
0001
0000
0010
0000
0001
0000
1000
0000
0010
0000
0100
0000
0001
0000
0010
0000
0001
0000
1000
0000
0010
0000
0100
0000
0001
0000
,
0010
0001
1000
0010
0100
0001
0010
0001
1000
0010
0100
0001
0010
0001
1000
0010
,
0100
0001
0010
0001
1000
0010
0100
0001
0010
0001
1000
0010
0100
0001
0010
0001
,
1000
0010
0100
0001
0010
0001
1000
0010
0100
0001
0010
0001
1000
0010
0100
0001
,
0020
0030
0001
0000
0010
0000
0100
0000
1000
0000
0100
0000
0010
0000
0001
0000
1000
0000
0001
0000
0100
0000
0010
0000
1000
0000
0010
0000
0100
0000
0001
0000
,
1000
0100
0010
0001
0100
0010
1000
0100
0010
0001
0100
0001
0010
0100
1000
0010
,
0100
0001
0100
0010
1000
0100
0010
0001
0100
0001
0010
0100
1000
0010
0100
0001
,
1000
0000
0000
0000
0000
0000
0000
0000
0001
0000
0000
0010
0000
0000
0100
0000
,
2002
0000
0000
0000
,
0000
0000
0000
0000
0000
0000
3003
M00M
,
0220
0000
0000
0330
,
0000
0000
0000
0000
,
M0M0
0000
0M00
000M
M000
0M00
00M0
M000
,
0M00
0000
M000
0000
00MM
0000
0M00
0000
000M
0000
M000
0000
0M00
0000
0000
0M0M
,
0000
0000
00M0
0000
M000
0000
000M
0000
0000
0000
0000
M0M0
0000
000M
0000
0000
,
0000
0MM0
M00M
0000
,
0000
00M0
0000
0000
,
0000
0000
0000
0000
0000
0000
0001
0000
0020
0000
0000
0230
0000
0000
1300
0000
,
1020
0000
0000
2030
0000
0000
3100
0000
0020
0000
0000
0032
0000
0000
0103
0000
,
0020
0000
0000
2030
0000
0000
3100
0000
0020
0000
0000
0032
0000
0000
0103
0000
,
0002
0000
0000
0023
0000
0000
0130
0000
2000
0000
0000
3020
0000
0000
0130
0000
,
0002
0000
0000
0023
0000
0000
0130
0000
2000
0000
0000
3020
0000
0000
0130
0000
,
0020
0000
0000
2030
0000
0000
3100
0000
0020
0000
0000
0032
0000
0000
0103
0000
,
0020
0000
0000
2030
0000
0000
3100
0000
0020
0000
0000
0032
0000
0000
0103
0000
,
0002
0000
0000
0023
0000
0000
0130
0000
2000
0000
0000
3020
0000
0000
0130
0000
,
0002
0000
0000
0023
0000
0000
0130
0000
2000
0000
0000
3200
0000
0000
0310
0000
,
0021
0000
0000
0230
0000
0000
1300
0000
0020
0000
0000
0230
0000
0000
0301
0000
,
0020
0000
0000
0230
0000
0000
1300
0000
0020
0000
0000
0230
0000
0000
0301
0000
,
0200
0000
0000
0320
0000
0000
1030
0000
0200
0000
0000
0320
0000
0000
0031
0000
,
0200
0000
0000
0320
0000
0000
1030
0000
0200
0000
0000
0320
0000
0000
0031
0000
,
0020
0000
0000
0230
0000
0000
1300
0000
0020
0000
0000
0230
0000
0000
0301
0000
,
0020
0000
0000
0230
0000
0000
1300
0000
0020
0000
0000
0230
0000
0000
0301
0000
,
0200
0000
0000
0320
0000
0000
1030
0000
0200
0000
0000
0320
0000
0000
0031
0000
,
0200
0000
0000
0320
0000
0000
1030
0000
0200
0000
0000
2300
0000
0000
3001
0000
,
0101
0000
0100
0010
0000
0100
0001
0000
0010
0000
0100
1000
0000
0100
0010
0000
,
0001
0000
1000
0010
0000
1000
0001
0000
0010
0000
0100
1000
0000
0100
0010
0000
,
0001
0000
0100
0010
0000
0100
0001
0000
0010
0000
0100
1000
0000
0100
0010
0000
,
0001
0000
1000
0010
0000
1000
0001
0000
0010
0000
0100
1000
0000
0100
0010
0000
,
0001
0000
1000
0100
0000
1000
0001
0000
0100
0000
0010
1000
0000
0010
0100
0000
,
0001
0000
1000
0100
0000
1000
0001
0000
0100
0000
0010
1000
0000
0010
0100
0000
,
0001
0000
0010
0100
0000
0010
0001
0000
1000
0000
0010
0100
0000
0010
1000
0000
,
0100
0000
0010
0001
0000
0010
0100
0000
2000
0000
0000
3002
0000
0000
1003
0000
,
1200
0000
0000
0320
0000
0031
1000
0000
0020
0000
0000
0230
0000
0301
1000
0000
,
0200
0000
0000
0320
0000
0031
1000
0000
0020
0000
0000
0230
0000
0301
1000
0000
,
0200
0000
0000
0320
0000
0031
1000
0000
0020
0000
0000
0230
0000
0301
1000
0000
,
0200
0000
0000
0320
0000
0031
1000
0000
0020
0000
0000
0230
0000
0301
1000
0000
,
0200
0000
0000
0310
0002
0000
0000
0103
0020
0000
0000
1030
0002
0000
0000
0103
,
0020
0000
0000
1030
0200
0000
0000
0310
0002
0000
0000
1003
0020
0000
0000
0130
,
0001
0100
0010
1000
0001
1000
0010
0100
0001
1000
0100
0010
0001
0100
0010
1000
,
0004
4000
0000
0000
0000
0000
0000
0000
0000
0000
0000
0000
0000
0000
0000
0000
0000
0000
0000
0000
0000
0000
0000
0000
,
3003
0000
0000
0000
,
0000
0000
0000
0000
0000
0000
2000
0000
3020
0000
0000
0230
0000
0000
0302
0000
,
0013
0100
1000
0001
1000
0100
0010
0001
0100
0010
1000
0001
1000
0010
0100
0001
,
0010
0100
1000
0010
1000
0100
0010
0001
0010
0001
0100
0010
1000
0001
0010
0100
,
1000
0010
0100
0001
0100
0010
1000
0100
0010
0001
1000
0100
1000
0001
0100
0010
,
1000
0010
0100
0001
0010
0100
1000
0010
0100
0001
1000
0100
1000
0001
0100
0010
,
1000
0100
0010
0001
0100
0010
1000
0010
1000
0010
0100
0001
0010
0100
1000
0100
,
0010
0001
1000
0100
0010
0100
1000
0001
0100
0010
1000
0001
1000
0010
0100
0001
,
0010
0100
1000
0100
0010
0001
0100
0001
1000
0100
1000
0001
0100
0010
1000
0001
,
0010
0100
1000
0010
1000
0100
0010
0001
0100
0010
1000
0100
1000
0010
0100
0001
,
0020
0030
0100
0000
1000
0000
0001
0000
1000
0000
0100
0000
0010
0000
0001
0000
0100
0000
0001
0000
0010
0000
0100
0000
1000
0000
0001
0000
0100
0000
0010
0000
,
1000
0010
0100
0001
0010
0100
1000
0100
1000
0100
0010
0001
0100
0010
1000
0001
,
0010
0001
0100
0010
1000
0100
0010
0100
1000
0001
0100
0010
1000
0001
1000
0010
,
0100
0001
0010
0100
1000
0010
0100
0001
0010
0001
0100
0010
1000
0100
0010
0001
,
0010
0100
1000
0010
1000
0100
0010
0001
0010
0001
0100
0010
1000
0100
0010
0100
,
1000
0001
0100
0010
1000
0010
0100
0001
0010
0100
1000
0001
0100
0010
1000
0010
,
0100
0001
1000
0001
0100
0010
1000
0100
0010
0100
1000
0001
0010
0100
1000
0010
,
0100
0001
1000
0100
1000
0010
0100
0001
0010
0001
0010
0000
0000
0000
0000
0000
,
0002
0003
0010
0000
0100
0000
1000
0000
0001
0000
1000
0000
0010
0000
0100
0000
0001
0000
0100
0000
0010
0000
1000
0000
0001
0000
1000
0000
0100
0000
0010
0000
,
0001
0010
0100
1000
0010
0100
0001
0100
0001
0100
0010
1000
0100
0010
0001
1000
,
0100
1000
0010
0100
0001
1000
0100
1000
0010
0100
0001
0010
0100
1000
0001
1000
,
0100
0010
0001
0100
0001
1000
0100
0010
0001
0100
0010
1000
0010
0100
0001
0010
,
0100
1000
0001
0010
0001
1000
0100
0010
0001
1000
0010
0100
0010
1000
0001
0010
,
0100
1000
0010
0100
0001
0100
0010
1000
0100
0010
0001
1000
0001
0010
0100
1000
,
0010
0100
0001
0100
0010
1000
0100
0010
0100
1000
0001
0010
0100
0010
0001
1000
,
0010
0100
0001
0010
0001
0100
0010
1000
0100
0010
0001
0100
0010
1000
0010
0100
,
0001
0100
0010
1000
0100
1000
0010
0100
0001
0010
0100
1000
0100
0010
0001
0100
,
0010
1000
0001
0010
0001
1000
0010
0100
0001
1000
0100
0010
0100
1000
0001
0100
,
0010
1000
0100
0010
0001
0100
0010
0100
0001
0010
0100
1000
0001
0100
0010
1000
,
0100
1000
0010
0100
0001
1000
0100
0010
0001
0010
0100
1000
0010
0100
0001
1000
,
0100
0010
0001
0100
0001
0010
0100
1000
0010
0100
0001
0010
0001
0100
0010
1000
,
0100
0010
0001
0100
0010
1000
0100
0010
0001
0010
0100
1000
0010
0100
0001
0010
,
0100
1000
0100
0010
0001
0010
0100
1000
0001
0100
0010
1000
0100
1000
0010
0100
,
0002
0003
0000
0000
0000
0000
0000
0000
1000
0000
0001
0000
0000
0000
0200
0000
0000
0000
0000
0000
0000
0000
0300
0000
0010
0000
0000
0000
0100
0000
0000
0000
,
0002
0000
0000
2000
0000
0000
0000
0000
0000
0000
0000
0000
0000
0000
0000
0000
,
0000
0000
0000
0000
,
0000
0000
0000
0000
,
0000
0000
0000
0000
0000
0000
0000
0003
,
3200
0300
0000
0000
0010
0000
0001
0000
1000
0000
0000
0000
0010
0000
0100
0000
0001
0000
0100
0000
0010
0000
1000
0000
0000
0000
0000
0000
0001
0000
1000
0000
,
0100
0000
0010
0001
1000
0000
0001
0010
0100
1000
0001
0100
0000
0000
0010
1000
,
0001
0000
1000
0010
0100
0000
0001
1000
0100
0010
0001
0100
0000
0000
0001
1000
,
0100
0000
0010
0001
1000
0000
0010
0100
0001
0100
0010
1000
0000
0000
0001
0010
,
0200
0300
0000
0000
0010
0000
0001
0000
0100
0000
0000
0000
0010
0000
1000
0000
0001
0000
0010
0000
0100
0000
1000
0000
0000
0000
0000
0000
0001
0000
0100
0000
,
0010
0000
1000
0100
0010
0000
0100
1000
0010
0100
0001
1000
0000
0000
0001
0100
,
0010
0000
1000
0100
0010
0000
0001
0010
0100
1000
0001
0100
0000
0000
0010
1000
,
0001
0000
1000
0100
0010
0000
0100
1000
0001
1000
0010
0100
0000
0000
0001
1000
,
0200
0300
0000
0000
0010
0000
0001
0000
0100
0000
0000
0000
0010
0000
1000
0000
0001
0000
0010
0000
0100
0000
1000
0000
0000
0000
0000
0000
0001
0000
0100
0000
,
0010
0000
1000
0100
0010
0000
0100
1000
0001
0100
0010
1000
0000
0000
0001
0010
,
0100
0000
0010
0001
1000
0000
0010
0100
0001
0010
0100
1000
0000
0000
0100
0010
,
0001
0000
1000
0010
0100
0000
0001
1000
0100
0010
0001
1000
0000
0000
0100
1000
,
0002
0003
0010
0000
0100
0000
1000
0000
0010
0000
0100
0000
0001
0000
0010
0000
0100
0000
1000
0000
0010
0000
0100
0000
0001
0000
0010
0000
0100
0000
1000
0000
,
0010
0100
0001
0010
0100
1000
0010
0100
0001
0010
0100
1000
0010
0100
0001
0010
,
0100
1000
0010
0100
0001
0010
0100
1000
0010
0100
0001
0010
0100
1000
0010
0100
,
0001
0010
0100
1000
0010
0100
0001
0010
0100
1000
0010
0100
0001
0010
0100
1000
,
0020
0030
0100
0000
0001
0000
0010
0000
0100
0000
1000
0000
0010
0000
0100
0000
0001
0000
0010
0000
0100
0000
1000
0000
0010
0000
0100
0000
0001
0000
0010
0000
,
0100
1000
0010
0100
0001
0010
0100
1000
0010
0100
0001
0010
0100
1000
0010
0100
,
0001
0010
0100
1000
0010
0100
0001
0010
0100
1000
0010
0100
0001
0010
0100
1000
,
0010
0100
0001
0010
0100
1000
0010
0100
0001
0010
0100
1000
0010
0100
0001
1000
,
0002
0003
0100
0000
0010
0000
1000
0000
0100
0000
0010
0000
0001
0000
0100
0000
0010
0000
1000
0000
0100
0000
0010
0000
0001
0000
0100
0000
0010
0000
1000
0000
,
0100
0010
0001
0100
0010
1000
0100
0010
0001
0100
0010
1000
0100
0010
0001
0100
,
0010
1000
0100
0010
0001
0100
0010
1000
0100
0010
0001
0100
0010
1000
0100
0010
,
0001
0100
0010
1000
0100
0010
0001
0100
0010
1000
0100
0010
0001
0100
0010
1000
,
0200
0300
0010
0000
0001
0000
0100
0000
0010
0000
1000
0000
0010
0000
0100
0000
0001
0000
1000
0000
0001
0000
0010
0000
0100
0000
1000
0000
0001
0000
1000
0000
,
0010
0100
0001
1000
0100
0010
0001
0100
0010
1000
0100
0010
0001
0010
0100
1000
,
0010
0100
0001
0010
0001
0100
0010
1000
0100
0010
0001
0100
0010
1000
0100
1000
,
0020
0030
0000
0000
0000
0000
0000
0000
0000
0000
0000
0000
2000
0000
0000
0000
3200
0000
0000
0000
0000
0000
2300
0000
0000
0000
0000
0000
3001
0000
0000
0000
,
0201
0300
0000
0000
0001
0000
0010
0000
0000
0000
0100
0000
0010
0000
0000
0000
0010
0000
0000
0000
0001
0000
1000
0000
0000
0000
1000
0000
0010
0000
0000
0000
,
0100
0000
0001
0100
0000
0010
0100
0000
0100
0000
0001
1000
0000
1000
0001
0000
,
0010
0000
0100
0010
0000
0001
0010
0000
0010
0000
0100
1000
0000
1000
0010
0000
,
0100
0000
0001
0100
0000
0010
0100
0000
0001
1000
0001
0000
0100
0000
0010
0000
,
1000
0000
0001
1000
0000
0010
1000
0000
1000
0000
0001
0010
0000
0010
0100
0000
,
1000
0000
0001
1000
0000
0100
1000
0000
1000
0000
0001
0010
0000
0010
0001
0000
,
0100
0000
0010
0100
0000
0001
0100
0000
0100
0000
0010
1000
0000
1000
0010
0000
,
0100
0000
0001
1000
0000
1000
0001
0000
0010
0100
0010
0000
0001
0000
1000
0000
,
2010
3000
0000
0000
0001
0000
1000
0000
0000
0000
0010
0000
1000
0000
0000
0000
1000
0000
0000
0000
0001
0000
0010
0000
0000
0000
0010
0000
0001
0000
0000
0000
,
1000
0000
0010
1000
0000
0001
1000
0000
1000
0000
0001
0010
0000
0010
0001
0000
,
1000
0000
0100
1000
0000
0001
1000
0000
1000
0000
0100
0010
0000
0010
0001
0000
,
1000
0000
0001
1000
0000
0001
1000
0000
0010
0100
0010
0000
1000
0000
0001
0000
,
0010
0000
0001
0010
0000
0100
0010
0000
0010
0000
0001
1000
0000
1000
0010
0000
,
0100
0000
0001
0100
0000
0010
0100
0000
0100
0000
0001
1000
0000
1000
0001
0000
,
0010
0000
0100
0010
0000
0001
0010
0000
0010
0000
0100
1000
0000
1000
0100
0000
,
0010
0000
0001
1000
0000
1000
0001
0000
0100
0010
0100
0000
0001
0000
1000
0000
,
1200
0300
0000
0000
0010
0000
0100
0000
0000
0000
1000
0000
0100
0000
0000
0000
0100
0000
0000
0000
0010
0000
0001
0000
0000
0000
0001
0000
1000
0000
0000
0000
,
0010
0000
0100
0010
0000
1000
0010
0000
0010
0000
0100
0001
0000
0001
0100
0000
,
0010
0000
1000
0010
0000
0100
0010
0000
0010
0000
1000
0001
0000
0001
0010
0000
,
0100
0000
1000
0100
0000
0010
0100
0000
1000
0001
1000
0000
0100
0000
0010
0000
,
0001
0000
1000
0001
0000
0010
0001
0000
0001
0000
1000
0010
0000
0010
0100
0000
,
0001
0000
1000
0001
0000
0100
0001
0000
0001
0000
1000
0010
0000
0010
1000
0000
,
0100
0000
0010
0100
0000
1000
0100
0000
0100
0000
0010
0001
0000
0001
0010
0000
,
0100
0000
1000
0001
0000
0001
1000
0000
0010
0100
0010
0000
1000
0000
0001
0000
,
0012
0003
0000
0000
1000
0000
0001
0000
0000
0000
0010
0000
0001
0000
0000
0000
0001
0000
0000
0000
1000
0000
0010
0000
0000
0000
0010
0000
1000
0000
0000
0000
,
0001
0000
0010
0001
0000
1000
0001
0000
0001
0000
1000
0010
0000
0010
1000
0000
,
0001
0000
0100
0001
0000
1000
0001
0000
0001
0000
0100
0010
0000
0010
1000
0000
,
0001
0000
1000
0001
0000
1000
0001
0000
0010
0100
0010
0000
0001
0000
1000
0000
,
0010
0000
1000
0010
0000
0100
0010
0000
0010
0000
1000
0001
0000
0001
0010
0000
,
0100
0000
1000
0100
0000
0010
0100
0000
0100
0000
1000
0001
0000
0001
1000
0000
,
0010
0000
0100
0010
0000
1000
0010
0000
0010
0000
0100
0001
0000
0001
0100
0000
,
0010
0000
1000
0001
0000
0001
1000
0000
0100
0010
0100
0000
1000
0000
0001
0000
,
0200
0300
0010
0000
1000
0000
0001
0000
1000
0000
0010
0000
0100
0000
0001
0000
0010
0000
0100
0000
1000
0000
0001
0000
1000
0000
0100
0000
0010
0000
0001
0000
,
0100
0010
1000
0100
1000
0010
0100
0001
0100
0001
0010
0100
1000
0001
0100
0010
,
1000
0100
0010
0001
0010
0100
1000
0010
0100
0001
1000
0010
1000
0001
0010
0100
,
1000
0100
0010
0001
0100
0010
1000
0100
0010
0001
1000
0010
1000
0001
0010
0100
,
1000
0010
0100
0001
0010
0100
1000
0100
1000
0100
0010
0001
0100
0010
1000
0010
,
0100
0001
1000
0010
0100
0010
1000
0001
0010
0100
1000
0001
1000
0100
0010
0001
,
0100
0010
1000
0010
0100
0001
0010
0001
1000
0010
1000
0001
0010
0100
1000
0001
,
0100
0010
1000
0100
1000
0010
0100
0001
0010
0100
1000
0010
1000
0100
0010
0001
,
0200
0300
0010
0000
1000
0000
0001
0000
1000
0000
0010
0000
0100
0000
0001
0000
0010
0000
0001
0000
0100
0000
0010
0000
1000
0000
0001
0000
0010
0000
0100
0000
,
1000
0100
0010
0001
0100
0010
1000
0010
1000
0010
0100
0001
0010
0100
1000
0001
,
0100
0001
0010
0100
1000
0010
0100
0010
1000
0001
0010
0100
1000
0001
1000
0100
,
0010
0001
0100
0010
1000
0100
0010
0001
0100
0001
0010
0100
1000
0010
0100
0001
,
0100
0010
1000
0100
1000
0010
0100
0001
0100
0001
0010
0100
1000
0010
0100
0010
,
1000
0001
0010
0100
1000
0100
0010
0001
0100
0010
1000
0001
0010
0100
1000
0100
,
0010
0001
1000
0001
0010
0100
1000
0010
0100
0010
1000
0001
0100
0010
1000
0100
,
0010
0001
1000
0010
1000
0100
0010
0001
0100
0001
0100
0000
0010
0000
0100
0000
,
0002
0003
0010
0000
0100
0000
1000
0000
0001
0000
1000
0000
0010
0000
0100
0000
0001
0000
0100
0000
0010
0000
1000
0000
0001
0000
1000
0000
0100
0000
0010
0000
,
0001
0010
0100
1000
0010
0100
0001
0100
0001
0100
0010
1000
0100
0010
0001
1000
,
0100
1000
0010
0100
0001
1000
0100
1000
0010
0100
0001
0010
0100
1000
0001
1000
,
0100
0010
0001
0100
0001
1000
0100
0010
0001
0100
0010
1000
0010
0100
0001
0010
,
0100
1000
0001
0010
0001
1000
0100
0010
0001
1000
0010
0100
0010
1000
0001
0010
,
0100
1000
0010
0100
0001
0100
0010
1000
0100
0010
0001
1000
0001
0010
0100
1000
,
0010
0100
0001
0100
0010
1000
0100
0010
0100
1000
0001
0010
0100
0010
0001
1000
,
0010
0100
0001
0010
0001
0100
0010
1000
0100
0010
0001
0100
0010
1000
0010
0100
,
0001
0100
0010
1000
0100
1000
0010
0100
0001
0010
0100
1000
0100
0010
0001
0100
,
0010
1000
0001
0010
0001
1000
0010
0100
0001
1000
0100
0010
0100
1000
0001
0100
,
0010
1000
0100
0010
0001
0100
0010
0100
0001
0010
0100
1000
0001
0100
0010
1000
,
0100
1000
0010
0100
0001
1000
0100
0010
0001
0010
0100
1000
0010
0100
0001
1000
,
0100
0010
0001
0100
0001
0010
0100
1000
0010
0100
0001
0010
0001
0100
0010
1000
,
0100
0010
0001
0100
0010
1000
0100
0010
0001
0010
0100
1000
0010
0100
0001
0010
,
0100
1000
0100
0010
0001
0010
0100
1000
0001
0100
0010
1000
0100
1000
0010
0100
,
0002
0003
0000
0000
0000
0000
0000
0000
1000
0000
0001
0000
0000
0000
0200
0000
0000
0000
0000
0000
0000
0000
0300
0000
0010
0000
0000
0000
0100
0000
0000
0000
,
0102
0003
0000
0000
0200
0000
0000
0000
0010
0000
0000
0300
0200
0000
0000
0000
0001
0000
0000
0300
0200
0000
0000
0000
0010
0000
0000
0300
0200
0000
0000
0000
,
0301
0000
0000
0000
2000
0000
0000
0000
0100
0000
0000
3000
2000
0000
0000
0000
0001
0000
0000
3000
2000
0000
0000
0000
0100
0000
0000
3000
2000
0000
0000
0000
,
3010
0000
0000
0000
0200
0000
0000
0000
0001
0000
0000
0300
0200
0000
0000
0000
0010
0000
0000
0300
0200
0000
0000
0000
0001
0000
0000
0300
0200
0000
0000
0300
,
0010
0000
0000
0000
2000
0000
0000
0000
0100
0000
0000
3000
2000
0000
0000
0000
3010
0000
1000
0000
0010
0000
0000
0000
1000
0000
0000
0000
0100
0000
0000
0000
,
2100
3000
0000
0000
0200
0000
0000
0000
0010
0000
0000
0300
0200
0000
0000
0000
1000
0000
0000
0300
0200
0000
0000
0000
0010
0000
0000
0300
0200
0000
0000
0000
,
1300
0000
0000
0000
0002
0000
0000
0000
0100
0000
0000
0003
0002
0000
0000
0000
1000
0000
0000
0003
0002
0000
0000
0000
0100
0000
0000
0003
0002
0000
0000
0000
,
1003
0000
0000
0000
0200
0000
0000
0000
0010
0000
0000
0300
0200
0000
0000
0000
1000
0000
0000
0300
0200
0000
0000
0000
0010
0000
0000
0300
0200
0000
0000
0000
,
1300
0000
0000
0000
0200
0000
0000
0000
0010
0000
0000
0300
0200
0000
0000
0000
1000
0000
0000
0300
0200
0000
0010
0000
0300
0000
0000
0000
0001
0000
0000
0000
,
2010
3000
0000
0000
0020
0000
0000
0000
0100
0000
0000
0030
0020
0000
0000
0000
1000
0000
0000
0030
0020
0000
0000
0000
0100
0000
0000
0030
0020
0000
0000
0000
,
1030
0000
0000
0000
0002
0000
0000
0000
0010
0000
0000
0003
0002
0000
0000
0000
1000
0000
0000
0003
0002
0000
0000
0000
0010
0000
0000
0003
0002
0000
0000
0000
,
1003
0000
0000
0000
0200
0000
0000
0000
0010
0000
0000
0300
0200
0000
0000
0000
1000
0000
0000
0300
0200
0000
0000
0000
0010
0000
0000
0300
0200
0000
0000
0000
,
1300
0000
0000
0000
0020
0000
0000
0000
0100
0000
0000
0030
0020
0000
0000
0000
1030
0000
0100
0000
1000
0000
0000
0000
0001
0000
0000
0000
0100
0000
0000
0000
,
1020
0030
0000
0000
2000
0000
0000
0000
0001
0000
0000
3000
2000
0000
0000
0000
0010
0000
0000
3000
2000
0000
0000
0000
0001
0000
0000
3000
2000
0000
0000
0000
,
3100
0000
0000
0000
0020
0000
0000
0000
0001
0000
0000
0030
0020
0000
0000
0000
0100
0000
0000
0030
0020
0000
0000
0000
0001
0000
0000
0030
0020
0000
0000
0000
,
0130
0000
0000
0000
2000
0000
0000
0000
0001
0000
0000
3000
2000
0000
0000
0000
0100
0000
0000
3000
2000
0000
0000
0000
0001
0000
0000
3000
2000
0000
0000
0000
,
3100
0000
0000
0000
2000
0000
0000
0000
0010
0000
0000
3000
2000
0000
0000
0000
0100
0000
0000
3000
0000
0000
0010
0000
0000
0000
0000
0000
0001
0000
0000
0000
,
1002
0003
0000
0000
1000
0000
0000
0000
0100
0000
0000
0000
1000
0000
0000
0000
0000
0000
0000
0000
0001
0000
0000
0000
0100
0000
0000
0000
0001
0000
0000
0000
,
0000
1000
0010
1000
0000
0001
0010
0001
,
0000
0100
0010
0100
0000
0001
0010
0001
,
0000
0100
0010
1000
0000
0001
1000
0100
,
0210
0300
0000
0000
0010
0000
0000
0000
0001
0000
0000
0000
0010
0000
0000
0000
0000
0000
0000
0000
0100
0000
0000
0000
1000
0000
0000
0000
0100
0000
0000
0000
,
0000
1000
0001
1000
0000
0010
1000
0010
,
0000
0100
0001
0100
0000
0010
1000
0010
,
0000
1000
0100
0010
0000
0001
0100
0010
,
1020
0030
0000
0000
1000
0000
0000
0000
0001
0000
0000
0000
1000
0000
0000
0000
0000
0000
0000
0000
0001
0000
0000
0000
0010
0000
0000
0000
0001
0000
0000
0000
,
0000
0100
0010
0100
0000
0001
1000
0001
,
0000
1000
0100
1000
0000
0001
0100
0001
,
0000
0010
0100
1000
0000
0001
0100
0010
,
2000
3000
0010
0000
1000
0000
0010
0000
0100
0000
0001
0000
1000
0000
0001
0000
0100
0000
0010
0000
0100
0000
0010
0000
1000
0000
0001
0000
0010
0000
0001
0000
,
1000
0100
1000
0100
0010
0001
1000
0001
0010
0100
0010
0100
1000
0001
1000
0010
,
0100
0001
1000
0100
0010
0100
1000
0001
0100
0010
1000
0100
0010
0001
0100
0010
,
2000
0000
0000
0000
,
0000
0000
0000
3000
;

//---------------dance-single - 17- (TYLR)----------------
#NOTES:
     dance-single:
     17- (TYLR):
     Challenge:
     17:
     1.000,1.000,0.041,0.535,1.000,3587.000,16.000,210.000,32.000,0.000:
0000
0000
0000
0000
,
0000
0000
0000
0000
,
0000
0000
0000
0000
,
0000
0000
0000
0000
,
0000
0000
0000
0000
,
0000
0000
0000
0000
,
0000
0000
0000
0000
,
0000
0000
0000
0000
,
0000
0001
0000
1000
0000
0001
0000
0100
,
0000
0010
0000
1000
0000
0010
0000
0100
,
0000
0001
0000
0010
0000
0100
0000
1000
,
0000
0001
0000
0100
0000
0001
0000
1000
,
0000
0100
0000
0010
0000
0100
0000
1000
,
0000
0010
0000
0100
0000
0001
0000
0010
,
0000
0001
0000
0100
0000
0010
0000
1000
,
0002
1000
0000
1000
0000
1000
0000
1003
,
0011
0001
0100
0001
0010
0001
0100
0001
,
1000
0100
0010
0100
1000
0100
0010
0100
,
0100
1000
0001
1000
0100
1000
0001
1000
,
0100
0000
0010
0000
0001
0000
0010
0000
0100
1000
0001
0000
0100
0000
0001
0000
,
1002
0003
0000
0000
1000
0000
0000
0000
0100
0000
0000
0000
1000
0000
0000
0000
0001
0000
0000
0000
1000
0000
0000
0000
0100
0000
0000
0000
1000
0000
0000
0000
,
0010
0100
0001
0100
0010
0100
0001
1000
,
1000
0100
0010
0100
1000
0100
0010
0100
,
1000
0000
0010
0000
0100
0000
0010
0000
1000
0010
0100
0000
0001
0000
1000
0000
,
2100
3000
0000
0000
0100
0000
0000
0000
0010
0000
0000
0000
0100
0000
0000
0000
1000
0000
0000
0000
0100
0000
0000
0000
0010
0000
0000
0000
0100
0000
0000
0000
,
1000
0001
0100
0001
1000
0001
0100
0010
,
0010
1000
0100
1000
0010
1000
0100
0010
,
0001
0000
1000
0000
0010
0000
1000
0000
0001
1000
0010
0000
0100
0000
0001
0000
,
2002
0000
0000
0000
,
0000
0000
0000
0000
0000
0000
0000
0000
0000
0000
0000
0000
0000
0000
0000
3000
,
1003
0100
1000
0100
0010
0001
0010
0001
1000
0001
1000
0001
0100
0001
0100
0001
,
1000
0010
0100
0001
0010
0100
1000
0010
0200
0000
0000
0000
0000
0000
0000
0000
,
0301
1000
0001
1000
0100
0010
0001
1000
0010
0100
0010
1000
0010
1000
0001
0010
,
0100
1000
0001
0100
0001
1000
0100
0010
0001
1000
0001
1000
0001
0100
0010
1000
,
0001
1000
0001
1000
0100
0010
0001
1000
0010
0100
0001
1000
0001
1000
0100
0010
,
0001
1000
0001
1000
0010
0100
0001
1000
0001
0010
0001
0010
0100
1000
0010
0100
,
0002
0003
1000
0000
0001
0000
1000
0000
0100
0000
0010
0000
0001
0000
1000
0000
0010
0000
0100
0000
0010
0000
1000
0000
0010
0000
1000
0000
0001
0000
0010
0000
,
0100
1000
0001
0100
0001
1000
0100
0010
0001
1000
0001
1000
0001
0100
0010
1000
,
0001
1000
0001
1000
0100
0010
0001
1000
0010
0100
0001
1000
0001
1000
0100
0010
,
0001
1000
0001
1000
0010
1000
0001
0010
0100
1000
0100
0010
0001
0100
0010
1000
,
0002
0003
0010
0000
0001
0000
0010
0000
0100
0000
1000
0000
0001
0000
1000
0000
0010
0000
0100
0000
0010
0000
1000
0000
0010
0000
1000
0000
0001
0000
0010
0000
,
0100
1000
0001
0100
0001
1000
0100
0010
0001
1000
0001
1000
0001
0100
0010
1000
,
0001
1000
0001
1000
0100
0010
0001
1000
0010
0100
0001
1000
0001
1000
0100
0010
,
0001
1000
0001
1000
0010
0100
0001
1000
0001
0010
0001
0010
0100
1000
0010
0100
,
0002
0003
1000
0000
0001
0000
1000
0000
0100
0000
0010
0000
0001
0000
1000
0000
0010
0000
0100
0000
0010
0000
1000
0000
0010
0000
1000
0000
0001
0000
0010
0000
,
0100
1000
0001
0100
0001
1000
0100
0010
0001
1000
0001
1000
0001
0100
0010
1000
,
0001
1000
0001
1000
0100
0010
0001
1000
0010
0100
0001
1000
0001
1000
0100
0010
,
0001
1000
0001
1000
0010
1000
0001
0010
0100
1000
0100
0010
0001
0100
0010
0100
,
0002
0003
1000
0000
0001
0000
1000
0000
0100
0000
0010
0000
0001
0000
1000
0000
0010
0000
0100
0000
0010
0000
1000
0000
0010
0000
1000
0000
0001
0000
0010
0000
,
0100
1000
0001
0100
0001
1000
0100
0010
0001
1000
0001
1000
0001
0100
0010
1000
,
0001
1000
0001
1000
0100
0010
0001
1000
0010
0100
0001
1000
0001
1000
0100
0010
,
0001
1000
0001
1000
0010
0100
0001
1000
0001
0010
0001
0010
0100
1000
0010
0100
,
0002
0003
1000
0000
0001
0000
1000
0000
0100
0000
0010
0000
0001
0000
1000
0000
0010
0000
0100
0000
0010
0000
1000
0000
0010
0000
1000
0000
0001
0000
0010
0000
,
0100
1000
0001
0100
0001
1000
0100
0010
0001
1000
0001
1000
0001
0100
0010
1000
,
0001
1000
0001
1000
0100
0010
0001
1000
0010
0100
0001
1000
0001
1000
0100
0010
,
0001
1000
0001
1000
0010
1000
0001
0010
0100
1000
0100
0010
0001
0100
0010
1000
,
0002
0003
0010
0000
0001
0000
0010
0000
0100
0000
1000
0000
0001
0000
1000
0000
0010
0000
0100
0000
0010
0000
1000
0000
0010
0000
1000
0000
0001
0000
0010
0000
,
0100
1000
0001
0100
0001
1000
0100
0010
0001
1000
0001
1000
0001
0100
0010
1000
,
0001
1000
0001
1000
0100
0010
0001
1000
0010
0100
0001
1000
0001
1000
0100
0010
,
0001
1000
0001
1000
0010
0100
0001
1000
0001
0010
0001
0010
0100
1000
0010
0100
,
0002
0003
1000
0000
0001
0000
1000
0000
0100
0000
0010
0000
0001
0000
1000
0000
0010
0000
0100
0000
0010
0000
1000
0000
0010
0000
1000
0000
0001
0000
0010
0000
,
0100
1000
0001
0100
0001
1000
0100
0010
0001
1000
0001
1000
0001
0100
0010
1000
,
0001
0010
0001
0010
0100
1000
0001
1000
0010
0100
0001
1000
0001
0010
0100
1000
,
0010
0000
0000
0010
0000
0000
0100
0001
1000
0000
0000
0100
0000
0000
0010
0000
,
0002
0003
0000
0000
0010
0000
0001
0000
0100
0000
0000
0000
0001
0000
1000
0000
0100
0000
0010
0000
0001
0000
1000
0000
0000
0000
0000
0000
0010
0000
0100
0000
,
0001
0000
1000
0001
0010
0000
0100
1000
0001
0100
0010
1000
0000
0000
0001
1000
,
0010
0000
0100
0001
1000
0000
0100
0010
0001
1000
0010
0100
0000
0000
0001
1000
,
0100
0000
0010
0001
1000
0000
0001
0010
0100
1000
0100
0000
0010
0000
0001
0000
,
0200
0300
0000
0000
0001
0000
1000
0000
0100
0000
0000
0000
0010
0000
0001
0000
1000
0000
0010
0000
0100
0000
0001
0000
0000
0000
0000
0000
0100
0000
0010
0000
,
1000
0000
0001
0010
0100
0000
1000
0001
0100
0010
1000
0001
0000
0000
1000
0010
,
0100
0000
0001
0010
0100
0000
1000
0001
0100
0010
1000
0001
0000
0000
1000
0010
,
010M
0000
0001
0010
0100
0000
1000
0001
0100
0001
0100
0000
0010
0000
1000
0000
,
0200
0300
0000
0000
0010
0000
0001
0000
1000
0000
0000
0000
0001
0000
0010
0000
0100
0000
1000
0000
0010
0000
0100
0000
0000
0000
0000
0000
0001
0000
0100
0000
,
0010
0000
1000
0100
0010
0000
0100
1000
0001
0100
0010
1000
0000
0000
0010
0100
,
0001
0000
0010
0100
1000
0000
0001
1000
0100
0010
0001
0100
0000
0000
0001
0010
,
0100
0000
1000
0010
0100
0000
0001
0100
0010
1000
0010
0000
0100
0000
0001
0000
,
2000
3000
0001
0000
1000
0000
0001
0000
0100
0000
0001
0000
0100
0000
0001
0000
0100
0000
0010
0000
0100
0000
0010
0000
1000
0000
0010
0000
1000
0000
0010
0000
,
1000
0001
1000
0001
0010
0001
0010
0001
0010
0100
0010
0100
1000
0100
1000
0100
,
1000
0001
0100
0010
1000
0010
0100
0001
0010
0100
1000
0001
0100
0010
1000
0100
,
0010
0000
0000
0000
0000
0000
0000
0000
0001
0000
0000
0100
0000
0000
0010
0000
,
2000
3000
0100
0000
0010
0000
0001
0000
0100
0000
0001
0000
1000
0000
0100
0000
0010
0000
0001
0000
0100
0000
0001
0000
1000
0000
0100
0000
0010
0000
0001
0000
,
0100
0001
1000
0100
0010
0001
0100
0001
1000
0100
0010
0001
0100
0001
1000
0100
,
0010
0001
0100
0001
1000
0100
0010
0001
0100
0001
1000
0100
0010
0001
0100
0001
,
1000
0100
0010
0001
0100
0001
1000
0100
0010
0001
0100
0001
1000
0100
0010
0001
,
0200
0300
0001
0000
1000
0000
0100
0000
0010
0000
0001
0000
0100
0000
0001
0000
1000
0000
0100
0000
0010
0000
0001
0000
0100
0000
0001
0000
1000
0000
0100
0000
,
0010
0001
0100
0001
1000
0100
0010
0001
0100
0001
1000
0100
0010
0001
0100
0001
,
1000
0100
0010
0001
0100
0001
1000
0100
0010
0001
0100
0001
1000
0100
0010
0001
,
0100
0001
1000
0100
0010
0001
0100
0001
1000
0100
0010
0001
0100
0001
1000
0001
,
2000
3000
0010
0000
0100
0000
0001
0000
0010
0000
0001
0000
1000
0000
0010
0000
0100
0000
0001
0000
0010
0000
0001
0000
1000
0000
0010
0000
0100
0000
0001
0000
,
0010
0001
1000
0010
0100
0001
0010
0001
1000
0010
0100
0001
0010
0001
1000
0010
,
0100
0001
0010
0001
1000
0010
0100
0001
0010
0001
1000
0010
0100
0001
0010
0001
,
1000
0010
0100
0001
0010
0001
1000
0010
0100
0001
0010
0001
1000
0010
0100
0001
,
0020
0030
0001
0000
0010
0000
0100
0000
1000
0000
0100
0000
0010
0000
0001
0000
1000
0000
0001
0000
0100
0000
0010
0000
1000
0000
0010
0000
0100
0000
0001
0000
,
1000
0100
0010
0001
0100
0010
1000
0100
0010
0001
0100
0001
0010
0100
1000
0010
,
0100
0001
0100
0010
1000
0100
0010
0001
0100
0001
0010
0100
1000
0010
0100
0001
,
1000
0000
0000
0000
0000
0000
0000
0000
0001
0000
0000
0010
0000
0000
0100
0000
,
2002
0000
0000
0000
,
0000
0000
0000
0000
0000
0000
3003
0MM0
,
0220
0000
0000
0330
,
0000
0000
0000
0000
,
M0M0
0000
0M00
000M
M000
0M00
00M0
M000
,
0M00
0000
M000
0000
00MM
0000
0M00
0000
000M
0000
M000
0000
0M00
0000
0000
0M0M
,
0000
0000
00M0
0000
M000
0000
000M
0000
0000
0000
0000
M0M0
0000
000M
0000
0000
,
0000
0MM0
M00M
0000
,
0000
00M0
0000
0000
,
0000
0000
0000
0000
0000
0000
0001
0000
0020
0000
0000
0230
0000
0000
1300
0000
,
1020
0000
0000
2030
0000
0000
3100
0000
0020
0000
0000
0032
0000
0000
0103
0000
,
0020
0000
0000
2030
0000
0000
3100
0000
0020
0000
0000
0032
0000
0000
0103
0000
,
0002
0000
0000
0023
0000
0000
0130
0000
2000
0000
0000
3020
0000
0000
0130
0000
,
0002
0000
0000
0023
0000
0000
0130
0000
2000
0000
0000
3020
0000
0000
0130
0000
,
0020
0000
0000
2030
0000
0000
3100
0000
0020
0000
0000
0032
0000
0000
0103
0000
,
0020
0000
0000
2030
0000
0000
3100
0000
0020
0000
0000
0032
0000
0000
0103
0000
,
0002
0000
0000
0023
0000
0000
0130
0000
2000
0000
0000
3020
0000
0000
0130
0000
,
0002
0000
0000
0023
0000
0000
0130
0000
2000
0000
0000
3200
0000
0000
0310
0000
,
0021
0000
0000
0230
0000
0000
1300
0000
0020
0000
0000
0230
0000
0000
0301
0000
,
0020
0000
0000
0230
0000
0000
1300
0000
0020
0000
0000
0230
0000
0000
0301
0000
,
0200
0000
0000
0320
0000
0000
1030
0000
0200
0000
0000
0320
0000
0000
0031
0000
,
0200
0000
0000
0320
0000
0000
1030
0000
0200
0000
0000
0320
0000
0000
0031
0000
,
0020
0000
0000
0230
0000
0000
1300
0000
0020
0000
0000
0230
0000
0000
0301
0000
,
0020
0000
0000
0230
0000
0000
1300
0000
0020
0000
0000
0230
0000
0000
0301
0000
,
0200
0000
0000
0320
0000
0000
1030
0000
0200
0000
0000
0320
0000
0000
0031
0000
,
0200
0000
0000
0320
0000
0000
1030
0000
0200
0000
0000
2300
0000
0000
3001
0000
,
0101
0000
0100
0010
0000
1000
0001
1000
0100
0000
0010
0001
0000
1000
0001
1000
,
0010
0000
0100
0001
0000
1000
0001
1000
0100
0000
0010
0001
0000
1000
0001
1000
,
0010
0000
0100
0001
0000
1000
0001
1000
0100
0000
0010
0001
0000
1000
0001
1000
,
0010
0000
0100
0001
0000
1000
0001
1000
0100
0000
0010
0001
0000
1000
0001
1000
,
0010
0000
0100
0001
0000
1000
0001
1000
0100
0000
0010
0001
0000
1000
0001
1000
,
0010
0000
0100
0001
0000
1000
0001
1000
0100
0000
0010
0001
0000
1000
0001
1000
,
0010
0100
0010
1000
0001
1000
0010
0100
0001
1000
0001
0010
0100
1000
0001
1000
,
0010
0100
0010
1000
0001
1000
0100
0010
0001
0100
0001
1000
0100
0010
0001
1000
,
0020
0000
0000
0230
0000
0301
1000
0000
0200
0000
0000
0320
0000
0031
1000
0000
,
0020
0000
0000
0230
0000
0301
1000
0000
0200
0000
0000
0320
0000
0031
1000
0000
,
0020
0000
0000
0230
0000
0301
1000
0000
0200
0000
0000
0320
0000
0031
1000
0000
,
0020
0000
0000
0230
0000
0301
1000
0000
0200
0000
0000
0320
0000
0031
1000
0000
,
0020
0000
0000
0130
0002
0000
0000
0013
0200
0000
0000
1300
0002
0000
0000
0013
,
0200
0000
0000
1300
0020
0000
0000
0130
0002
0000
0000
1003
0200
0000
0000
0310
,
0001
0010
0100
1000
0001
1000
0100
0010
0001
1000
0010
0100
0001
0010
0100
1000
,
0010
0100
0001
0010
0100
0010
0001
0100
0010
1000
0100
0010
0001
0010
0100
1000
,
0010
0000
0000
0000
,
0000
0000
0000
0000
0000
0000
2000
0000
3200
0000
0000
2300
0000
0000
3020
0000
,
0130
0001
1000
0100
0010
0001
1000
0001
0100
0010
1000
0001
1000
0010
0100
0001
,
0010
0100
1000
0010
1000
0100
0010
0001
0010
0001
0100
0010
1000
0001
0010
0100
,
1000
0010
0100
0001
0100
0010
1000
0100
0010
0001
1000
0100
1000
0001
0100
0010
,
1000
0010
0100
0001
0010
0100
1000
0010
0100
0001
1000
0100
1000
0001
0100
0010
,
1000
0100
0010
0001
0100
0010
1000
0010
1000
0010
0100
0001
0010
0100
1000
0100
,
0010
0001
1000
0100
0010
0100
1000
0001
0100
0010
1000
0001
1000
0010
0100
0001
,
0010
0100
1000
0100
0010
0001
0100
0001
1000
0100
1000
0001
0100
0010
1000
0001
,
0010
0100
1000
0010
1000
0100
0010
0001
0100
0010
1000
0100
1000
0010
0100
0001
,
0020
0030
0100
0000
1000
0000
0001
0000
1000
0000
0100
0000
0010
0000
0001
0000
0100
0000
0001
0000
0010
0000
0100
0000
1000
0000
0001
0000
0100
0000
0010
0000
,
1000
0010
0100
0001
0010
0100
1000
0100
1000
0100
0010
0001
0100
0010
1000
0001
,
0010
0001
0100
0010
1000
0100
0010
0100
1000
0001
0100
0010
1000
0001
1000
0010
,
0100
0001
0010
0100
1000
0010
0100
0001
0010
0001
0100
0010
1000
0100
0010
0001
,
0010
0100
1000
0010
1000
0100
0010
0001
0010
0001
0100
0010
1000
0100
0010
0100
,
1000
0001
0100
0010
1000
0010
0100
0001
0010
0100
1000
0001
0100
0010
1000
0010
,
0100
0001
1000
0001
0100
0010
1000
0100
0010
0100
1000
0001
0010
0100
1000
0010
,
0100
0001
1000
0100
1000
0010
0100
0001
0010
0001
0010
0000
0100
0000
1000
0000
,
0002
0003
0010
0000
0100
0000
1000
0000
0001
0000
1000
0000
0010
0000
0100
0000
0001
0000
0100
0000
0010
0000
1000
0000
0001
0000
1000
0000
0100
0000
0010
0000
,
0001
0010
0100
1000
0010
0100
0001
0100
0001
0100
0010
1000
0100
0010
0001
1000
,
0100
1000
0010
0100
0001
1000
0100
1000
0010
0100
0001
0010
0100
1000
0001
1000
,
0100
0010
0001
0100
0001
1000
0100
0010
0001
0100
0010
1000
0010
0100
0001
0010
,
0100
1000
0001
0010
0001
1000
0100
0010
0001
1000
0010
0100
0010
1000
0001
0010
,
0100
1000
0010
0100
0001
0100
0010
1000
0100
0010
0001
1000
0001
0010
0100
1000
,
0010
0100
0001
0100
0010
1000
0100
0010
0100
1000
0001
0010
0100
0010
0001
1000
,
0010
0100
0001
0010
0001
0100
0010
1000
0100
0010
0001
0100
0010
1000
0010
0100
,
0001
0100
0010
1000
0100
1000
0010
0100
0001
0010
0100
1000
0100
0010
0001
0100
,
0010
1000
0001
0010
0001
1000
0010
0100
0001
1000
0100
0010
0100
1000
0001
0100
,
0010
1000
0100
0010
0001
0100
0010
0100
0001
0010
0100
1000
0001
0100
0010
1000
,
0100
1000
0010
0100
0001
1000
0100
0010
0001
0010
0100
1000
0010
0100
0001
1000
,
0100
0010
0001
0100
0001
0010
0100
1000
0010
0100
0001
0010
0001
0100
0010
1000
,
0100
0010
0001
0100
0010
1000
0100
0010
0001
0010
0100
1000
0010
0100
0001
0010
,
0100
1000
0100
0010
0001
0010
0100
1000
0001
0100
0010
1000
0100
1000
0010
0100
,
0002
0003
0000
0000
0000
0000
0000
0000
1000
0000
0001
0000
0000
0000
0200
0000
0000
0000
0000
0000
0000
0000
0300
0000
0010
0000
0000
0000
0100
0000
0000
0000
,
0002
0003
0000
0000
1000
0000
0100
0000
0010
0000
0000
0000
0100
0000
1000
0000
0001
0000
0100
0000
0010
0000
1000
0000
0000
0000
0000
0000
0001
0000
1000
0000
,
0100
0000
0010
0001
1000
0000
0001
0010
0100
1000
0001
0100
0000
0000
0010
1000
,
0001
0000
1000
0010
0100
0000
0001
1000
0100
0010
0001
0100
0000
0000
0001
1000
,
0100
0000
0010
0001
1000
0000
0010
0100
0001
0100
0010
0000
1000
0000
0001
0000
,
0020
0030
0000
0000
0100
0000
1000
0000
0001
0000
0000
0000
0100
0000
0010
0000
1000
0000
0010
0000
0100
0000
0001
0000
0000
0000
0000
0000
1000
0000
0001
0000
,
0010
0000
0100
1000
0001
0000
1000
0100
0010
0001
1000
0010
0000
0000
0100
0001
,
1000
0000
0001
0100
0010
0000
1000
0001
0010
0100
1000
0010
0000
0000
1000
0001
,
0010
0000
0100
1000
0001
0000
0100
0010
1000
0000
0000
0001
0000
0000
1000
0000
,
0200
0300
0000
0000
0010
0000
0001
0000
0100
0000
0000
0000
0010
0000
1000
0000
0001
0000
0010
0000
0100
0000
1000
0000
0000
0000
0000
0000
0001
0000
0100
0000
,
0010
0000
1000
0100
0010
0000
0100
1000
0010
0100
0001
1000
0000
0000
0001
0100
,
0010
0000
1000
0100
0010
0000
0001
0010
0100
1000
0001
0100
0000
0000
0010
1000
,
0001
0000
1000
0100
0010
0000
0100
1000
0001
1000
0010
0000
0100
0000
0001
0000
,
0020
0030
0000
0000
0100
0000
1000
0000
0010
0000
0000
0000
0100
0000
0001
0000
1000
0000
0100
0000
0010
0000
0001
0000
0000
0000
0000
0000
1000
0000
0010
0000
,
0100
0000
0001
0010
0100
0000
0010
0001
1000
0010
0100
0001
0000
0000
1000
0100
,
0010
0000
0100
1000
0001
0000
0100
0010
1000
0100
0010
0001
0000
0000
0010
0100
,
1000
0000
0001
0100
0010
0000
1000
0001
0010
0100
1000
0001
0000
0000
0010
0001
,
2000
3000
0100
0000
0010
0000
0001
0000
0100
0000
0010
0000
1000
0000
0100
0000
0010
0000
0001
0000
0100
0000
0010
0000
1000
0000
0100
0000
0010
0000
0001
0000
,
0100
0010
1000
0100
0010
0001
0100
0010
1000
0100
0010
0001
0100
0010
1000
0100
,
0010
0001
0100
0010
1000
0100
0010
0001
0100
0010
1000
0100
0010
0001
0100
0010
,
1000
0100
0010
0001
0100
0010
1000
0100
0010
0001
0100
0010
1000
0100
0010
0001
,
0200
0300
0010
0000
1000
0000
0100
0000
0010
0000
0001
0000
0100
0000
0010
0000
1000
0000
0100
0000
0010
0000
0001
0000
0100
0000
0010
0000
1000
0000
0100
0000
,
0010
0001
0100
0010
1000
0100
0010
0001
0100
0010
1000
0100
0010
0001
0100
0010
,
1000
0100
0010
0001
0100
0010
1000
0100
0010
0001
0100
0010
1000
0100
0010
0001
,
0100
0010
1000
0100
0010
0001
0100
0010
1000
0100
0010
0001
0100
0010
1000
0001
,
2000
3000
0010
0000
0100
0000
0001
0000
0010
0000
0100
0000
1000
0000
0010
0000
0100
0000
0001
0000
0010
0000
0100
0000
1000
0000
0010
0000
0100
0000
0001
0000
,
0010
0100
1000
0010
0100
0001
0010
0100
1000
0010
0100
0001
0010
0100
1000
0010
,
0100
0001
0010
0100
1000
0010
0100
0001
0010
0100
1000
0010
0100
0001
0010
0100
,
1000
0010
0100
0001
0010
0100
1000
0010
0100
0001
0010
0100
1000
0010
0100
0001
,
0020
0030
0100
0000
1000
0000
0010
0000
0100
0000
0001
0000
0100
0000
0010
0000
1000
0000
0001
0000
1000
0000
0100
0000
0010
0000
0001
0000
1000
0000
0001
0000
,
0100
0010
1000
0001
0010
0100
1000
0010
0100
0001
0010
0100
1000
0100
0010
0001
,
0100
0010
1000
0100
1000
0010
0100
0001
0010
0100
1000
0010
0100
0001
0010
0001
,
0200
0300
0000
0000
0000
0000
0000
0000
0000
0000
0000
0000
0002
0000
0000
0000
0023
0000
0000
0000
0000
0000
0032
0000
0000
0000
0000
0000
1003
0000
0000
0000
,
0020
0030
0100
0000
0001
0000
0010
0000
0001
0000
0100
0000
0010
0000
1000
0000
0010
0000
1000
0000
0001
0000
0010
0000
0100
0000
1000
0000
0010
0000
0100
0000
,
0001
1000
0100
1000
0001
0100
0001
1000
0001
1000
0100
0010
0001
1000
0010
0100
,
0001
1000
0100
1000
0001
0100
0001
1000
0001
1000
0100
0010
0001
1000
0010
1000
,
0100
0010
0001
0100
0001
0010
0100
1000
0010
0100
0001
1000
0001
0100
0010
1000
,
0001
0010
0001
1000
0010
1000
0001
0010
0001
0010
0100
1000
0001
1000
0100
0010
,
0001
0100
0001
1000
0100
1000
0001
0100
0001
0100
0010
1000
0010
0100
0001
1000
,
0100
1000
0001
0100
0001
1000
0100
0010
0100
1000
0001
0100
0001
1000
0100
1000
,
0010
0100
0001
1000
0001
0100
0010
1000
0100
0010
0001
0100
0001
0010
0100
1000
,
0020
0030
0100
0000
0001
0000
0010
0000
0001
0000
0100
0000
0010
0000
1000
0000
0010
0000
1000
0000
0001
0000
0010
0000
0100
0000
1000
0000
0010
0000
0100
0000
,
0001
1000
0100
1000
0001
0100
0001
1000
0001
1000
0100
0010
0001
1000
0010
0100
,
0001
1000
0100
1000
0001
0100
0001
1000
0001
1000
0100
0010
0001
1000
0010
1000
,
0100
0010
0001
0100
0001
0010
0100
1000
0010
0100
0001
1000
0001
0100
0010
1000
,
0001
0010
0001
1000
0010
1000
0001
0010
0001
0010
0100
1000
0001
1000
0100
0010
,
0001
0100
0001
1000
0100
1000
0001
0100
0001
0100
0010
1000
0010
0100
0001
1000
,
0100
1000
0001
0100
0001
1000
0100
0010
0100
1000
0001
0100
0001
1000
0100
1000
,
0010
0100
0001
1000
0001
0100
0010
1000
0100
0010
0001
0100
0001
0010
0100
1000
,
0020
0030
0100
0000
0001
0000
0010
0000
0001
0000
0100
0000
0010
0000
1000
0000
0010
0000
1000
0000
0001
0000
0010
0000
0100
0000
1000
0000
0010
0000
0100
0000
,
0001
1000
0100
1000
0001
0100
0001
1000
0001
1000
0100
0010
0001
1000
0010
0100
,
0001
1000
0100
1000
0001
0100
0001
1000
0001
1000
0100
0010
0001
1000
0010
1000
,
0100
0010
0001
0100
0001
0010
0100
1000
0010
0100
0001
1000
0001
0100
0010
1000
,
0001
0010
0001
1000
0010
1000
0001
0010
0001
0010
0100
1000
0001
1000
0100
0010
,
0001
0100
0001
1000
0100
1000
0001
0100
0001
0100
0010
1000
0010
0100
0001
1000
,
0100
1000
0001
0100
0001
1000
0100
0010
0100
1000
0001
0100
0001
1000
0100
1000
,
0010
0100
0001
1000
0001
0100
0010
1000
0100
0010
0001
0100
0001
0010
0100
1000
,
0020
0030
0100
0000
0001
0000
0010
0000
0001
0000
0100
0000
0010
0000
1000
0000
0010
0000
1000
0000
0001
0000
0010
0000
0100
0000
1000
0000
0010
0000
0100
0000
,
0001
1000
0100
1000
0001
0100
0001
1000
0001
1000
0100
0010
0001
1000
0010
0100
,
0001
1000
0100
1000
0001
0100
0001
1000
0001
1000
0100
0010
0001
1000
0010
1000
,
0100
0010
0001
0100
0001
0010
0100
1000
0010
0100
0001
1000
0001
0100
0010
1000
,
0001
0010
0001
1000
0010
1000
0001
0010
0001
0010
0100
1000
0001
1000
0100
0010
,
0001
0100
0001
1000
0100
1000
0001
0100
0001
0100
0010
1000
0010
0100
0001
1000
,
0100
1000
0001
0100
0001
1000
0100
0010
0100
1000
0001
0100
0001
1000
0100
1000
,
0010
0100
0001
1000
0001
0100
0010
1000
0100
0010
0001
0100
0001
0010
0100
1000
,
0020
0030
0100
0000
0001
0000
1000
0000
0001
0000
0100
0000
0010
0000
1000
0000
0100
0000
0010
0000
0001
0000
1000
0000
0001
0000
0010
0000
0100
0000
1000
0000
,
0010
0100
0001
0010
0001
0100
0010
1000
0010
1000
0100
0010
0001
1000
0010
0100
,
0001
0010
0100
1000
0100
0010
0001
0100
0010
1000
0001
0100
0001
1000
0100
0010
,
0001
0010
0100
1000
0010
0100
0001
0010
0100
1000
0001
0100
0001
1000
0100
0010
,
0001
0100
0010
1000
0100
0010
0001
0010
0001
0010
0100
1000
0010
0100
0001
0100
,
0010
1000
0001
0100
0010
0100
0001
1000
0100
0010
0001
1000
0001
0010
0100
1000
,
0010
0100
0001
0100
0010
1000
0100
1000
0001
0100
0001
1000
0100
0010
0001
1000
,
0010
0100
0001
0010
0001
0100
0010
1000
0100
0010
0001
0100
0001
0010
0100
1000
,
0020
0030
0100
0000
0001
0000
1000
0000
0001
0000
0100
0000
0010
0000
1000
0000
0100
0000
1000
0000
0010
0000
0100
0000
0001
0000
1000
0000
0100
0000
0010
0000
,
0001
0010
0100
1000
0010
0100
0001
0100
0001
0100
0010
1000
0100
0010
0001
1000
,
0010
1000
0100
0010
0001
0100
0010
0100
0001
1000
0100
0010
0001
1000
0001
0010
,
0100
1000
0010
0100
0001
0010
0100
1000
0010
1000
0100
0010
0001
0100
0010
1000
,
0010
0100
0001
0010
0001
0100
0010
1000
0010
1000
0100
0010
0001
0100
0010
0100
,
0001
1000
0100
0010
0001
0010
0100
1000
0010
0100
0001
1000
0100
0010
0001
0010
,
0100
1000
0001
1000
0100
0010
0001
0100
0010
0100
0001
1000
0010
0100
0001
0010
,
0100
1000
0001
0100
0001
0010
0100
1000
0010
1000
0010
0100
0001
0100
0010
1000
,
0002
0003
0010
0000
0100
0000
1000
0000
0001
0000
1000
0000
0010
0000
0100
0000
0001
0000
0100
0000
0010
0000
1000
0000
0001
0000
1000
0000
0100
0000
0010
0000
,
0001
0010
0100
1000
0010
0100
0001
0100
0001
0100
0010
1000
0100
0010
0001
1000
,
0100
1000
0010
0100
0001
1000
0100
1000
0010
0100
0001
0010
0100
1000
0001
1000
,
0100
0010
0001
0100
0001
1000
0100
0010
0001
0100
0010
1000
0010
0100
0001
0010
,
0100
1000
0001
0010
0001
1000
0100
0010
0001
1000
0010
0100
0010
1000
0001
0010
,
0100
1000
0010
0100
0001
0100
0010
1000
0100
0010
0001
1000
0001
0010
0100
1000
,
0010
0100
0001
0100
0010
1000
0100
0010
0100
1000
0001
0010
0100
0010
0001
1000
,
0010
0100
0001
0010
0001
0100
0010
1000
0100
0010
0001
0100
0010
1000
0010
0100
,
0001
0100
0010
1000
0100
1000
0010
0100
0001
0010
0100
1000
0100
0010
0001
0100
,
0010
1000
0001
0010
0001
1000
0010
0100
0001
1000
0100
0010
0100
1000
0001
0100
,
0010
1000
0100
0010
0001
0100
0010
0100
0001
0010
0100
1000
0001
0100
0010
1000
,
0100
1000
0010
0100
0001
1000
0100
0010
0001
0010
0100
1000
0010
0100
0001
1000
,
0100
0010
0001
0100
0001
0010
0100
1000
0010
0100
0001
0010
0001
0100
0010
1000
,
0100
0010
0001
0100
0010
1000
0100
0010
0001
0010
0100
1000
0010
0100
0001
0010
,
0100
1000
0100
0010
0001
0010
0100
1000
0010
0100
0001
0010
0100
1000
0010
0100
,
0002
0003
0000
0000
0000
0000
0000
0000
1000
0000
0001
0000
0000
0000
0200
0000
0000
0000
0000
0000
0000
0000
0300
0000
0010
0000
0000
0000
0100
0000
0000
0000
,
0102
0003
0000
0000
0200
0000
0000
0000
0010
0000
0000
0300
0200
0000
0000
0000
0001
0000
0000
0300
0200
0000
0000
0000
0010
0000
0000
0300
0200
0000
0000
0000
,
0301
0000
0000
0000
2000
0000
0000
0000
0100
0000
0000
3000
2000
0000
0000
0000
0001
0000
0000
3000
2000
0000
0000
0000
0100
0000
0000
3000
2000
0000
0000
0000
,
3010
0000
0000
0000
0200
0000
0000
0000
0001
0000
0000
0300
0200
0000
0000
0000
0010
0000
0000
0300
0200
0000
0000
0000
0001
0000
0000
0300
0200
0000
0000
0300
,
0010
0000
0000
0000
2000
0000
0000
0000
0100
0000
0000
3000
2000
0000
0000
0000
3010
0000
1000
0000
0010
0000
0000
0000
1000
0000
0000
0000
0100
0000
0000
0000
,
2100
3000
0000
0000
0200
0000
0000
0000
0010
0000
0000
0300
0200
0000
0000
0000
1000
0000
0000
0300
0200
0000
0000
0000
0010
0000
0000
0300
0200
0000
0000
0000
,
1300
0000
0000
0000
0002
0000
0000
0000
0100
0000
0000
0003
0002
0000
0000
0000
1000
0000
0000
0003
0002
0000
0000
0000
0100
0000
0000
0003
0002
0000
0000
0000
,
1003
0000
0000
0000
0200
0000
0000
0000
0010
0000
0000
0300
0200
0000
0000
0000
1000
0000
0000
0300
0200
0000
0000
0000
0010
0000
0000
0300
0200
0000
0000
0000
,
1300
0000
0000
0000
0200
0000
0000
0000
0010
0000
0000
0300
0200
0000
0000
0000
1000
0000
0000
0300
0200
0000
0010
0000
0300
0000
0000
0000
0001
0000
0000
0000
,
2010
3000
0000
0000
0020
0000
0000
0000
0100
0000
0000
0030
0020
0000
0000
0000
1000
0000
0000
0030
0020
0000
0000
0000
0100
0000
0000
0030
0020
0000
0000
0000
,
1030
0000
0000
0000
0002
0000
0000
0000
0010
0000
0000
0003
0002
0000
0000
0000
1000
0000
0000
0003
0002
0000
0000
0000
0010
0000
0000
0003
0002
0000
0000
0000
,
1003
0000
0000
0000
0200
0000
0000
0000
0010
0000
0000
0300
0200
0000
0000
0000
1000
0000
0000
0300
0200
0000
0000
0000
0010
0000
0000
0300
0200
0000
0000
0000
,
1300
0000
0000
0000
0020
0000
0000
0000
0100
0000
0000
0030
0020
0000
0000
0000
1030
0000
0100
0000
1000
0000
0000
0000
0001
0000
0000
0000
0100
0000
0000
0000
,
1020
0030
0000
0000
2000
0000
0000
0000
0001
0000
0000
3000
2000
0000
0000
0000
0010
0000
0000
3000
2000
0000
0000
0000
0001
0000
0000
3000
2000
0000
0000
0000
,
3100
0000
0000
0000
0020
0000
0000
0000
0001
0000
0000
0030
0020
0000
0000
0000
0100
0000
0000
0030
0020
0000
0000
0000
0001
0000
0000
0030
0020
0000
0000
0000
,
0130
0000
0000
0000
2000
0000
0000
0000
0001
0000
0000
3000
2000
0000
0000
0000
0100
0000
0000
3000
2000
0000
0000
0000
0001
0000
0000
3000
2000
0000
0000
0000
,
3100
0000
0000
0000
2000
0000
0000
0000
0010
0000
0000
3000
2000
0000
0000
0000
0100
0000
0000
3000
0000
0000
0010
0000
0000
0000
0000
0000
0001
0000
0000
0000
,
1002
0003
0000
0000
1000
0000
0000
0000
0100
0000
0000
0000
1000
0000
0000
0000
0000
0000
0000
0000
0001
0000
0000
0000
0100
0000
0000
0000
0001
0000
0000
0000
,
0000
1000
0010
1000
0000
0001
0010
0001
,
0000
0100
0010
0100
0000
0001
0010
0001
,
0000
0100
0010
1000
0000
0001
1000
0100
,
0210
0300
0000
0000
0010
0000
0000
0000
0001
0000
0000
0000
0010
0000
0000
0000
0000
0000
0000
0000
0100
0000
0000
0000
1000
0000
0000
0000
0100
0000
0000
0000
,
0000
1000
0001
1000
0000
0010
1000
0010
,
0000
0100
0001
0100
0000
0010
1000
0010
,
0000
1000
0100
0010
0000
0001
0100
0010
,
1020
0030
0000
0000
1000
0000
0000
0000
0001
0000
0000
0000
1000
0000
0000
0000
0000
0000
0000
0000
0001
0000
0000
0000
0010
0000
0000
0000
0001
0000
0000
0000
,
0000
0100
0010
0100
0000
0001
1000
0001
,
0000
1000
0100
1000
0000
0001
0100
0001
,
0000
0010
0100
1000
0000
0001
0100
0010
,
2000
3000
0010
0000
1000
0000
0010
0000
0100
0000
0001
0000
1000
0000
0001
0000
0100
0000
0010
0000
0100
0000
0010
0000
1000
0000
0001
0000
0010
0000
0001
0000
,
1000
0100
1000
0100
0010
0001
1000
0001
0010
0100
0010
0100
1000
0001
1000
0010
,
0100
0001
1000
0100
0010
0100
1000
0001
0100
0010
1000
0100
0010
0001
0100
0010
,
2000
0000
0000
0000
,
0000
0000
0000
3000
;

//---------------dance-double - T. Prag (v2 DX17)----------------
#NOTES:
     dance-double:
     T. Prag (v2 DX17):
     Challenge:
     17:
     1.000,1.000,0.117,0.278,1.000,3721.000,46.000,109.000,0.000,0.000:
00000000
00000000
00000000
00000000
,
00000000
00000000
00000000
00000000
,
00000000
00000000
00000000
00000000
,
00000000
00000000
00000000
00000000
,
00000000
00000000
00000000
00000000
,
00000000
00000000
00000000
00000000
,
00000000
00000000
00000000
00000000
,
00000000
00000000
00000000
00000000
,
00000000
00010000
00000010
00001000
00000000
00000100
00010000
00001000
,
00000000
00010000
00001000
01000000
00000000
00010000
00100000
00001000
,
00000000
00010000
00001000
01000000
00000000
00010000
10000000
00010000
,
00000000
00100000
00001000
00010000
00000000
00000100
00001000
00000100
,
00000000
00010000
00000010
00001000
00000000
00000001
00000100
00000001
,
00000000
00001000
00000100
00010000
00000000
00001000
00100000
00001000
,
00000000
00010000
00000010
00001000
00000000
00000100
00010000
00001000
,
00400000
00000000
00000000
00000000
,
00310000
10000000
10100000
00100000
01000000
00010000
10010000
10000000
,
01000000
00100000
00110000
00010000
01000000
00001000
00011000
00010000
,
00010000
00000010
00001010
00001000
00000001
00000010
00000110
00000100
,
00001000
00000000
00000010
00000000
00010010
00000000
00010000
00000000
00001000
00100000
00010000
00000000
00110000
00000000
00100000
00000000
,
00000020
00000030
00010000
00000000
00011000
00000000
00001000
00000000
01000000
00000000
00010000
00000000
01010000
00000000
01000000
00000000
,
00100000
10000000
10010000
00010000
00100000
00001000
00011000
00010000
,
00010000
00000100
00001100
00001000
00000010
00000100
00000101
00000001
,
00001000
00000000
00000100
00000000
00010100
00000000
00010000
00000000
00001000
01000000
00010000
00000000
01010000
00000000
01000000
00000000
,
00000200
00000300
01000000
00000000
01001000
00000000
00001000
00000000
00010000
00000000
00000100
00000000
00001100
00000000
00001000
00000000
,
00000001
00000100
00000110
00000010
00001000
00000100
00010100
00010000
,
00010000
00001000
01001000
01000000
00010000
10000000
11000000
01000000
,
00100000
00000000
00010000
00000000
10010000
00000000
10000000
00000000
00100000
01000000
00010000
00000000
01010000
00000000
01000000
00000000
,
02002000
00000000
03003000
00000000
00001000
01000000
00001000
01000000
00010000
01000000
00010000
01000000
00100000
10000000
00100000
10000000
,
00010000
10000000
00010000
10000000
01000000
00100000
00010000
10000000
00010000
00100000
00001000
00010000
00001000
01000000
00010000
01000000
,
00001000
00010000
00001000
00010000
00000010
00001000
00000010
00001000
00000001
00001000
00000100
00000010
00000001
00001000
00000100
00010000
,
00001000
00010000
00000010
00001000
00000010
00010000
00001000
01000000
00020000
00000000
00000000
00000000
00000000
00000000
00000000
00000000
,
10030000
00100000
10000000
00010000
01000000
00010000
00100000
00010000
01000000
00001000
00010000
00000010
00001000
00000010
00010000
00001000
,
00010000
00000100
00001000
00000010
00000100
00000010
00001000
00000001
00000100
00000010
00001000
00000001
00001000
00000100
00000010
00000100
,
00001000
00000010
00010000
00001000
00010000
00001000
00100000
00010000
00100000
01000000
10000000
00100000
01000000
00010000
01000000
00001000
,
00010000
00001000
00100000
00010000
01000000
00010000
00100000
00001000
00010000
00000010
00001000
00000100
00001000
00000010
00010000
00001000
,
01000000
00010000
01000000
00100000
10000000
00010000
00100000
00001000
00010000
00001000
01000000
00010000
00100000
00010000
01000000
00001000
,
00010000
00000100
00001000
00000010
00001000
00000100
00000010
00000001
00001000
00000001
00000100
00000010
00001000
00000010
00000100
00000001
,
00001000
00000001
00000010
00000100
00001000
00000100
00010000
00001000
00100000
00001000
00010000
00001000
01000000
00010000
01000000
00100000
,
10000000
00010000
01000000
00010000
10000000
00010000
00100000
01000000
10000000
00010000
10000000
00100000
01000000
00010000
00100000
00001000
,
00100000
00010000
10000000
00010000
00100000
00010000
01000000
00010000
00100000
00001000
00010000
00000100
00001000
00000100
00010000
00001000
,
00010000
00000010
00001000
00000100
00000010
00000100
00001000
00000001
00000010
00000100
00001000
00000001
00001000
00000010
00000100
00000010
,
00001000
00000100
00010000
00001000
00010000
00001000
01000000
00010000
01000000
00100000
10000000
01000000
00100000
00010000
00100000
00001000
,
00010000
00001000
01000000
00010000
00100000
00010000
01000000
00001000
00010000
00000100
00001000
00000010
00001000
00000100
00010000
00001000
,
00100000
00010000
00100000
01000000
10000000
00010000
01000000
00001000
00010000
00001000
00100000
00010000
01000000
00010000
00100000
00001000
,
00010000
00000010
00001000
00000100
00001000
00000010
00000100
00000001
00001000
00000001
00000010
00000100
00001000
00000100
00000010
00000001
,
00001000
00000001
00000100
00000010
00001000
00000010
00010000
00001000
01000000
00001000
00010000
00001000
00100000
00010000
00100000
01000000
,
10000000
00010000
00100000
00010000
10000000
00010000
01000000
00100000
10000000
00010000
10000000
01000000
00100000
00010000
01000000
00001000
,
00010000
00000100
00001000
00000010
00000100
00000010
00001000
00000001
00001000
00000100
00010000
00000010
00001000
00000010
00010000
00001000
,
01000000
00010000
01000000
00001000
00100000
00010000
01000000
00100000
10000000
00100000
01000000
00010000
10000000
00010000
00100000
01000000
,
10000000
00010000
01000000
00001000
00010000
00001000
00100000
00010000
01000000
00001000
00010000
00001000
00010000
00000100
00001000
00000100
,
00000010
00000001
00001000
00000010
00000100
00000010
00001000
00000100
00010000
00001000
00100000
00010000
00100000
00001000
01000000
00010000
,
10000000
00100000
01000000
00010000
10000000
00010000
00100000
00001000
00010000
00001000
01000000
00010000
00100000
00001000
00010000
00000100
,
00001000
00000100
00000010
00000001
00001000
00000010
00000100
00000010
00001000
00000001
00000100
00000001
00001000
00000100
00010000
00001000
,
00010000
00000100
00010000
00001000
00100000
00010000
01000000
00100000
01000000
00010000
00100000
01000000
10000000
00010000
00100000
00010000
,
10000000
00010000
01000000
00100000
01000000
00010000
00100000
00001000
00010000
00000100
00001000
00000010
00001000
00000100
00010000
00001000
,
00010000
00000010
00001000
00000100
00000010
00000100
00001000
00000001
00001000
00000010
00010000
00000100
00001000
00000100
00010000
00001000
,
00100000
00010000
00100000
00001000
01000000
00010000
00100000
01000000
10000000
01000000
00100000
00010000
10000000
00010000
01000000
00100000
,
10000000
00010000
00100000
00001000
00010000
00001000
01000000
00010000
00100000
00001000
00010000
00001000
00010000
00000010
00001000
00000010
,
00000100
00000001
00001000
00000100
00000010
00000100
00001000
00000010
00010000
00001000
01000000
00010000
01000000
00001000
00100000
00010000
,
10000000
01000000
00100000
00010000
10000000
00010000
01000000
00001000
00010000
00001000
00100000
00010000
01000000
00001000
00010000
00000010
,
00001000
00000010
00000100
00000001
00001000
00000100
00000010
00000100
00001000
00000001
00000010
00000001
00001000
00000010
00010000
00001000
,
00010000
00000010
00010000
00001000
01000000
00010000
00100000
01000000
00100000
00010000
01000000
00100000
10000000
00010000
01000000
00010000
,
10000000
00000000
00000000
10000000
00000000
00000000
01000000
00100000
00010000
00000000
00000000
00010000
00000000
01000000
00000000
00000000
,
01001000
00000000
00001000
00010000
00000100
00000000
00001000
00000100
00000010
00000001
00001000
00000010
00000000
00000000
00000100
00000010
,
00001000
00000000
00000010
00010000
00001000
00000000
00010000
00001000
00100000
00010000
01000000
00010000
00000000
00000000
10000000
00100000
,
01000000
00000000
00010000
01000000
00001000
00000000
00010000
00001000
00010000
00000100
00001000
00000010
00000000
00000000
00000100
00000001
,
00001000
00000000
00000100
00010000
00001000
00000000
00010000
00001000
00100000
00010000
00100000
00000000
00101000
00000000
00001000
00000000
,
01000000
00000000
00010000
01000000
00100000
00000000
10000000
00100000
01000000
00010000
00100000
00001000
00000000
00000000
00010000
00000100
,
00001000
00000000
00000100
00010000
00001000
00000000
00010000
00000010
00001000
00000010
00000100
00000001
00000000
00000000
00000010
00000100
,
00001000
00000000
00000100
00010000
00001000
00000000
00010000
00001000
01000000
00010000
01000000
00100000
00000000
00000000
10000000
00010000
,
00100000
00000000
00001000
00100000
00010000
00000000
01000000
00001000
00010000
00001000
00010000
00000000
00010100
00000000
00000100
00000000
,
00001000
00000000
00000001
00000010
00000100
00000000
00001000
00000010
00000100
00000001
00000010
00000100
00000000
00000000
00001000
00000100
,
00010000
00000000
00001000
00010000
00000100
00000000
00010000
00001000
00100000
00010000
01000000
00100000
00000000
00000000
01000000
00010000
,
10000000
00000000
00010000
00100000
00001000
00000000
00010000
00001000
01000000
00010000
00100000
00001000
00000000
00000000
00010000
00000100
,
00001000
00000000
00000100
00001000
00000010
00000000
00000100
00000010
00001000
00000001
00001000
00000000
00001100
00000000
00000100
00000000
,
00001000
00000100
00010000
00000100
00001000
00000001
00000010
00000100
00001000
00000010
00010000
00001000
00010000
00001000
00100000
00010000
,
00100000
01000000
10000000
00010000
01000000
00100000
01000000
00010000
10000000
00100000
01000000
00010000
01000000
00001000
00010000
00001000
,
00010000
00000100
00001000
00000100
00000010
00000001
00001000
00000010
00000100
00000010
00001000
00000001
00001000
00000100
00010000
00001000
,
00020000
00000000
00000000
00000000
00000000
00000000
00000000
00000000
00031000
00000000
00000000
01000000
00000000
00000000
00001000
00000000
,
00010000
00001000
00100000
00010000
01000000
00001000
00010000
00001000
00100000
00010000
01000000
00001000
00010000
00001000
00100000
00010000
,
01000000
00001000
00010000
00001000
00100000
00010000
01000000
00001000
00010000
00001000
00100000
00010000
01000000
00001000
00010000
00001000
,
00100000
00010000
01000000
00001000
00010000
00001000
00100000
00010000
01000000
00001000
00010000
00001000
00100000
00010000
01000000
00001000
,
00010000
00001000
00100000
00010000
01000000
00001000
00010000
00001000
00100000
00010000
01000000
00001000
00010000
00001000
00100000
00010000
,
01000000
00001000
00010000
00001000
00100000
00010000
01000000
00001000
00010000
00001000
00100000
00010000
01000000
00001000
00010000
00001000
,
00100000
00010000
01000000
00001000
00010000
00001000
00100000
00010000
01000000
00001000
00010000
00001000
00100000
00010000
01000000
00001000
,
00010000
00001000
00100000
00010000
01000000
00001000
00010000
00001000
00100000
00010000
01000000
00001000
00010000
00001000
00100000
00010000
,
01000000
00001000
00010000
00001000
00100000
00010000
01000000
00001000
00010000
00001000
00100000
00010000
01000000
00001000
00010000
00000100
,
00010000
00001000
01000000
00010000
00100000
00001000
00010000
00001000
01000000
00010000
00100000
00001000
00010000
00001000
01000000
00010000
,
00100000
00001000
00010000
00001000
01000000
00010000
00100000
00001000
00010000
00001000
01000000
00010000
00100000
00001000
00010000
00001000
,
01000000
00010000
00100000
00001000
00010000
00001000
01000000
00010000
00100000
00001000
00010000
00001000
01000000
00010000
00100000
00001000
,
00010000
00001000
01000000
00010000
00100000
00001000
00010000
00001000
01000000
00010000
00100000
00001000
00010000
00001000
01000000
00010000
,
00100000
00001000
00010000
00001000
01000000
00010000
00100000
00001000
00010000
00001000
01000000
00010000
00100000
00001000
00010000
00001000
,
01000000
00010000
00100000
00001000
00010000
00001000
01000000
00010000
00100000
00001000
00010000
00001000
01000000
00010000
00100000
00001000
,
00010000
00001000
01000000
00010000
00100000
00001000
00010000
00001000
01000000
00010000
00100000
00001000
00010000
00001000
01000000
00010000
,
00100000
00001000
00010000
00001000
01000000
00010000
00100000
00001000
00010000
00001000
01000000
00010000
00100000
00001000
00010000
00001000
,
02000000
00000000
00000000
00000000
,
00000000
00000000
00000000
03000000
,
00020200
00000000
00000000
00030300
,
00000000
00000000
00000000
00000000
,
00000000
00000000
00000000
00000000
,
00000000
00000000
00000000
00000000
,
00000000
00000000
00000000
00000000
,
00000000
00000000
00000000
00000000
,
00000000
00000000
00000000
00000000
,
00000000
00000000
00000000
00000000
00000000
00000000
00000100
00000000
00020000
00000000
00000000
00030020
00000000
00000000
00001030
00000000
,
00002001
00000000
00000000
00003002
00000000
00000000
00000013
00000000
00000200
00000000
00000000
00002300
00000000
00000000
00003010
00000000
,
00000200
00000000
00000000
00000302
00000000
00000000
00000013
00000000
00000200
00000000
00000000
00002300
00000000
00000000
00003010
00000000
,
00020000
00000000
00000000
00032000
00000000
00000000
00103000
00000000
00002000
00000000
00000000
00023000
00000000
00000000
00030010
00000000
,
00020000
00000000
00000000
00032000
00000000
00000000
00103000
00000000
00002000
00000000
00000000
00023000
00000000
00000000
00030010
00000000
,
00020000
00000000
00000000
00032000
00000000
00000000
00103000
00000000
00020000
00000000
00000000
02030000
00000000
00000000
03001000
00000000
,
00020000
00000000
00000000
00032000
00000000
00000000
00103000
00000000
00020000
00000000
00000000
02030000
00000000
00000000
03001000
00000000
,
00200000
00000000
00000000
02300000
00000000
00000000
13000000
00000000
00200000
00000000
00000000
02300000
00000000
00000000
03010000
00000000
,
00200000
00000000
00000000
02300000
00000000
00000000
13000000
00000000
00020000
00000000
00000000
02030000
00000000
00000000
03010000
00000000
,
10020000
00000000
00000000
20030000
00000000
00000000
31000000
00000000
00200000
00000000
00000000
00320000
00000000
00000000
01030000
00000000
,
00200000
00000000
00000000
20300000
00000000
00000000
31000000
00000000
00200000
00000000
00000000
00320000
00000000
00000000
01030000
00000000
,
00002000
00000000
00000000
00023000
00000000
00000000
00030100
00000000
00020000
00000000
00000000
00032000
00000000
00000000
01003000
00000000
,
00002000
00000000
00000000
00023000
00000000
00000000
00030100
00000000
00020000
00000000
00000000
00032000
00000000
00000000
01003000
00000000
,
00002000
00000000
00000000
00023000
00000000
00000000
00030100
00000000
00002000
00000000
00000000
00003020
00000000
00000000
00010030
00000000
,
00002000
00000000
00000000
00023000
00000000
00000000
00030100
00000000
00002000
00000000
00000000
00003020
00000000
00000000
00010030
00000000
,
00000200
00000000
00000000
00000320
00000000
00000000
00000031
00000000
00000200
00000000
00000000
00000320
00000000
00000000
00001030
00000000
,
00000200
00000000
00000000
00000320
00000000
00000000
00000031
00000000
00002000
00000000
00000000
00003020
00000000
00000000
00001030
00000000
,
00002001
00000000
00003001
00000010
00000000
00000100
00001000
00000100
00010000
00000000
00001000
00100000
00000000
00010000
00100000
00010000
,
10000000
00000000
00100000
10000000
00000000
00100000
01000000
00010000
01000000
00000000
00001000
00010000
00000000
00000010
00010000
00000010
,
00001000
00000000
00000001
00001000
00000000
00000100
00001000
00000100
00010000
00000000
00001000
00010000
00000000
00000010
00001000
00000010
,
00010000
00000000
00001000
00100000
00000000
00010000
00100000
00001000
00010000
00000000
00001000
01000000
00000000
00010000
01000000
00001000
,
00010000
00000000
00000010
00001000
00000000
00000010
00001000
00000100
00001000
00000000
00000100
00010000
00000000
00001000
00010000
00001000
,
00100000
00000000
00010000
01000000
00000000
00010000
01000000
00001000
01000000
00000000
00010000
00100000
00000000
00001000
00010000
00001000
,
00010000
00000100
00010000
00001000
01000000
00010000
01000000
00100000
10000000
00010000
10000000
00010000
00100000
01000000
10000000
00010000
,
01000000
00100000
10000000
00010000
00100000
00001000
00010000
00001000
00100000
00010000
00100000
00001000
00010000
00000100
00001000
00000010
,
00020000
00000000
00000000
00032000
00000000
00000000
00103000
00000000
00002000
00000000
00000000
00023000
00000000
00000000
00030010
00000000
,
00020000
00000000
00000000
00032000
00000000
00000000
01003000
00000000
00002000
00000000
00000000
00023000
00000000
00000000
00030100
00000000
,
00002000
00000000
00000000
00003020
00000000
00000000
00000130
00000000
00000002
00000000
00000000
00002003
00000000
00000000
00003100
00000000
,
00020000
00000000
00000000
00032000
00000000
00000000
00103000
00000000
00020000
00000000
00000000
02030000
00000000
00000000
03100000
00000000
,
20000000
00000000
30100000
01000000
00020000
00000000
00130000
01000000
20000000
00000000
30100000
01000000
00020000
00000000
00130000
00001000
,
00020000
00000000
00030100
00001000
00000002
00000000
00000103
00000010
00002000
00000000
00003100
00000010
00000002
00000000
00000103
00000010
,
00001000
00000001
00001000
00000001
00001000
00000100
00001000
00000100
00010000
00001000
00010000
00001000
00100000
00010000
00100000
00010000
,
01000000
00100000
10000000
01000000
00100000
00010000
01000000
00001000
00100000
00010000
01000000
00001000
00010000
00000010
00001000
00000100
,
00010000
00000000
00000000
00000000
,
00000000
00000000
00000000
00000000
00000000
00000000
00002000
00000000
00023000
00000000
00000000
00030020
00000000
00000000
00020030
00000000
,
00031000
01000000
00010000
01000000
00001000
01000000
00010000
10000000
00100000
10000000
01000000
00100000
00010000
01000000
00010000
00100000
,
00001000
00010000
00001000
01000000
00010000
00100000
00001000
00010000
00000100
00001000
00000100
00010000
00000010
00001000
00000010
00010000
,
00001000
00010000
00000100
00001000
00000100
00000010
00000001
00001000
00000001
00000100
00000010
00001000
00000100
00000010
00000001
00000100
,
00000010
00001000
00000010
00010000
00001000
00010000
00000100
00001000
00000100
00010000
00000010
00010000
00001000
00010000
00000010
00001000
,
00000100
00010000
00001000
00010000
00000100
00010000
00001000
00100000
00010000
00100000
00001000
01000000
00010000
01000000
00100000
10000000
,
00010000
10000000
01000000
00100000
00010000
10000000
01000000
00100000
00010000
01000000
00001000
00010000
00001000
01000000
00010000
00100000
,
00001000
00010000
00001000
01000000
00001000
00010000
00000100
00001000
00000100
00010000
00000100
00001000
00000010
00000100
00000010
00001000
,
00000100
00000010
00000001
00001000
00000001
00000010
00000100
00001000
00000010
00000100
00000001
00000010
00000100
00001000
00000010
00001000
,
00000100
00010000
00000100
00001000
00000100
00010000
00000100
00001000
00000010
00000100
00000001
00000010
00000100
00001000
00000010
00010000
,
00001000
00100000
00010000
00100000
01000000
00100000
00010000
00100000
01000000
10000000
00010000
01000000
00001000
00010000
00001000
00100000
,
00010000
01000000
00100000
01000000
00010000
00100000
01000000
00100000
00010000
01000000
00001000
00100000
00010000
00100000
00001000
01000000
,
00010000
10000000
00100000
01000000
00010000
01000000
00001000
00010000
00001000
00100000
00010000
00100000
00001000
00010000
00000100
00001000
,
00000010
00000100
00000010
00001000
00000010
00000100
00000010
00001000
00000100
00000010
00000001
00000100
00000010
00001000
00000100
00010000
,
00000100
00001000
00000001
00001000
00000100
00010000
00001000
00010000
00001000
00100000
00010000
01000000
00001000
01000000
00010000
00100000
,
01000000
10000000
00010000
10000000
00100000
01000000
00010000
01000000
00001000
00010000
00001000
00100000
00010000
00100000
00001000
00010000
,
00001000
00010000
00000010
00001000
00000010
00010000
00001000
00010000
00001000
00010000
00000010
00000000
00001000
00000000
00000010
00000000
,
00010000
00000100
00001000
00000100
00010000
00000100
00001000
00000001
00000010
00000001
00000100
00000010
00001000
00000100
00001000
00000010
,
00010000
00001000
00010000
00000100
00001000
00000010
00010000
00001000
01000000
00010000
01000000
00001000
00100000
00010000
00100000
00001000
,
00010000
00001000
01000000
00010000
01000000
00100000
10000000
00010000
10000000
01000000
00100000
00010000
01000000
00100000
10000000
01000000
,
00100000
00010000
00100000
00001000
00010000
00001000
01000000
00010000
01000000
00001000
00100000
00001000
00010000
00001000
00100000
00010000
,
01000000
00001000
00010000
00001000
01000000
00001000
00010000
00000010
00001000
00000010
00010000
00000100
00001000
00000100
00000010
00000001
,
00001000
00000001
00000100
00000010
00001000
00000001
00000100
00000010
00001000
00000100
00010000
00001000
00010000
00000100
00001000
00000010
,
00010000
00001000
00010000
00000100
00010000
00001000
01000000
00010000
01000000
00001000
01000000
00010000
00100000
01000000
00100000
00010000
,
01000000
00100000
10000000
00010000
10000000
00100000
01000000
00010000
00100000
01000000
10000000
00100000
01000000
00010000
00100000
00010000
,
01000000
00001000
01000000
00010000
01000000
00001000
01000000
00010000
00100000
01000000
10000000
00100000
01000000
00010000
00100000
00001000
,
00010000
00000010
00001000
00000010
00000100
00000010
00001000
00000010
00000100
00000001
00001000
00000100
00010000
00001000
00010000
00000010
,
00001000
00000100
00000010
00000100
00001000
00000010
00000100
00000010
00001000
00000100
00010000
00000010
00001000
00000010
00010000
00000100
,
00001000
00000001
00000010
00000100
00001000
00000100
00010000
00001000
00010000
00000010
00001000
00000010
00010000
00001000
01000000
00010000
,
00100000
01000000
00100000
00010000
00100000
01000000
00100000
00010000
01000000
00100000
10000000
01000000
00100000
00010000
01000000
00001000
,
01000000
00010000
10000000
00010000
01000000
00001000
00010000
00001000
00010000
00000010
00001000
00000100
00010000
00000100
00001000
00000010
,
00000100
00000001
00001000
00000001
00000010
00000100
00001000
00000100
00010000
00001000
00010000
00000010
00001000
00000010
00010000
00001000
,
00020000
00030000
00000000
00000000
00000100
00010000
00000000
00002000
00000000
00000000
00000000
00000000
01003000
00000000
00010000
00000000
,
00110000
00000000
00100000
00001000
00100000
00000000
00010000
00100000
01000000
10000000
00010000
01000000
00000000
00000000
00100000
01000000
,
00010000
00000000
01000000
00001000
00010000
00000000
00001000
00010000
00000100
00001000
00000010
00001000
00000000
00000000
00000001
00000100
,
00000010
00000000
00001000
00000010
00010000
00000000
00001000
00010000
00001000
00100000
00010000
01000000
00000000
00000000
00100000
10000000
,
00010000
00000000
00100000
00001000
00010000
00000000
00001000
00010000
00000100
00001000
00000100
00000000
00010100
00000000
00010000
00000000
,
00000010
00000000
00001000
00000010
00000100
00000000
00000001
00000100
00000010
00001000
00000100
00010000
00000000
00000000
00001000
00100000
,
00010000
00000000
00100000
00001000
00010000
00000000
00001000
01000000
00010000
01000000
00100000
10000000
00000000
00000000
01000000
00100000
,
00010000
00000000
00100000
00001000
00010000
00000000
00001000
00010000
00000010
00001000
00000010
00000100
00000000
00000000
00000001
00001000
,
00000100
00000000
00010000
00000100
00001000
00000000
00000010
00010000
00001000
00010000
00001000
00000000
00101000
00000000
00100000
00000000
,
00010000
00000000
10000000
01000000
00100000
00000000
00010000
01000000
00100000
10000000
01000000
00100000
00000000
00000000
00010000
00100000
,
00001000
00000000
00010000
00001000
00100000
00000000
00001000
00010000
00000100
00001000
00000010
00000100
00000000
00000000
00000010
00001000
,
00000001
00000000
00001000
00000100
00010000
00000000
00001000
00010000
00000010
00001000
00000100
00010000
00000000
00000000
00001000
00100000
,
00010000
00000000
00100000
00010000
01000000
00000000
00100000
01000000
00010000
10000000
00010000
00000000
00110000
00000000
00100000
00000000
,
00001000
00000000
00010000
00000100
00001000
00000000
00000010
00000100
00000001
00001000
00000100
00000010
00000000
00000000
00000100
00001000
,
00000010
00000000
00010000
00001000
00010000
00000000
00000100
00010000
00001000
00100000
00010000
00100000
00000000
00000000
00010000
01000000
,
00100000
00000000
10000000
00010000
00100000
00000000
01000000
00100000
00010000
01000000
00001000
00010000
00000000
00000000
00001000
00010000
,
00000100
00000000
00001000
00000010
00000100
00000000
00000010
00001000
00000100
00000000
00000000
00000100
00000000
00000000
00010000
00000000
,
00001000
00100000
00000010
00001000
00000100
00010000
00001000
00100000
00000010
00001000
00000100
00010000
00001000
00100000
00000010
00001000
,
00000100
00010000
00001000
00100000
00000010
00001000
00000100
00010000
00001000
00100000
00000010
00001000
00000100
00010000
00001000
00100000
,
00000010
00001000
00000100
00010000
00001000
00100000
00000010
00001000
00000100
00010000
00001000
00100000
00000010
00001000
00000100
00010000
,
00001000
00100000
00000010
00001000
00000100
00010000
00001000
00100000
00000010
00001000
00000100
00010000
00001000
00100000
00000010
00001000
,
00000100
00010000
00001000
00100000
00000010
00001000
00000100
00010000
00001000
00100000
00000010
00001000
00000100
00010000
00001000
00100000
,
00000010
00001000
00000100
00010000
00001000
00100000
00000010
00001000
00000100
00010000
00001000
00100000
00000010
00001000
00000100
00010000
,
00001000
00100000
00000010
00001000
00000100
00010000
00001000
00100000
00000010
00001000
00000100
00010000
00001000
00100000
00000010
00001000
,
00000100
00010000
00001000
00100000
00000010
00001000
00000100
00010000
00001000
00100000
00000010
00001000
00000100
00010000
00001000
00010000
,
00001000
01000000
00000100
00001000
00000010
00010000
00001000
01000000
00000100
00001000
00000010
00010000
00001000
01000000
00000100
00001000
,
00000010
00010000
00001000
01000000
00000100
00001000
00000010
00010000
00001000
01000000
00000100
00001000
00000010
00010000
00001000
01000000
,
00000100
00001000
00000010
00010000
00001000
01000000
00000100
00001000
00000010
00010000
00001000
01000000
00000100
00001000
00000010
00010000
,
00001000
01000000
00000100
00001000
00000010
00010000
00001000
01000000
00000100
00001000
00000010
00010000
00001000
01000000
00000100
00001000
,
00000010
00010000
00001000
01000000
00000100
00001000
00000010
00010000
00001000
01000000
00000100
00001000
00000010
00010000
00001000
01000000
,
00000100
00001000
00000010
00010000
00001000
01000000
00000100
00001000
00000010
00010000
00001000
01000000
00000100
00001000
00000010
00010000
,
00001000
01000000
00000100
00001000
00000010
00010000
00001000
01000000
00000100
00001000
00000010
00010000
00001000
01000000
00000100
00001000
,
00000010
00010000
00001000
01000000
00000100
00001000
00000010
00010000
00001000
01000000
00000100
00001000
00000010
00010000
00001000
00100000
,
00010000
01000000
00100000
01000000
00010000
01000000
00100000
10000000
01000000
00100000
00010000
01000000
00001000
01000000
00010000
00100000
,
00001000
00010000
00001000
01000000
00001000
00010000
00001000
00100000
00010000
01000000
00001000
00010000
00000100
00001000
00000010
00001000
,
00000100
00010000
00001000
00010000
00000010
00001000
00000010
00001000
00000100
00000010
00000001
00000100
00000010
00001000
00000100
00010000
,
00001000
00010000
00000010
00010000
00001000
00010000
00000100
00001000
00000010
00000100
00000010
00001000
00000100
00010000
00001000
00100000
,
00010000
00100000
00001000
00010000
00001000
00100000
00010000
00100000
01000000
10000000
00100000
01000000
00010000
00100000
01000000
10000000
,
00010000
01000000
00001000
01000000
00010000
01000000
00001000
00010000
00000010
00001000
00000010
00010000
00001000
00010000
00000100
00001000
,
00000010
00000100
00000010
00001000
00000100
00001000
00000001
00000100
00000001
00000100
00000010
00001000
00000100
00010000
00001000
00100000
,
00010000
00100000
00001000
00100000
00010000
00100000
01000000
10000000
00100000
01000000
00010000
00100000
00001000
00100000
00010000
01000000
,
00010000
00100000
01000000
00100000
00010000
00100000
01000000
10000000
00100000
01000000
00010000
00100000
00001000
00100000
00010000
01000000
,
00001000
00010000
00001000
00100000
00001000
00010000
00001000
01000000
00010000
00100000
00001000
00010000
00000010
00001000
00000100
00001000
,
00000010
00010000
00001000
00010000
00000100
00001000
00000100
00001000
00000010
00000100
00000001
00000010
00000100
00001000
00000010
00010000
,
00001000
00010000
00000100
00010000
00001000
00010000
00000010
00001000
00000100
00000010
00000100
00001000
00000010
00010000
00001000
01000000
,
00010000
01000000
00001000
00010000
00001000
01000000
00010000
01000000
00100000
10000000
01000000
00100000
00010000
01000000
00100000
10000000
,
00010000
00100000
00001000
00100000
00010000
00100000
00001000
00010000
00000100
00001000
00000100
00010000
00001000
00010000
00000010
00001000
,
00000100
00000010
00000100
00001000
00000010
00001000
00000001
00000010
00000001
00000010
00000100
00001000
00000010
00010000
00001000
01000000
,
00010000
01000000
00001000
01000000
00010000
01000000
00100000
10000000
01000000
00100000
00010000
01000000
00001000
01000000
00010000
00100000
,
00010000
01000000
00100000
01000000
00010000
01000000
00100000
10000000
01000000
00100000
00010000
01000000
00001000
01000000
00010000
00100000
,
00001000
00010000
00001000
01000000
00001000
00010000
00001000
00100000
00010000
01000000
00001000
00010000
00000100
00001000
00000010
00001000
,
00000100
00010000
00001000
00010000
00000010
00001000
00000010
00001000
00000100
00000010
00000001
00000100
00000010
00001000
00000100
00010000
,
00001000
00010000
00000010
00010000
00001000
00010000
00000100
00001000
00000010
00000100
00000010
00001000
00000100
00010000
00001000
00100000
,
00010000
00100000
00001000
00010000
00001000
00100000
00010000
00100000
01000000
10000000
00100000
01000000
00010000
00100000
01000000
10000000
,
00010000
01000000
00001000
01000000
00010000
01000000
00001000
00010000
00000010
00001000
00000010
00010000
00001000
00010000
00000100
00001000
,
00000010
00000100
00000010
00001000
00000100
00001000
00000001
00000100
00000001
00000100
00000010
00001000
00000100
00010000
00001000
00100000
,
00010000
00100000
00001000
00100000
00010000
00100000
01000000
10000000
00100000
01000000
00010000
00100000
00001000
00100000
00010000
01000000
,
00010000
00100000
01000000
00100000
00010000
00100000
01000000
10000000
00100000
01000000
00010000
00100000
00001000
00100000
00010000
01000000
,
00001000
00010000
00001000
00100000
00001000
00010000
00001000
01000000
00010000
00100000
00001000
00010000
00000010
00001000
00000100
00001000
,
00000010
00010000
00001000
00010000
00000100
00001000
00000100
00001000
00000010
00000100
00000001
00000010
00000100
00001000
00000010
00010000
,
00001000
00010000
00000100
00010000
00001000
00010000
00000010
00001000
00000100
00000010
00000100
00001000
00000010
00010000
00001000
01000000
,
00010000
01000000
00001000
00010000
00001000
01000000
00010000
01000000
00100000
10000000
01000000
00100000
00010000
01000000
00100000
10000000
,
00010000
00100000
00001000
00100000
00010000
00100000
00001000
00010000
00000100
00001000
00000100
00010000
00001000
00010000
00000010
00001000
,
00000100
00000010
00000100
00001000
00000010
00001000
00000001
00000010
00000001
00000010
00000100
00001000
00000010
00010000
00001000
01000000
,
00010000
01000000
00001000
01000000
00010000
01000000
00100000
10000000
01000000
00100000
00010000
01000000
00001000
01000000
00010000
00100000
,
00001000
01000000
00010000
01000000
00001000
01000000
00010000
10000000
00100000
10000000
01000000
00100000
00010000
01000000
00010000
00100000
,
00001000
00010000
00001000
01000000
00010000
00100000
00001000
00010000
00000100
00001000
00000100
00010000
00000010
00001000
00000010
00010000
,
00001000
00010000
00000100
00001000
00000100
00000010
00000001
00001000
00000001
00000100
00000010
00001000
00000100
00000010
00000001
00000100
,
00000010
00001000
00000010
00010000
00001000
00010000
00000100
00001000
00000100
00010000
00000010
00010000
00001000
00010000
00000010
00001000
,
00000100
00010000
00001000
00010000
00000100
00010000
00001000
00100000
00010000
00100000
00001000
01000000
00010000
01000000
00100000
10000000
,
00010000
10000000
01000000
00100000
00010000
10000000
01000000
00100000
00010000
01000000
00001000
00010000
00001000
01000000
00010000
00100000
,
00001000
00010000
00001000
01000000
00001000
00010000
00000100
00001000
00000100
00010000
00000100
00001000
00000010
00000100
00000010
00001000
,
00000100
00000010
00000001
00001000
00000001
00000010
00000100
00001000
00000010
00000100
00000001
00000010
00000100
00001000
00000010
00001000
,
00000100
00010000
00000100
00001000
00000100
00010000
00000100
00001000
00000010
00000100
00000001
00000010
00000100
00001000
00000010
00010000
,
00001000
00100000
00010000
00100000
01000000
00100000
00010000
00100000
01000000
10000000
00010000
01000000
00001000
00010000
00001000
00100000
,
00010000
01000000
00100000
01000000
00010000
00100000
01000000
00100000
00010000
01000000
00001000
00100000
00010000
00100000
00001000
01000000
,
00010000
10000000
00100000
01000000
00010000
01000000
00001000
00010000
00001000
00100000
00010000
00100000
00001000
00010000
00000100
00001000
,
00000010
00000100
00000010
00001000
00000010
00000100
00000010
00001000
00000100
00000010
00000001
00000100
00000010
00001000
00000100
00010000
,
00000100
00001000
00000001
00001000
00000100
00010000
00001000
00010000
00001000
00100000
00010000
01000000
00001000
01000000
00010000
00100000
,
01000000
10000000
00010000
10000000
00100000
01000000
00010000
01000000
00001000
00010000
00001000
00100000
00010000
00100000
00001000
00010000
,
00001000
00010000
00000010
00001000
00000010
00010000
00001000
00010000
00001000
00010000
00000100
00001000
00000010
00001000
00000100
00010000
,
00001000
00100000
00010000
00100000
00001000
00100000
00010000
10000000
01000000
10000000
00100000
01000000
00010000
00100000
00010000
01000000
,
00001000
00010000
00001000
00100000
00010000
01000000
00001000
00010000
00000010
00001000
00000010
00010000
00000100
00001000
00000100
00010000
,
00001000
00010000
00000010
00001000
00000010
00000100
00000001
00001000
00000001
00000010
00000100
00001000
00000010
00000100
00000001
00000010
,
00000100
00001000
00000100
00010000
00001000
00010000
00000010
00001000
00000010
00010000
00000100
00010000
00001000
00010000
00000100
00001000
,
00000010
00010000
00001000
00010000
00000010
00010000
00001000
01000000
00010000
01000000
00001000
00100000
00010000
00100000
01000000
10000000
,
00010000
10000000
00100000
01000000
00010000
10000000
00100000
01000000
00010000
00100000
00001000
00010000
00001000
00100000
00010000
01000000
,
00001000
00010000
00001000
00100000
00001000
00010000
00000010
00001000
00000010
00010000
00000010
00001000
00000100
00000010
00000100
00001000
,
00000010
00000100
00000001
00001000
00000001
00000100
00000010
00001000
00000100
00000010
00000001
00000100
00000010
00001000
00000100
00001000
,
00000010
00010000
00000010
00001000
00000010
00010000
00000010
00001000
00000100
00000010
00000001
00000100
00000010
00001000
00000100
00010000
,
00001000
01000000
00010000
01000000
00100000
01000000
00010000
01000000
00100000
10000000
00010000
00100000
00001000
00010000
00001000
01000000
,
00010000
00100000
01000000
00100000
00010000
01000000
00100000
01000000
00010000
00100000
00001000
01000000
00010000
01000000
00001000
00100000
,
00010000
10000000
01000000
00100000
00010000
00100000
00001000
00010000
00001000
01000000
00010000
01000000
00001000
00010000
00000010
00001000
,
00000100
00000010
00000100
00001000
00000100
00000010
00000100
00001000
00000010
00000100
00000001
00000010
00000100
00001000
00000010
00010000
,
00000010
00001000
00000001
00001000
00000010
00010000
00001000
00010000
00001000
01000000
00010000
00100000
00001000
00100000
00010000
01000000
,
00100000
10000000
00010000
10000000
01000000
00100000
00010000
00100000
00001000
00010000
00001000
01000000
00010000
01000000
00001000
00010000
,
00002000
00003000
00000000
00000000
00100000
00001000
00000000
00020000
00000000
00000000
00000000
00000000
00030010
00000000
00001000
00000000
,
00001100
00000000
00000100
00000000
00010000
00000000
00001000
00100000
00001000
00010000
00001000
00000000
00100000
00000000
00010000
00000000
,
01000000
00000000
00100000
00000000
10000000
00000000
00010000
01000000
00010000
10000000
00010000
00000000
00100000
00000000
00001000
00000000
,
00010000
00000000
00000100
00000000
00001000
00000000
00000100
00000010
00000100
00001000
00000100
00000000
00000010
00000000
00000001
00000000
,
00000100
00000000
00000010
00000000
00001000
00000000
00000010
00001000
00000010
00010000
00001000
00000000
00011000
00000000
00010000
00000000
,
00001000
00000000
00100000
00000000
00010000
00000000
00100000
01000000
00100000
00010000
00100000
00000000
01000000
00000000
10000000
00000000
,
00010000
00000000
01000000
00000000
00100000
00000000
01000000
00010000
01000000
00001000
01000000
00000000
00001000
00000000
00010000
00000000
,
00000100
00000000
00001000
00000000
00000010
00000000
00000100
00000010
00000100
00000001
00000100
00000000
00000010
00000000
00001000
00000000
,
00000100
00000000
00010000
00000000
00001000
00000000
00100000
00010000
01000000
00000000
00000000
00001000
01000000
00000000
00010000
00000000
,
00110000
00000000
00100000
00000000
00001000
00000000
00010000
00000100
00010000
00001000
00010000
00000000
00000100
00000000
00001000
00000000
,
00000010
00000000
00000100
00000000
00000001
00000000
00001000
00000010
00001000
00000001
00001000
00000000
00000100
00000000
00010000
00000000
,
00001000
00000000
00100000
00000000
00010000
00000000
00100000
01000000
00100000
00010000
00100000
00000000
01000000
00000000
10000000
00000000
,
00100000
00000000
01000000
00000000
00010000
00000000
01000000
00010000
01000000
00001000
00010000
00000000
00011000
00000000
00001000
00000000
,
00010000
00000000
00000100
00000000
00001000
00000000
00000100
00000010
00000100
00001000
00000100
00000000
00000010
00000000
00000001
00000000
,
00001000
00000000
00000010
00000000
00000100
00000000
00000010
00001000
00000010
00010000
00000010
00000000
00010000
00000000
00001000
00000000
,
00100000
00000000
00010000
00000000
01000000
00000000
00100000
01000000
00100000
10000000
00100000
00000000
01000000
00000000
00010000
00000000
,
00100000
00000000
00001000
00000000
00010000
00000000
00000100
00001000
00000010
00000000
00000000
00010000
00000100
00000000
00001000
00000000
,
00001010
00000000
00000010
00000000
00010000
00000000
00001000
01000000
00001000
00010000
00001000
00000000
01000000
00000000
00010000
00000000
,
00100000
00000000
01000000
00000000
10000000
00000000
00010000
00100000
00010000
10000000
00010000
00000000
01000000
00000000
00001000
00000000
,
00010000
00000000
00000010
00000000
00001000
00000000
00000010
00000100
00000010
00001000
00000010
00000000
00000100
00000000
00000001
00000000
,
00000010
00000000
00000100
00000000
00001000
00000000
00000100
00001000
00000100
00010000
00001000
00000000
00011000
00000000
00010000
00000000
,
00001000
00000000
01000000
00000000
00010000
00000000
01000000
00100000
01000000
00010000
01000000
00000000
00100000
00000000
10000000
00000000
,
00010000
00000000
00100000
00000000
01000000
00000000
00100000
00010000
00100000
00001000
00100000
00000000
00001000
00000000
00010000
00000000
,
00000010
00000000
00001000
00000000
00000100
00000000
00000010
00000100
00000010
00000001
00000010
00000000
00000100
00000000
00001000
00000000
,
00000010
00000000
00010000
00000000
00001000
00000000
01000000
00010000
00100000
00001000
00010000
00001000
00100000
00000000
00010000
00000000
,
01010000
00000000
01000000
00000000
00001000
00000000
00010000
00000010
00010000
00001000
00010000
00000000
00000010
00000000
00001000
00000000
,
00000100
00000000
00000010
00000000
00000001
00000000
00001000
00000100
00001000
00000001
00001000
00000000
00000010
00000000
00010000
00000000
,
00001000
00000000
01000000
00000000
00010000
00000000
01000000
00100000
01000000
00010000
01000000
00000000
00100000
00000000
10000000
00000000
,
01000000
00000000
00100000
00000000
00010000
00000000
00100000
00010000
00100000
00001000
00010000
00000000
00011000
00000000
00001000
00000000
,
00010000
00000100
00001000
00000100
00000010
00000100
00001000
00000001
00000100
00000010
00001000
00000010
00010000
00000010
00001000
00000100
,
00010000
00001000
00100000
00001000
00010000
00001000
01000000
00010000
01000000
00100000
01000000
00010000
10000000
00010000
00100000
01000000
,
10000000
01000000
00100000
00010000
01000000
00001000
00010000
00000010
00001000
00000010
00010000
00001000
00010000
00000100
00001000
00000010
,
00020000
00000000
00000000
00000000
,
00000000
00000000
00000000
00030000
;
