#TITLE:Hold Your Colour;
#SUBTITLE:(Bipolar Vocal Mix);
#ARTIST:Pendulum;
#TITLETRANSLIT:;
#SUBTITLETRANSLIT:;
#ARTISTTRANSLIT:;
#CREDIT:;
#BANNER:holdyourcolourbipolarbn.png;
#BACKGROUND:holdyourcolourbipolarbg.png;
#LYRICSPATH:;
#CDTITLE:;
#MUSIC:holdyourcolourbipolar.ogg;
#OFFSET:1.048;
#SAMPLESTART:89.995;
#SAMPLELENGTH:22.070;
#SELECTABLE:YES;
#BPMS:0.000=174.000;
#STOPS:;
#BGCHANGES:;
// cache tags:
#FIRSTBEAT:40.000;
#LASTBEAT:711.000;
#SONGFILENAME:Songs/Pendulum/Hold Your Colour (Bipolar Vocal Mix)/holdyourcolourbipolar.sm;
#HASMUSIC:1;
#HASBANNER:1;
#MUSICLENGTH:246.000;
// end cache tags

//---------------dance-single - I. Pyles----------------
#NOTES:
     dance-single:
     I. Pyles:
     Beginner:
     1:
     0.025,0.072,0.000,0.000,0.000,43.000,0.000,0.000,0.000,0.000:
0000
0000
0000
0000
,
0000
0000
0000
0000
,
0000
0000
0000
0000
,
0000
0000
0000
0000
,
0000
0000
0000
0000
,
0000
0000
0000
0000
,
0000
0000
0000
0000
,
0000
0000
0000
0000
,
0000
0000
0000
0000
,
0000
0000
0000
0000
,
0010
0000
0000
0000
,
0000
0000
0000
0000
,
0000
0000
0000
0000
,
0000
0000
0000
0000
,
0001
0000
0000
0000
,
0000
0000
0000
0000
,
0000
0000
0000
0000
,
0000
0000
0000
0000
,
0010
0000
0000
0000
,
0000
0000
0000
0000
,
0000
0000
0000
0000
,
0000
0000
0000
0000
,
0001
0000
0000
0000
,
0000
0000
0000
0000
,
0000
0000
0000
0000
,
0000
0000
0000
0000
,
0001
0000
0000
0000
,
0000
0000
0000
0000
,
0000
0000
0000
0000
,
0000
0000
0000
0000
,
0100
0000
0000
0000
,
0000
0000
0000
0000
,
0000
0000
0000
0000
,
0000
0000
0000
0000
,
0010
0000
0000
0000
,
0000
0000
0000
0000
,
0000
0000
0000
0000
,
0000
0000
0000
0000
,
0010
0000
0000
0000
,
0000
0000
0000
0000
,
0000
0000
0000
0000
,
0000
0000
0000
0000
,
1000
0000
0000
0000
,
0000
0000
0000
0000
,
0000
0000
0000
0000
,
0000
0000
0000
0000
,
1000
0000
0000
0000
,
0000
0000
0000
0000
,
0000
0000
0000
0000
,
0000
0000
0000
0000
,
0001
0000
0000
0000
,
0000
0000
0000
0000
,
0000
0000
0000
0000
,
0000
0000
0000
0000
,
0100
0000
0000
0000
,
0000
0000
0000
0000
,
0000
0000
0000
0000
,
0000
0000
0000
0000
,
0010
0000
0000
0000
,
0000
0000
0000
0000
,
0000
0000
0000
0000
,
0000
0000
0000
0000
,
0001
0000
0000
0000
,
0000
0000
0000
0000
,
0000
0000
0000
0000
,
0000
0000
0000
0000
,
0001
0000
0000
0000
,
0000
0000
0000
0000
,
0000
0000
0000
0000
,
0000
0000
0000
0000
,
0100
0000
0000
0000
,
0000
0000
0000
0000
,
0000
0000
0000
0000
,
0000
0000
0000
0000
,
0001
0000
0000
0000
,
0000
0000
0000
0000
,
0000
0000
0000
0000
,
0000
0000
0000
0000
,
1000
0000
0000
0000
,
0000
0000
0000
0000
,
0000
0000
0000
0000
,
0000
0000
0000
0000
,
0001
0000
0000
0000
,
0000
0000
0000
0000
,
0000
0000
0000
0000
,
0000
0000
0000
0000
,
0010
0000
0000
0000
,
0000
0000
0000
0000
,
0000
0000
0000
0000
,
0000
0000
0000
0000
,
0001
0000
0000
0000
,
0000
0000
0000
0000
,
0000
0000
0000
0000
,
0000
0000
0000
0000
,
1000
0000
0000
0000
,
0000
0000
0000
0000
,
0000
0000
0000
0000
,
0000
0000
0000
0000
,
0010
0000
0000
0000
,
0000
0000
0000
0000
,
0000
0000
0000
0000
,
0000
0000
0000
0000
,
0001
0000
0000
0000
,
0000
0000
0000
0000
,
0000
0000
0000
0000
,
0000
0000
0000
0000
,
0010
0000
0000
0000
,
0000
0000
0000
0000
,
0000
0000
0000
0000
,
0000
0000
0000
0000
,
0010
0000
0000
0000
,
0000
0000
0000
0000
,
0000
0000
0000
0000
,
0000
0000
0000
0000
,
1000
0000
0000
0000
,
0000
0000
0000
0000
,
0000
0000
0000
0000
,
0000
0000
0000
0000
,
0100
0000
0000
0000
,
0000
0000
0000
0000
,
0000
0000
0000
0000
,
0000
0000
0000
0000
,
0100
0000
0000
0000
,
0000
0000
0000
0000
,
0000
0000
0000
0000
,
0000
0000
0000
0000
,
0001
0000
0000
0000
,
0000
0000
0000
0000
,
0000
0000
0000
0000
,
0000
0000
0000
0000
,
0100
0000
0000
0000
,
0000
0000
0000
0000
,
0000
0000
0000
0000
,
0000
0000
0000
0000
,
1000
0000
0000
0000
,
0000
0000
0000
0000
,
0000
0000
0000
0000
,
0000
0000
0000
0000
,
1000
0000
0000
0000
,
0000
0000
0000
0000
,
0000
0000
0000
0000
,
0000
0000
0000
0000
,
0100
0000
0000
0000
,
0000
0000
0000
0000
,
0000
0000
0000
0000
,
0000
0000
0000
0000
,
0100
0000
0000
0000
,
0000
0000
0000
0000
,
0000
0000
0000
0000
,
0000
0000
0000
0000
,
0100
0000
0000
0000
,
0000
0000
0000
0000
,
0000
0000
0000
0000
,
0000
0000
0000
0000
,
1000
0000
0000
0000
,
0000
0000
0000
0000
,
0000
0000
0000
0000
,
0000
0000
0000
0000
,
0001
0000
0000
0000
,
0000
0000
0000
0000
,
0000
0000
0000
0000
,
0000
0000
0000
0000
,
0001
0000
0000
0000
,
0000
0000
0000
0000
,
0000
0000
0000
0000
,
0000
0000
0000
0000
,
0100
0000
0000
0000
,
0000
0000
0000
0000
,
0000
0000
0000
0000
,
0000
0000
0000
0000
,
0010
0000
0000
0000
,
0000
0000
0000
0000
,
0000
0000
0000
0000
,
0000
0000
0000
0000
,
0100
0000
0000
0000
,
0000
0000
0000
0000
,
1000
0000
0000
0000
;

//---------------dance-single - I. Pyles----------------
#NOTES:
     dance-single:
     I. Pyles:
     Easy:
     9:
     0.641,0.723,0.089,0.581,0.026,939.000,22.000,143.000,0.000,0.000:
0000
0000
0000
0000
,
0000
0000
0000
0000
,
0000
0000
0000
0000
,
0000
0000
0000
0000
,
0000
0000
0000
0000
,
0000
0000
0000
0000
,
0000
0000
0000
0000
,
0000
0000
0000
0000
,
0000
0000
0000
0000
,
0000
0000
0000
0000
,
1001
0001
0100
0001
0100
0010
1000
0010
,
1000
0000
0100
0000
1000
0000
0100
0000
1000
0000
0001
0000
0010
0001
0010
0000
,
0001
1000
0010
1000
0010
0100
0001
0100
,
0001
0000
0010
0000
0001
0000
0010
0000
0001
0000
1000
0000
0001
1000
0001
1000
,
0001
1000
0100
1000
0100
0010
0001
0010
,
0001
1000
0010
1000
0010
0100
0001
0001
,
1000
0010
1000
0100
1000
0001
1000
0100
,
1000
0001
1000
0001
1000
0000
0001
0100
0001
0000
1000
0100
1000
0000
0000
0000
,
0002
0000
0003
1000
0020
0000
0000
0030
,
0200
0302
0023
0230
,
0320
0000
0032
0000
,
2003
3200
2300
3020
,
0230
0000
0000
0000
0000
0300
0020
0000
,
2030
3002
0023
0230
,
0320
0000
0030
0002
,
2003
0010
0001
0100
,
3002
0000
0000
1003
0010
0200
0000
0000
,
0302
2003
3200
2300
,
3020
0000
0000
0000
0000
0030
0000
0010
,
1000
0000
0100
0000
0010
0000
0001
0000
1000
0000
0020
0000
0000
0030
0010
0000
,
2000
0000
0000
0000
0000
3000
0200
0000
,
2300
3002
0023
0230
,
2300
0000
0000
0000
3000
0000
0001
0001
,
0020
0230
0320
0030
,
0100
1000
1001
0001
,
0020
0001
0130
2000
,
0010
3002
0010
2003
,
0100
0000
3001
0100
0010
0100
0001
0010
,
0110
0001
1001
0001
,
0200
0010
0301
2000
,
0100
3002
0010
2003
,
0100
0000
0000
3000
0011
0000
0000
0000
0001
0000
0010
0000
0000
0000
0000
0000
,
1001
0001
0011
0020
,
0001
0130
2000
0010
,
3002
0000
0100
0000
1000
0000
0020
0003
,
0000
0000
0031
0010
0100
0010
0001
0100
,
0120
0000
1000
0000
0100
0030
0002
0000
,
0010
0000
1000
0000
0200
0003
0000
0300
,
0110
0100
0000
0000
,
0000
0001
0000
0000
,
1010
1000
0010
1000
0001
1000
0010
1000
,
0010
1000
0001
0010
0100
0000
0000
0000
,
1000
0001
0010
0001
1000
0001
0010
0001
,
0010
0001
1000
0100
0010
0100
1000
0010
,
0110
0010
0100
0001
1000
0001
0100
0001
,
0100
0001
1000
0100
0010
0000
0000
0000
,
0001
1000
0010
1000
0001
1000
0010
1000
,
0010
1000
0001
0010
0100
0010
0000
0000
,
0011
0001
0010
0001
1000
0001
0010
0001
,
0010
0001
1000
0010
0100
0000
0000
0000
,
0001
1000
0010
1000
0001
1000
0010
1000
,
0010
1000
0001
0100
0010
0100
0001
0010
,
0110
0010
0100
1000
0001
1000
0100
1000
,
0100
1000
0001
0100
0010
0000
0000
0000
,
2000
0000
0000
0000
0000
3000
1000
0100
0010
0000
0100
0000
1000
0000
0020
0000
,
0000
0030
0010
0000
1000
0000
0001
0000
0100
0000
0010
1000
0010
0000
1000
0001
,
1000
0000
0001
1000
0000
0001
0100
0001
,
1000
0000
1000
0001
0000
1000
0100
1000
,
0001
0010
0001
1000
0001
0010
0001
1000
,
0001
0010
0001
0100
0010
1000
0001
0010
,
0001
0000
1000
0001
0000
1000
0010
1000
,
0001
0000
0001
1000
0000
0001
0010
0001
,
1000
0100
1000
0001
1000
0100
1000
0001
,
0010
0100
0010
0001
0100
0010
0100
0001
,
1001
0000
0001
1000
0000
0001
0010
0001
,
1000
0000
1000
0001
0000
1000
0010
1000
,
0001
0100
0001
1000
0001
0100
0001
1000
,
0001
0100
0001
0010
0100
1000
0001
0100
,
0001
0000
1000
0001
0000
1000
0100
1000
,
0001
0000
0001
1000
0000
0001
0010
0001
,
0100
0000
0000
0000
0000
0000
0001
0001
,
0020
0230
0320
0030
,
0002
0000
0003
1000
0020
0000
0000
0030
,
0200
0302
0023
0230
,
0320
0000
0032
0000
,
2003
3200
2300
3020
,
0230
0000
0000
0000
0000
0300
0020
0000
,
2030
3002
0023
0230
,
0320
0000
0030
0002
,
2003
0010
0001
0100
,
3002
0000
0000
1003
0010
0200
0000
0000
,
0302
2003
3200
2300
,
3020
0000
0000
0000
0000
0030
0000
0010
,
1000
0000
0100
0000
0010
0000
0001
0000
1000
0000
0020
0000
0000
0030
0010
0000
,
2000
0000
0000
0000
0000
3000
0200
0000
,
2300
3002
0023
0230
,
2300
0000
0000
0000
3000
0000
1000
1000
,
0020
0230
0320
0030
,
1000
0000
0000
0000
0001
0000
0100
0000
0000
0000
0002
0000
0000
0003
0001
0000
,
1000
0000
0001
0001
0100
0001
0100
0010
,
2000
0000
3020
0000
2030
0000
3010
0010
,
0100
0000
0001
0000
0010
0100
0010
0000
,
0001
0000
1000
0100
0000
1000
1000
1000
,
0002
0000
0003
1000
0100
1000
0100
0010
,
0002
0000
0013
0001
0010
0001
0010
0010
,
0100
1000
0001
0100
,
0010
0000
0000
0000
0100
0000
0002
0000
0000
0003
0001
0000
0000
0000
1000
0000
,
0010
0000
0000
0000
0100
0000
0020
0000
0000
0030
0010
0000
1000
0000
0001
0000
,
0020
0000
0130
0010
0100
0010
0001
1000
,
0010
0010
0100
0100
,
0010
0000
0000
0000
0100
0000
0002
0000
0000
0003
0001
0000
0000
0000
1000
0000
,
0010
0000
0000
0000
0100
0000
0020
0000
0000
0030
0010
0000
1000
0000
0001
0000
,
0020
0000
0130
0010
0100
0010
0001
1000
,
0100
0100
0010
0010
,
0011
0001
0010
0001
1000
0001
0010
0001
,
0010
0001
1000
0010
0100
0000
0000
0000
,
0001
1000
0010
1000
0001
1000
0010
1000
,
0010
1000
0001
0100
0010
0100
0001
0010
,
0110
0010
0100
1000
0001
1000
0100
1000
,
0100
1000
0001
0100
0010
0000
0000
0000
,
1000
0001
0010
0001
1000
0001
0010
0001
,
0010
0001
1000
0010
0100
0010
0000
0000
,
1010
1000
0010
1000
0001
1000
0010
1000
,
0010
1000
0001
0010
0100
0000
0000
0000
,
1000
0001
0010
0001
1000
0001
0010
0001
,
0010
0001
1000
0100
0010
0100
1000
0010
,
0110
0010
0100
0001
1000
0001
0100
0001
,
0100
0001
1000
0100
0010
0000
0000
0000
,
0002
0000
0000
0000
0000
0003
0001
0010
0100
0000
0010
0000
0001
0000
0200
0000
,
0000
0300
0100
0000
0001
0000
1000
0000
0010
0000
0100
0001
0100
0000
0001
1000
,
0001
0000
1000
0001
0000
1000
0010
1000
,
0001
0000
0001
1000
0000
0001
0010
0001
,
1000
0100
1000
0001
1000
0100
1000
0001
,
1000
0100
1000
0010
0100
0001
1000
0100
,
1000
0000
0001
1000
0000
0001
0100
0001
,
1000
0000
1000
0001
0000
1000
0100
1000
,
0001
0010
0001
1000
0001
0010
0001
1000
,
0100
0010
0100
1000
0010
0100
0010
1000
,
1001
0000
1000
0001
0000
1000
0100
1000
,
0001
0000
0001
1000
0000
0001
0100
0001
,
1000
0010
1000
0001
1000
0010
1000
0001
,
1000
0010
1000
0100
0010
0001
1000
0010
,
1000
0000
0001
1000
0000
0001
0010
0001
,
1000
0000
1000
0001
0000
1000
0100
1000
,
0010
0000
0000
0000
0000
0000
1000
1000
,
0020
0230
0320
0030
,
2000
0000
3000
0001
0200
0000
0000
0300
,
0020
2030
3200
0320
,
0230
0000
2300
0000
,
3002
0023
0032
0203
,
0320
0000
0000
0000
,
1030
0000
0001
1000
0000
0001
0010
0001
,
1000
0100
1000
0001
1000
0100
1000
0001
,
0010
0100
0010
0001
0100
0010
0100
0001
,
1002
0000
0000
1003
0010
0200
0000
0000
,
0302
2003
3200
2300
,
3020
0000
0000
0000
0000
0030
0000
0010
,
1000
0000
0100
0000
0010
0000
0001
0000
1000
0000
0020
0000
0000
0030
0010
0000
,
1000
0000
0001
1000
0000
0001
0010
0001
,
1000
0000
1000
0001
0000
1000
0100
1000
,
2001
0000
3100
0010
0100
0010
0001
0001
,
0020
0230
0320
0030
,
1001
0000
1000
0001
0000
1000
0010
1000
,
0001
0000
0001
1000
0000
0001
0010
0001
,
1000
0100
1000
0001
1000
0100
1000
0001
,
1000
0100
1000
0010
0100
0001
1000
0100
,
1000
0000
0001
1000
0000
0001
0100
0001
,
1000
0000
1000
0001
0000
1000
0100
1000
,
0001
0010
0001
1000
0001
0010
0001
1000
,
0100
0010
0100
1000
0010
0100
0010
1000
,
0001
0000
1000
0001
0000
1000
0100
1000
,
0001
0000
0001
1000
0000
0001
0100
0001
,
1000
0010
1000
0001
1000
0010
1000
0001
,
1000
0010
1000
0100
0010
0001
1000
0010
,
1000
0000
0001
1000
0000
0001
0010
0001
,
1000
0000
1000
0001
0000
1000
0100
1000
,
0010
0000
0000
0000
0000
0000
1000
1000
,
0020
0230
0320
0030
;

//---------------dance-single - I. Pyles----------------
#NOTES:
     dance-single:
     I. Pyles:
     Medium:
     12:
     0.835,1.000,0.268,0.317,0.486,1294.000,66.000,78.000,0.000,0.000:
0000
0000
0000
0000
,
0000
0000
0000
0000
,
0000
0000
0000
0000
,
0000
0000
0000
0000
,
0000
0000
0000
0000
,
0000
0000
0000
0000
,
0000
0000
0000
0000
,
0000
0000
0000
0000
,
0000
0000
0000
0000
,
0000
0000
0000
0000
,
1001
0001
0100
0010
0010
1000
0001
0100
,
0010
0000
0010
0000
1000
0000
0001
0000
0010
0000
0010
0000
0100
1000
0001
0000
,
1000
1000
0010
0100
0100
0001
1000
0010
,
0100
0000
0100
0000
0001
0000
1000
0000
0100
0000
0100
0000
0010
0001
1000
0001
,
0010
0100
0100
0100
1000
0001
0001
0001
,
0100
0010
0010
0010
1000
0001
0001
0001
,
1001
1000
1100
1000
1001
0001
0101
0001
,
1000
0100
0010
0001
0100
0010
1000
0001
0010
0100
1000
0001
1000
0000
0000
0000
,
0001
0100
0010
1000
0010
0100
0001
0010
0001
0100
0001
1000
0001
1000
0001
1000
,
0010
0100
0010
0100
0001
0010
0001
0010
0100
1000
0001
1000
0100
0010
0001
0010
,
0100
1000
0001
1000
0100
1000
0001
1000
0010
0100
0001
0100
0010
0100
0001
0100
,
0001
0010
0100
1000
0001
0100
0010
0100
0001
0010
0100
1000
0001
0100
0001
1000
,
0010
0100
0010
1000
0001
0010
0100
0010
0100
1000
0001
0100
0020
0000
0000
0000
,
2030
3002
0023
0230
,
0320
0000
0030
0002
,
2003
0010
0001
0100
,
3001
0100
0010
1000
0010
1000
0001
0010
0001
0100
0010
1000
0001
0010
0001
0010
,
0100
1000
0001
1000
0100
0010
0001
0010
0100
1000
0010
0100
0010
1000
0001
0010
,
0100
0010
0001
1000
0100
0010
0001
1000
0100
1000
0001
1000
0100
0010
0001
1000
,
0010
1000
0001
0100
0010
1000
0100
0010
0001
1000
0010
1000
0001
0100
0010
1000
,
0100
0010
0100
1000
0001
0100
0010
0100
0010
1000
0001
0010
0200
0000
0000
0000
,
2300
3002
0023
0230
,
2300
0000
0000
0000
3000
0000
0001
0001
,
0020
0230
0320
0030
,
0100
1000
1001
0001
,
0020
0001
0130
2000
,
0010
3002
0010
2003
,
0100
0000
3001
0100
0010
0100
0001
0010
,
0110
0001
1001
0001
,
0200
0010
0301
2000
,
0100
3002
0010
2003
,
0100
0000
0000
3000
0011
0000
0000
0000
0001
0000
0010
0000
0000
0000
0000
0000
,
1001
0001
0011
0020
,
0001
0130
2000
0010
,
3002
0000
0100
0000
1000
0000
0020
0003
,
0000
0000
0031
0010
0100
0010
0001
0100
,
0120
0000
1000
0000
0100
0030
0002
0000
,
0010
0000
1000
0000
0200
0003
0000
0300
,
0110
0100
0000
0000
,
0000
0001
0000
0000
,
1010
1000
0010
1000
0001
1000
0010
1000
,
0010
1000
0001
0010
0100
0000
0000
0000
,
1000
0001
0010
0001
1000
0001
0010
0001
,
0010
0001
1000
0100
0010
0100
1000
0010
,
0110
0010
0100
0001
1000
0001
0100
0001
,
0100
0001
1000
0100
0010
0000
0000
0000
,
0001
1000
0010
1000
0001
1000
0010
1000
,
0010
1000
0001
0010
0100
0010
0000
0000
,
0011
0001
0010
0001
1000
0001
0010
0001
,
0010
0001
1000
0010
0100
0000
0000
0000
,
0001
1000
0010
1000
0001
1000
0010
1000
,
0010
1000
0001
0100
0010
0100
0001
0010
,
0110
0010
0100
1000
0001
1000
0100
1000
,
0100
1000
0001
0100
0010
0000
0000
0000
,
2000
0000
0000
0000
0000
3000
1000
0100
0010
0000
0100
0000
1000
0000
0020
0000
,
0000
0030
0010
0000
1000
0000
0001
0000
0100
0000
0010
1000
0010
0000
1000
0001
,
1000
0000
0001
1001
0000
0001
0100
0001
,
1001
0000
1000
1001
0000
1000
0100
1000
,
0001
0010
0001
1000
0001
0010
0001
1000
,
0001
0010
0001
0100
0010
1000
0001
0010
,
0001
0000
1000
1001
0000
1000
0010
1000
,
1001
0000
0001
1001
0000
0001
0010
0001
,
1000
0100
1000
0001
1000
0100
1000
0001
,
0010
0100
0010
0001
0100
0010
0100
0001
,
1001
0000
0001
1001
0000
0001
0010
0001
,
1001
0000
1000
1001
0000
1000
0010
1000
,
0001
0100
0001
1000
0001
0100
0001
1000
,
0001
0100
0001
0010
0100
1000
0001
0100
,
0001
0000
1000
1001
0000
1000
0100
1000
,
1001
0000
0001
1001
0000
0001
0010
0001
,
0100
0000
0000
0000
0000
0000
0001
0001
,
0020
0230
0320
0030
,
0001
0010
0100
1000
0100
0010
0001
0100
0001
0010
0001
1000
0001
1000
0001
1000
,
0100
0010
0100
0010
0001
0100
0001
0100
0010
1000
0001
1000
0010
0100
0001
0100
,
0010
1000
0001
1000
0010
1000
0001
1000
0100
0010
0001
0010
0100
0010
0001
0010
,
0001
0100
0010
1000
0001
0010
0100
0010
0001
0100
0010
1000
0001
0010
0001
1000
,
0100
0010
0100
1000
0001
0100
0010
0100
0010
1000
0001
0010
0200
0000
0000
0000
,
2300
3002
0203
0320
,
0230
0000
0300
0002
,
2003
0100
0001
0010
,
3001
0010
0100
1000
0100
1000
0001
0100
0001
0010
0100
1000
0001
0100
0001
0100
,
0010
1000
0001
1000
0010
0100
0001
0100
0010
1000
0100
0010
0100
1000
0001
0100
,
0010
0100
0001
1000
0010
0100
0001
1000
0010
1000
0001
1000
0010
0100
0001
1000
,
0100
1000
0001
0010
0100
1000
0010
0100
0001
1000
0100
1000
0001
0010
0100
1000
,
0010
0100
0010
1000
0001
0010
0100
0010
0100
1000
0001
0100
0020
0000
0000
0000
,
2030
3002
0023
0230
,
2300
0000
0000
0000
3000
0000
1000
1000
,
0020
0230
0320
0030
,
1000
0000
0000
0000
0001
0000
0100
0000
0000
0000
0002
0000
0000
0003
0001
0000
,
1000
0000
0001
0001
0100
0001
0100
0010
,
2000
0000
3020
0000
2030
0000
3010
0010
,
0100
0000
0001
0000
0010
0100
0010
0000
,
0001
0000
1000
0100
0000
1000
1000
1000
,
0002
0000
0003
1000
0100
1000
0100
0010
,
0002
0000
0013
0001
0010
0001
0010
0010
,
0100
1000
0001
0100
,
0010
0000
0000
0000
0100
0000
0002
0000
0000
0003
0001
0000
0000
0000
1000
0000
,
0010
0000
0000
0000
0100
0000
0020
0000
0000
0030
0010
0000
1000
0000
0001
0000
,
0020
0000
0130
0010
0100
0010
0001
1000
,
0010
0010
0100
0100
,
0010
0000
0000
0000
0100
0000
0002
0000
0000
0003
0001
0000
0000
0000
1000
0000
,
0010
0000
0000
0000
0100
0000
0020
0000
0000
0030
0010
0000
1000
0000
0001
0000
,
0020
0000
0130
0010
0100
0010
0001
1000
,
0100
0100
0010
0010
,
0011
0001
0010
0001
1000
0001
0010
0001
,
0010
0001
1000
0010
0100
0000
0000
0000
,
0001
1000
0010
1000
0001
1000
0010
1000
,
0010
1000
0001
0100
0010
0100
0001
0010
,
0110
0010
0100
1000
0001
1000
0100
1000
,
0100
1000
0001
0100
0010
0000
0000
0000
,
1000
0001
0010
0001
1000
0001
0010
0001
,
0010
0001
1000
0010
0100
0010
0000
0000
,
1010
1000
0010
1000
0001
1000
0010
1000
,
0010
1000
0001
0010
0100
0000
0000
0000
,
1000
0001
0010
0001
1000
0001
0010
0001
,
0010
0001
1000
0100
0010
0100
1000
0010
,
0110
0010
0100
0001
1000
0001
0100
0001
,
0100
0001
1000
0100
0010
0000
0000
0000
,
0002
0000
0000
0000
0000
0003
0001
0010
0100
0000
0010
0000
0001
0000
0200
0000
,
0000
0300
0100
0000
0001
0000
1000
0000
0010
0000
0100
0001
0100
0000
0001
1000
,
0001
0000
1000
1001
0000
1000
0010
1000
,
1001
0000
0001
1001
0000
0001
0010
0001
,
1000
0100
1000
0001
1000
0100
1000
0001
,
1000
0100
1000
0010
0100
0001
1000
0100
,
1000
0000
0001
1001
0000
0001
0100
0001
,
1001
0000
1000
1001
0000
1000
0100
1000
,
0001
0010
0001
1000
0001
0010
0001
1000
,
0100
0010
0100
1000
0010
0100
0010
1000
,
1001
0000
1000
1001
0000
1000
0100
1000
,
1001
0000
0001
1001
0000
0001
0100
0001
,
1000
0010
1000
0001
1000
0010
1000
0001
,
1000
0010
1000
0100
0010
0001
1000
0010
,
1000
0000
0001
1001
0000
0001
0010
0001
,
1001
0000
1000
1001
0000
1000
0100
1000
,
0010
0000
0000
0000
0000
0000
1000
1000
,
0020
0230
0320
0030
,
1000
0010
0100
0001
0100
0010
1000
0100
1000
0010
1000
0001
1000
0001
1000
0001
,
0100
0010
0100
0010
1000
0100
1000
0100
0010
0001
1000
0001
0010
0100
1000
0100
,
0010
0001
1000
0001
0010
0001
1000
0001
0100
0010
1000
0010
0100
0010
1000
0010
,
1000
0100
0010
0001
1000
0010
0100
0010
1000
0100
0010
0001
1000
0010
1000
0001
,
0100
0010
0100
0001
1000
0100
0010
0100
0010
0001
1000
0010
0100
0010
0100
0001
,
1000
0000
0001
1001
0000
0001
0100
0001
,
1000
0010
1000
0001
1000
0010
1000
0001
,
0010
0100
1000
0001
1000
0100
0010
0001
,
1000
0010
0100
0001
0100
0001
1000
0100
1000
0010
0100
0001
1000
0100
1000
0100
,
0010
0001
1000
0001
0010
0100
1000
0100
0010
0001
0100
0010
0100
0001
1000
0100
,
0010
0100
1000
0001
0010
0100
1000
0001
0010
0001
1000
0001
0010
0100
1000
0001
,
0100
0001
1000
0010
0100
0001
0010
0100
1000
0001
0100
0001
1000
0010
0100
0001
,
1000
0000
0001
1001
0000
0001
0100
0001
,
1001
0000
1000
1001
0000
1000
0100
1000
,
2001
0000
3100
0010
0100
0010
0001
0001
,
0020
0230
0320
0030
,
1001
0000
1000
1001
0000
1000
0010
1000
,
1001
0000
0001
1001
0000
0001
0010
0001
,
1000
0100
1000
0001
1000
0100
1000
0001
,
1000
0100
1000
0010
0100
0001
1000
0100
,
1000
0000
0001
1001
0000
0001
0100
0001
,
1001
0000
1000
1001
0000
1000
0100
1000
,
0001
0010
0001
1000
0001
0010
0001
1000
,
0100
0010
0100
1000
0010
0100
0010
1000
,
1001
0000
1000
1001
0000
1000
0100
1000
,
1001
0000
0001
1001
0000
0001
0100
0001
,
1000
0010
1000
0001
1000
0010
1000
0001
,
1000
0010
1000
0100
0010
0001
1000
0010
,
1000
0000
0001
1001
0000
0001
0010
0001
,
1001
0000
1000
1001
0000
1000
0100
1000
,
0010
0000
0000
0000
0000
0000
1000
1000
,
0020
0230
0320
0030
;

//---------------dance-single - I. Pyles----------------
#NOTES:
     dance-single:
     I. Pyles:
     Hard:
     13:
     0.925,1.000,0.191,0.317,0.795,1468.000,47.000,78.000,0.000,0.000:
0000
0000
0000
0000
,
0000
0000
0000
0000
,
0000
0000
0000
0000
,
0000
0000
0000
0000
,
0000
0000
0000
0000
,
0000
0000
0000
0000
,
0000
0000
0000
0000
,
0000
0000
0000
0000
,
0000
0000
0000
0000
,
0000
0000
0000
0000
,
1001
0001
0100
0010
0010
1000
0001
0100
,
0010
0000
0010
0000
1000
0000
0001
0000
0010
0000
0010
0000
0100
1000
0001
0000
,
1000
1000
0010
0100
0100
0001
1000
0010
,
0100
0000
0100
0000
0001
0000
1000
0000
0100
0000
0100
0000
0010
0001
1000
0001
,
0010
0100
0100
0100
1000
0001
0001
0001
,
0100
0010
0010
0010
1000
0001
0001
0001
,
1001
1000
1100
1000
1001
0001
0101
0001
,
1000
0100
0010
0001
0100
0010
1000
0001
0010
0100
1000
0001
1000
0000
0000
0000
,
0001
0100
0010
1000
0010
0100
0001
0010
0001
0100
0001
1000
0001
1000
0001
1000
,
0010
0100
0010
0100
0001
0010
0001
0010
0100
1000
0001
1000
0100
0010
0001
0010
,
0100
1000
0001
1000
0100
1000
0001
1000
0010
0100
0001
0100
0010
0100
0001
0100
,
0001
0010
0100
1000
0001
0100
0010
0100
0001
0010
0100
1000
0001
0100
0001
1000
,
0010
0100
0010
1000
0001
0010
0100
0010
0100
1000
0001
0100
0020
0000
0000
0000
,
2030
3002
0023
0230
,
0320
0000
0030
0002
,
2003
0010
0001
0100
,
3001
0100
0010
1000
0010
1000
0001
0010
0001
0100
0010
1000
0001
0010
0001
0010
,
0100
1000
0001
1000
0100
0010
0001
0010
0100
1000
0010
0100
0010
1000
0001
0010
,
0100
0010
0001
1000
0100
0010
0001
1000
0100
1000
0001
1000
0100
0010
0001
1000
,
0010
1000
0001
0100
0010
1000
0100
0010
0001
1000
0010
1000
0001
0100
0010
1000
,
0100
0010
0100
1000
0001
0100
0010
0100
0010
1000
0001
0010
0200
0000
0000
0000
,
2300
3002
0023
0230
,
2300
0000
0000
0000
3000
0000
0001
0001
,
0020
0230
0320
0030
,
0100
1000
1001
0001
,
0020
0001
0130
2000
,
0010
3002
0010
2003
,
0100
0000
3001
0100
0010
0100
0001
0010
,
0110
0001
1001
0001
,
0200
0010
0301
2000
,
0100
3002
0010
2003
,
0100
0000
0000
3000
0011
0000
0000
0000
0001
0000
0010
0000
0000
0000
0000
0000
,
1001
0001
0011
0020
,
0001
0130
2000
0010
,
3002
0000
0100
0000
1000
0000
0020
0003
,
0000
0000
0031
0010
0100
0010
0001
0100
,
0120
0000
1000
0000
0100
0030
0002
0000
,
0010
0000
1000
0000
0200
0003
0000
0300
,
0110
0100
0000
0000
,
0000
0001
0000
0000
,
1010
1000
0010
1000
0001
1000
0010
1000
,
0010
1000
0001
0010
0100
0000
0000
0000
,
1000
0001
0010
0001
1000
0001
0010
0001
,
0010
0001
1000
0100
0010
0100
1000
0010
,
0110
0010
0100
0001
1000
0001
0100
0001
,
0100
0001
1000
0100
0010
0000
0000
0000
,
0001
1000
0010
1000
0001
1000
0010
1000
,
0010
1000
0001
0010
0100
0010
0000
0000
,
0011
0001
0010
0001
1000
0001
0010
0001
,
0010
0001
1000
0010
0100
0000
0000
0000
,
0001
1000
0010
1000
0001
1000
0010
1000
,
0010
1000
0001
0100
0010
0100
0001
0010
,
0110
0010
0100
1000
0001
1000
0100
1000
,
0100
1000
0001
0100
0010
0000
0000
0000
,
2000
0000
0000
0000
0000
3000
1000
0100
0010
0000
0100
0000
1000
0000
0020
0000
,
0000
0030
0010
0000
1000
0000
0001
0000
0100
0000
0010
1000
0010
0000
1000
0001
,
1000
0000
0001
1001
0000
0001
0100
0001
,
1001
0000
1000
1001
0000
1000
0100
1000
,
0001
0010
0001
1000
0001
0010
0001
1000
,
0001
0010
0001
0100
0010
1000
0001
0010
,
0001
0000
1000
1001
0000
1000
0010
1000
,
1001
0000
0001
1001
0000
0001
0010
0001
,
1000
0100
1000
0001
1000
0100
1000
0001
,
0010
0100
0010
0001
0100
0010
0100
0001
,
1001
0000
0001
1001
0000
0001
0010
0001
,
1001
0000
1000
1001
0000
1000
0010
1000
,
0001
0100
0001
1000
0001
0100
0001
1000
,
0001
0100
0001
0010
0100
1000
0001
0100
,
0001
0000
1000
1001
0000
1000
0100
1000
,
1001
0000
0001
1001
0000
0001
0010
0001
,
0100
0000
0000
0000
0000
0000
0001
0001
,
0020
0230
0320
0030
,
0001
0010
0100
1000
0100
0010
0001
0100
0001
0010
0001
1000
0001
1000
0001
1000
,
0100
0010
0100
0010
0001
0100
0001
0100
0010
1000
0001
1000
0010
0100
0001
0100
,
0010
1000
0001
1000
0010
1000
0001
1000
0100
0010
0001
0010
0100
0010
0001
0010
,
0001
0100
0010
1000
0001
0010
0100
0010
0001
0100
0010
1000
0001
0010
0001
1000
,
0100
0010
0100
1000
0001
0100
0010
0100
0010
1000
0001
0010
0200
0000
0000
0000
,
2300
3002
0203
0320
,
0230
0000
0300
0002
,
2003
0100
0001
0010
,
3001
0010
0100
1000
0100
1000
0001
0100
0001
0010
0100
1000
0001
0100
0001
0100
,
0010
1000
0001
1000
0010
0100
0001
0100
0010
1000
0100
0010
0100
1000
0001
0100
,
0010
0100
0001
1000
0010
0100
0001
1000
0010
1000
0001
1000
0010
0100
0001
1000
,
0100
1000
0001
0010
0100
1000
0010
0100
0001
1000
0100
1000
0001
0010
0100
1000
,
0010
0100
0010
1000
0001
0010
0100
0010
0100
1000
0001
0100
0020
0000
0000
0000
,
2030
3002
0023
0230
,
2300
0000
0000
0000
3000
0000
1000
1000
,
0020
0230
0320
0030
,
1000
0000
0000
0000
0001
0000
0100
0000
0000
0000
0002
0000
0000
0003
0001
0000
,
1000
0000
0001
0001
0100
0001
0100
0010
,
2000
0000
3020
0000
2030
0000
3010
0010
,
0100
0000
0001
0000
0010
0100
0010
0000
,
0001
0000
1000
0100
0000
1000
1000
1000
,
0002
0000
0003
1000
0100
1000
0100
0010
,
0002
0000
0013
0001
0010
0001
0010
0010
,
0100
1000
0001
0100
,
0010
0000
0000
0000
0100
0000
0002
0000
0000
0003
0001
0000
0000
0000
1000
0000
,
0010
0000
0000
0000
0100
0000
0020
0000
0000
0030
0010
0000
1000
0000
0001
0000
,
0020
0000
0130
0010
0100
0010
0001
1000
,
0010
0010
0100
0100
,
0010
0000
0000
0000
0100
0000
0002
0000
0000
0003
0001
0000
0000
0000
1000
0000
,
0010
0000
0000
0000
0100
0000
0020
0000
0000
0030
0010
0000
1000
0000
0001
0000
,
0020
0000
0130
0010
0100
0010
0001
1000
,
0100
0100
0010
0010
,
0011
0001
0010
0001
1000
0001
0010
0001
,
0010
0001
1000
0010
0100
0000
0000
0000
,
0001
1000
0010
1000
0001
1000
0010
1000
,
0010
1000
0001
0100
0010
0100
0001
0010
,
0110
0010
0100
1000
0001
1000
0100
1000
,
0100
1000
0001
0100
0010
0000
0000
0000
,
1000
0001
0010
0001
1000
0001
0010
0001
,
0010
0001
1000
0010
0100
0010
0000
0000
,
1010
1000
0010
1000
0001
1000
0010
1000
,
0010
1000
0001
0010
0100
0000
0000
0000
,
1000
0001
0010
0001
1000
0001
0010
0001
,
0010
0001
1000
0100
0010
0100
1000
0010
,
0110
0010
0100
0001
1000
0001
0100
0001
,
0100
0001
1000
0100
0010
0000
0000
0000
,
0002
0000
0000
0000
0000
0003
0001
0010
0100
0000
0010
0000
0001
0000
0200
0000
,
0000
0300
0100
0000
0001
0000
1000
0000
0010
0000
0100
0001
0100
0000
0001
1000
,
0001
0000
1000
1001
0000
1000
0010
1000
,
1001
0000
0001
1001
0000
0001
0010
0001
,
1000
0100
1000
0001
1000
0100
1000
0001
,
1000
0100
1000
0010
0100
0001
1000
0100
,
1000
0000
0001
1001
0000
0001
0100
0001
,
1001
0000
1000
1001
0000
1000
0100
1000
,
0001
0010
0001
1000
0001
0010
0001
1000
,
0100
0010
0100
1000
0010
0100
0010
1000
,
1001
0000
1000
1001
0000
1000
0100
1000
,
1001
0000
0001
1001
0000
0001
0100
0001
,
1000
0010
1000
0001
1000
0010
1000
0001
,
1000
0010
1000
0100
0010
0001
1000
0010
,
1000
0000
0001
1001
0000
0001
0010
0001
,
1001
0000
1000
1001
0000
1000
0100
1000
,
0010
0000
0000
0000
0000
0000
1000
1000
,
0020
0230
0320
0030
,
1000
0010
0100
0001
0100
0010
1000
0100
1000
0010
1000
0001
1000
0001
1000
0001
,
0100
0010
0100
0010
1000
0100
1000
0100
0010
0001
1000
0001
0010
0100
1000
0100
,
0010
0001
1000
0001
0010
0001
1000
0001
0100
0010
1000
0010
0100
0010
1000
0010
,
1000
0100
0010
0001
1000
0010
0100
0010
1000
0100
0010
0001
1000
0010
1000
0001
,
0100
0010
0100
0001
1000
0100
0010
0100
0010
0001
1000
0010
0100
0010
0100
0001
,
1000
0100
0010
0001
1000
0001
0010
0100
1000
0010
0100
0001
1000
0001
0100
0010
,
1000
0001
0010
0100
1000
0001
0010
0100
1000
0001
1000
0001
0010
0100
0010
0001
,
1000
0010
0100
0001
1000
0001
0100
0010
1000
0100
0010
0001
1000
0001
0010
0100
,
1000
0010
0100
0001
0100
0001
1000
0100
1000
0010
0100
0001
1000
0100
1000
0100
,
0010
0001
1000
0001
0010
0100
1000
0100
0010
0001
0100
0010
0100
0001
1000
0100
,
0010
0100
1000
0001
0010
0100
1000
0001
0010
0001
1000
0001
0010
0100
1000
0001
,
0100
0001
1000
0010
0100
0001
0010
0100
1000
0001
0100
0001
1000
0010
0100
0001
,
0010
0100
0010
0001
1000
0010
0100
0010
0100
0001
1000
0100
0010
0100
0010
0001
,
1000
0010
0100
0001
1000
0001
0100
0010
1000
0100
0010
0001
1000
0001
0010
0100
,
2000
0000
3100
0010
0100
0010
0001
0001
,
0020
0230
0320
0030
,
0001
1000
0100
1000
0010
1000
0001
1000
0010
1000
0001
0100
0001
0100
0010
1000
,
0001
0100
0001
0100
0010
1000
0100
1000
0010
1000
0001
0010
0100
1000
0100
0010
,
0001
1000
0010
1000
0100
1000
0001
1000
0100
1000
0001
0010
0001
0010
0100
1000
,
0001
0010
0001
0010
0100
1000
0010
1000
0100
1000
0001
0100
0010
1000
0010
0100
,
0001
1000
0100
1000
0010
1000
0001
1000
0010
1000
0001
0100
0001
0100
0010
1000
,
0001
0100
0001
0100
0010
1000
0100
1000
0010
1000
0001
0010
0100
1000
0100
0010
,
0001
1000
0010
1000
0100
1000
0001
1000
0100
1000
0001
0010
0001
0010
0100
1000
,
0001
0010
0001
0010
0100
1000
0010
1000
0100
1000
0001
0100
0010
1000
0010
0100
,
0001
1000
0100
1000
0010
1000
0001
1000
0010
1000
0001
0100
0001
0100
0010
1000
,
0001
0100
0001
0100
0010
1000
0100
1000
0010
1000
0001
0010
0100
1000
0100
0010
,
0001
1000
0010
1000
0100
1000
0001
1000
0100
1000
0001
0010
0001
0010
0100
1000
,
0001
0010
0001
0010
0100
1000
0010
1000
0100
1000
0001
0100
0010
1000
0010
0100
,
0001
1000
0100
1000
0010
1000
0001
1000
0010
1000
0001
0100
0001
0100
0010
1000
,
0001
0100
0001
0100
0010
1000
0100
1000
0010
1000
0001
0010
0100
1000
0100
0010
,
0001
0000
0000
0000
0000
0000
1000
1000
,
0020
0230
0320
0030
;

//---------------dance-single - I. Pyles----------------
#NOTES:
     dance-single:
     I. Pyles:
     Challenge:
     14:
     1.000,1.000,0.085,0.211,1.000,1836.000,21.000,52.000,0.000,0.000:

0000
0000
0000
0000
,
0000
0000
0000
0000
,
0000
0000
0000
0000
,
0000
0000
0000
0000
,
0000
0000
0000
0000
,
0000
0000
0000
0000
,
0000
0000
0000
0000
,
0000
0000
0000
0000
,
0000
0000
0000
0000
,
0000
0000
0000
0000
,
1001
0001
0100
0010
0010
1000
0001
0100
,
0010
0000
0010
0000
1000
0000
0001
0000
0010
0000
0010
0000
0100
1000
0001
0000
,
1000
1000
0010
0100
0100
0001
1000
0010
,
0100
0000
0100
0000
0001
0000
1000
0000
0100
0000
0100
0000
0010
0001
1000
0001
,
0010
0100
0100
0100
1000
0001
0001
0001
,
0100
0010
0010
0010
1000
0001
0001
0001
,
1001
1000
1100
1000
1001
0001
0101
0001
,
1000
0100
0010
0001
0100
0010
1000
0001
0010
0100
1000
0001
1000
0000
0000
0000
,
0001
0100
0010
1000
0010
0100
0001
0010
0001
0100
0001
1000
0001
1000
0001
1000
,
0010
0100
0010
0100
0001
0010
0001
0010
0100
1000
0001
1000
0100
0010
0001
0010
,
0100
1000
0001
1000
0100
1000
0001
1000
0010
0100
0001
0100
0010
0100
0001
0100
,
0001
0010
0100
1000
0001
0100
0010
0100
0001
0010
0100
1000
0001
0100
0001
1000
,
0010
0100
0010
1000
0001
0010
0100
0010
0100
1000
0001
0100
0010
0100
0010
1000
,
0001
0010
0100
1000
0001
1000
0100
0010
0001
0100
0010
1000
0001
1000
0010
0100
,
0001
1000
0100
0010
0001
1000
0100
0010
0001
1000
0001
1000
0100
0010
0100
1000
,
0001
0100
0010
1000
0001
1000
0010
0100
0001
0010
0100
1000
0001
1000
0100
0010
,
0001
0100
0010
1000
0010
1000
0001
0010
0001
0100
0010
1000
0001
0010
0001
0010
,
0100
1000
0001
1000
0100
0010
0001
0010
0100
1000
0010
0100
0010
1000
0001
0010
,
0100
0010
0001
1000
0100
0010
0001
1000
0100
1000
0001
1000
0100
0010
0001
1000
,
0010
1000
0001
0100
0010
1000
0100
0010
0001
1000
0010
1000
0001
0100
0010
1000
,
0100
0010
0100
1000
0001
0100
0010
0100
0010
1000
0001
0010
0100
0010
0100
1000
,
0001
0100
0010
1000
0001
1000
0010
0100
0001
0010
0100
1000
0001
1000
0100
0010
,
0002
0000
0000
0000
0003
0000
1000
1000
,
0020
0230
0320
0030
,
0100
0001
1001
0001
,
0020
0001
0130
2000
,
0010
3002
0010
2003
,
0100
0000
3001
0100
0010
0100
0001
0010
,
0110
0001
1001
0001
,
0200
0010
0301
2000
,
0100
3002
0010
2003
,
0100
0000
0000
3000
0011
0000
0000
0000
0001
0000
0010
0000
0000
0000
0000
0000
,
1001
0001
0011
0020
,
0001
0130
2000
0010
,
3002
0000
0100
0000
1000
0000
0020
0003
,
0000
0000
0031
0010
0100
0010
0001
0100
,
0120
0000
1000
0000
0100
0030
0002
0000
,
0010
0000
1000
0000
0200
0003
0000
0300
,
0110
0100
0000
0000
,
0000
0001
0000
0000
,
1010
1000
0010
1000
0001
1000
0010
1000
,
0010
1000
0001
0010
0100
0000
0000
0000
,
1000
0001
0010
0001
1000
0001
0010
0001
,
0010
0001
1000
0100
0010
0100
1000
0010
,
0110
0010
0100
0001
1000
0001
0100
0001
,
0100
0001
1000
0100
0010
0000
0000
0000
,
0001
1000
0010
1000
0001
1000
0010
1000
,
0010
1000
0001
0010
0100
0010
0000
0000
,
0011
0001
0010
0001
1000
0001
0010
0001
,
0010
0001
1000
0010
0100
0000
0000
0000
,
0001
1000
0010
1000
0001
1000
0010
1000
,
0010
1000
0001
0100
0010
0100
0001
0010
,
0110
0010
0100
1000
0001
1000
0100
1000
,
0100
1000
0001
0100
0010
0000
0000
0000
,
2000
0000
0000
0000
0000
3000
1000
0100
0010
0000
0100
0000
1000
0000
0020
0000
,
0000
0030
0010
0000
1000
0000
0001
0000
0100
0000
0010
1000
0010
0000
1000
0001
,
1000
0100
0010
0001
1000
0001
0010
0100
1000
0010
0100
0001
1000
0001
0100
0010
,
1000
0001
0010
0100
1000
0001
0010
0100
1000
0001
0100
0010
1000
0001
0100
0010
,
1000
0001
0010
0100
0010
0100
1000
0001
0100
0010
0100
0001
1000
0100
0010
0100
,
1000
0001
0010
0001
1000
0100
1000
0001
1000
0010
1000
0001
0100
0010
1000
0001
,
0010
0100
1000
0001
1000
0100
0010
0100
1000
0001
0010
0001
0010
0100
1000
0001
,
0010
0100
1000
0001
1000
0100
0010
0100
1000
0001
0010
0001
0010
0100
1000
0001
,
0100
0010
1000
0001
0100
0010
0100
0010
1000
0001
0100
0010
0100
0010
1000
0001
,
0010
0001
1000
0001
0010
0001
1000
0001
0010
0100
1000
0001
0100
0010
1000
0001
,
1000
0100
0010
0001
1000
0001
0010
0100
1000
0010
0100
0001
1000
0100
0010
0001
,
1000
0001
0010
0100
1000
0010
0100
0001
1000
0001
0100
0010
1000
0001
0100
0010
,
1000
0001
0010
0100
0010
0100
1000
0001
1000
0100
0010
0100
0010
0001
0100
0010
,
1000
0001
0010
0001
1000
0100
1000
0001
1000
0010
1000
0001
0100
0010
1000
0001
,
0010
0100
1000
0001
1000
0100
0010
0100
1000
0001
0010
0001
0010
0100
1000
0001
,
0010
0100
1000
0001
1000
0100
0010
0100
1000
0001
0010
0001
0010
0100
1000
0001
,
0100
0000
0000
0000
0000
0000
0001
0001
,
0020
0230
0320
0030
,
0001
0010
0100
1000
0100
0010
0001
0100
0001
0010
0001
1000
0001
1000
0001
1000
,
0100
0010
0100
0010
0001
0100
0001
0100
0010
1000
0001
1000
0010
0100
0001
0100
,
0010
1000
0001
1000
0010
1000
0001
1000
0100
0010
0001
0010
0100
0010
0001
0010
,
0001
0100
0010
1000
0001
0010
0100
0010
0001
0100
0010
1000
0001
0010
0001
1000
,
0100
0010
0100
1000
0001
0100
0010
0100
0010
1000
0001
0010
0100
0010
0100
1000
,
0001
0100
0010
1000
0001
1000
0010
0100
0001
0010
0100
1000
0001
1000
0100
0010
,
0001
1000
0010
0100
0001
1000
0010
0100
0001
1000
0001
1000
0010
0100
0010
1000
,
0001
0010
0100
1000
0001
1000
0100
0010
0001
0100
0010
1000
0001
1000
0010
0100
,
0001
0010
0100
1000
0100
1000
0001
0100
0001
0010
0100
1000
0001
0100
0001
0100
,
0010
1000
0001
1000
0010
0100
0001
0100
0010
1000
0100
0010
0100
1000
0001
0100
,
0010
0100
0001
1000
0010
0100
0001
1000
0010
1000
0001
1000
0010
0100
0001
1000
,
0100
1000
0001
0010
0100
1000
0010
0100
0001
1000
0100
1000
0001
0010
0100
1000
,
0010
0100
0010
1000
0001
0010
0100
0010
0100
1000
0001
0100
0010
0100
0010
1000
,
0001
0010
0100
1000
0001
1000
0100
0010
0001
0100
0010
1000
0001
1000
0010
0100
,
0002
0000
0000
0000
0003
0000
1000
1000
,
0020
0230
0320
0030
,
1000
0000
0000
0000
0001
0000
0100
0000
0000
0000
0002
0000
0000
0003
0001
0000
,
1000
0000
0001
0001
0100
0001
0100
0010
,
2000
0000
3020
0000
2030
0000
3010
0010
,
0100
0000
0001
0000
0010
0100
0010
0000
,
0001
0000
1000
0100
0000
1000
1000
1000
,
0002
0000
0003
1000
0100
1000
0100
0010
,
0002
0000
0013
0001
0010
0001
0010
0010
,
0100
1000
0001
0100
,
0010
0000
0000
0000
0100
0000
0002
0000
0000
0003
0001
0000
0000
0000
1000
0000
,
0010
0000
0000
0000
0100
0000
0020
0000
0000
0030
0010
0000
1000
0000
0001
0000
,
0020
0000
0130
0010
0100
0010
0001
1000
,
0010
0010
0100
0100
,
0010
0000
0000
0000
0100
0000
0002
0000
0000
0003
0001
0000
0000
0000
1000
0000
,
0010
0000
0000
0000
0100
0000
0020
0000
0000
0030
0010
0000
1000
0000
0001
0000
,
0020
0000
0130
0010
0100
0010
0001
1000
,
0100
0100
0010
0010
,
0011
0001
0010
0001
1000
0001
0010
0001
,
0010
0001
1000
0010
0100
0000
0000
0000
,
0001
1000
0010
1000
0001
1000
0010
1000
,
0010
1000
0001
0100
0010
0100
0001
0010
,
0110
0010
0100
1000
0001
1000
0100
1000
,
0100
1000
0001
0100
0010
0000
0000
0000
,
1000
0001
0010
0001
1000
0001
0010
0001
,
0010
0001
1000
0010
0100
0010
0000
0000
,
1010
1000
0010
1000
0001
1000
0010
1000
,
0010
1000
0001
0010
0100
0000
0000
0000
,
1000
0001
0010
0001
1000
0001
0010
0001
,
0010
0001
1000
0100
0010
0100
1000
0010
,
0110
0010
0100
0001
1000
0001
0100
0001
,
0100
0001
1000
0100
0010
0000
0000
0000
,
0002
0000
0000
0000
0000
0003
0001
0010
0100
0000
0010
0000
0001
0000
0200
0000
,
0000
0300
0100
0000
0001
0000
1000
0000
0010
0000
0100
0001
0100
0000
0001
1000
,
0001
0010
0100
1000
0001
1000
0100
0010
0001
0100
0010
1000
0001
1000
0010
0100
,
0001
1000
0100
0010
0001
1000
0100
0010
0001
1000
0010
0100
0001
1000
0010
0100
,
0001
1000
0100
0010
0100
0010
0001
1000
0010
0100
0010
1000
0001
0010
0100
0010
,
0001
1000
0100
1000
0001
0010
0001
1000
0001
0100
0001
1000
0010
0100
0001
1000
,
0100
0010
0001
1000
0001
0010
0100
0010
0001
1000
0100
1000
0100
0010
0001
1000
,
0100
0010
0001
1000
0001
0010
0100
0010
0001
1000
0100
1000
0100
0010
0001
1000
,
0010
0100
0001
1000
0010
0100
0010
0100
0001
1000
0010
0100
0010
0100
0001
1000
,
0100
1000
0001
1000
0100
1000
0001
1000
0100
0010
0001
1000
0010
0100
0001
1000
,
0001
0010
0100
1000
0001
1000
0100
0010
0001
0100
0010
1000
0001
0010
0100
1000
,
0001
1000
0100
0010
0001
0100
0010
1000
0001
1000
0010
0100
0001
1000
0010
0100
,
0001
1000
0100
0010
0100
0010
0001
1000
0001
0010
0100
0010
0100
1000
0010
0100
,
0001
1000
0100
1000
0001
0010
0001
1000
0001
0100
0001
1000
0010
0100
0001
1000
,
0100
0010
0001
1000
0001
0010
0100
0010
0001
1000
0100
1000
0100
0010
0001
1000
,
0100
0010
0001
1000
0001
0010
0100
0010
0001
1000
0100
1000
0100
0010
0001
1000
,
0010
0000
0000
0000
0000
0000
1000
1000
,
0020
0230
0320
0030
,
1000
0010
0100
0001
0100
0010
1000
0100
1000
0010
1000
0001
1000
0001
1000
0001
,
0100
0010
0100
0010
1000
0100
1000
0100
0010
0001
1000
0001
0010
0100
1000
0100
,
0010
0001
1000
0001
0010
0001
1000
0001
0100
0010
1000
0010
0100
0010
1000
0010
,
1000
0100
0010
0001
1000
0010
0100
0010
1000
0100
0010
0001
1000
0010
1000
0001
,
0100
0010
0100
0001
1000
0100
0010
0100
0010
0001
1000
0010
0100
0010
0100
0001
,
1000
0100
0010
0001
1000
0001
0010
0100
1000
0010
0100
0001
1000
0001
0100
0010
,
1000
0001
0010
0100
1000
0001
0010
0100
1000
0001
1000
0001
0010
0100
0010
0001
,
1000
0010
0100
0001
1000
0001
0100
0010
1000
0100
0010
0001
1000
0001
0010
0100
,
1000
0010
0100
0001
0100
0001
1000
0100
1000
0010
0100
0001
1000
0100
1000
0100
,
0010
0001
1000
0001
0010
0100
1000
0100
0010
0001
0100
0010
0100
0001
1000
0100
,
0010
0100
1000
0001
0010
0100
1000
0001
0010
0001
1000
0001
0010
0100
1000
0001
,
0100
0001
1000
0010
0100
0001
0010
0100
1000
0001
0100
0001
1000
0010
0100
0001
,
0010
0100
0010
0001
1000
0010
0100
0010
0100
0001
1000
0100
0010
0100
0010
0001
,
1000
0010
0100
0001
1000
0001
0100
0010
1000
0100
0010
0001
1000
0001
0010
0100
,
2000
0000
3100
0010
0100
0010
0001
0001
,
0020
0230
0320
0030
,
0001
1000
0100
1000
0010
1000
0001
1000
0010
1000
0001
0100
0001
0100
0010
1000
,
0001
0100
0001
0100
0010
1000
0100
1000
0010
1000
0001
0010
0100
1000
0100
0010
,
0001
1000
0010
1000
0100
1000
0001
1000
0100
1000
0001
0010
0001
0010
0100
1000
,
0001
0010
0001
0010
0100
1000
0010
1000
0100
1000
0001
0100
0010
1000
0010
0100
,
0001
1000
0100
1000
0010
1000
0001
1000
0010
1000
0001
0100
0001
0100
0010
1000
,
0001
0100
0001
0100
0010
1000
0100
1000
0010
1000
0001
0010
0100
1000
0100
0010
,
0001
1000
0010
1000
0100
1000
0001
1000
0100
1000
0001
0010
0001
0010
0100
1000
,
0001
0010
0001
0010
0100
1000
0010
1000
0100
1000
0001
0100
0010
1000
0010
0100
,
0001
1000
0100
1000
0010
1000
0001
1000
0010
1000
0001
0100
0001
0100
0010
1000
,
0001
0100
0001
0100
0010
1000
0100
1000
0010
1000
0001
0010
0100
1000
0100
0010
,
0001
1000
0010
1000
0100
1000
0001
1000
0100
1000
0001
0010
0001
0010
0100
1000
,
0001
0010
0001
0010
0100
1000
0010
1000
0100
1000
0001
0100
0010
1000
0010
0100
,
0001
1000
0100
1000
0010
1000
0001
1000
0010
1000
0001
0100
0001
0100
0010
1000
,
0001
0100
0001
0100
0010
1000
0100
1000
0010
1000
0001
0010
0100
1000
0100
0010
,
0001
0000
0000
0000
0000
0000
1000
1000
,
0020
0230
0320
0030
;
