#TITLE:Still Grey;
#SUBTITLE:;
#ARTIST:Pendulum;
#TITLETRANSLIT:;
#SUBTITLETRANSLIT:;
#ARTISTTRANSLIT:;
#CREDIT:;
#BANNER:stillgreybn.png;
#BACKGROUND:stillgreybg.png;
#LYRICSPATH:;
#CDTITLE:;
#MUSIC:stillgrey.ogg;
#OFFSET:1.380;
#SAMPLESTART:241.370;
#SAMPLELENGTH:21.940;
#SELECTABLE:YES;
#BPMS:0.000=175.000;
#STOPS:;
#BGCHANGES:;
// cache tags:
#FIRSTBEAT:4.000;
#LASTBEAT:1340.000;
#SONGFILENAME:Songs/Pendulum/Still Grey/stillgrey.sm;
#HASMUSIC:1;
#HASBANNER:1;
#MUSICLENGTH:466.000;
// end cache tags

//---------------dance-single - I. Pyles----------------
#NOTES:
     dance-single:
     I. Pyles:
     Beginner:
     1:
     0.026,0.036,0.000,0.000,0.000,84.000,0.000,0.000,0.000,0.000:

0000
0000
0000
0000
,
0100
0000
0000
0000
,
0000
0000
0000
0000
,
0000
0000
0000
0000
,
0000
0000
0000
0000
,
0010
0000
0000
0000
,
0000
0000
0000
0000
,
0000
0000
0000
0000
,
0000
0000
0000
0000
,
0100
0000
0000
0000
,
0000
0000
0000
0000
,
0000
0000
0000
0000
,
0000
0000
0000
0000
,
1000
0000
0000
0000
,
0000
0000
0000
0000
,
0000
0000
0000
0000
,
0000
0000
0000
0000
,
0010
0000
0000
0000
,
0000
0000
0000
0000
,
0000
0000
0000
0000
,
0000
0000
0000
0000
,
1000
0000
0000
0000
,
0000
0000
0000
0000
,
0000
0000
0000
0000
,
0000
0000
0000
0000
,
0100
0000
0000
0000
,
0000
0000
0000
0000
,
0000
0000
0000
0000
,
0000
0000
0000
0000
,
1000
0000
0000
0000
,
0000
0000
0000
0000
,
0000
0000
0000
0000
,
0000
0000
0000
0000
,
1000
0000
0000
0000
,
0000
0000
0000
0000
,
0000
0000
0000
0000
,
0000
0000
0000
0000
,
1000
0000
0000
0000
,
0000
0000
0000
0000
,
0000
0000
0000
0000
,
0000
0000
0000
0000
,
1000
0000
0000
0000
,
0000
0000
0000
0000
,
0000
0000
0000
0000
,
0000
0000
0000
0000
,
0100
0000
0000
0000
,
0000
0000
0000
0000
,
0000
0000
0000
0000
,
0000
0000
0000
0000
,
0100
0000
0000
0000
,
0000
0000
0000
0000
,
0000
0000
0000
0000
,
0000
0000
0000
0000
,
0100
0000
0000
0000
,
0000
0000
0000
0000
,
0000
0000
0000
0000
,
0000
0000
0000
0000
,
0010
0000
0000
0000
,
0000
0000
0000
0000
,
0000
0000
0000
0000
,
0000
0000
0000
0000
,
1000
0000
0000
0000
,
0000
0000
0000
0000
,
0000
0000
0000
0000
,
0000
0000
0000
0000
,
0010
0000
0000
0000
,
0000
0000
0000
0000
,
0000
0000
0000
0000
,
0000
0000
0000
0000
,
1000
0000
0000
0000
,
0000
0000
0000
0000
,
0000
0000
0000
0000
,
0000
0000
0000
0000
,
1000
0000
0000
0000
,
0000
0000
0000
0000
,
0000
0000
0000
0000
,
0000
0000
0000
0000
,
0010
0000
0000
0000
,
0000
0000
0000
0000
,
0000
0000
0000
0000
,
0000
0000
0000
0000
,
0010
0000
0000
0000
,
0000
0000
0000
0000
,
0000
0000
0000
0000
,
0000
0000
0000
0000
,
1000
0000
0000
0000
,
0000
0000
0000
0000
,
0000
0000
0000
0000
,
0000
0000
0000
0000
,
1000
0000
0000
0000
,
0000
0000
0000
0000
,
0000
0000
0000
0000
,
0000
0000
0000
0000
,
0100
0000
0000
0000
,
0000
0000
0000
0000
,
0000
0000
0000
0000
,
0000
0000
0000
0000
,
0100
0000
0000
0000
,
0000
0000
0000
0000
,
0000
0000
0000
0000
,
0000
0000
0000
0000
,
0010
0000
0000
0000
,
0000
0000
0000
0000
,
0000
0000
0000
0000
,
0000
0000
0000
0000
,
1000
0000
0000
0000
,
0000
0000
0000
0000
,
0000
0000
0000
0000
,
0000
0000
0000
0000
,
0010
0000
0000
0000
,
0000
0000
0000
0000
,
0000
0000
0000
0000
,
0000
0000
0000
0000
,
1000
0000
0000
0000
,
0000
0000
0000
0000
,
0000
0000
0000
0000
,
0000
0000
0000
0000
,
0010
0000
0000
0000
,
0000
0000
0000
0000
,
0000
0000
0000
0000
,
0000
0000
0000
0000
,
0010
0000
0000
0000
,
0000
0000
0000
0000
,
0000
0000
0000
0000
,
0000
0000
0000
0000
,
0010
0000
0000
0000
,
0000
0000
0000
0000
,
0000
0000
0000
0000
,
0000
0000
0000
0000
,
1000
0000
0000
0000
,
0000
0000
0000
0000
,
0000
0000
0000
0000
,
0000
0000
0000
0000
,
0010
0000
0000
0000
,
0000
0000
0000
0000
,
0000
0000
0000
0000
,
0000
0000
0000
0000
,
1000
0000
0000
0000
,
0000
0000
0000
0000
,
0000
0000
0000
0000
,
0000
0000
0000
0000
,
0100
0000
0000
0000
,
0000
0000
0000
0000
,
0000
0000
0000
0000
,
0000
0000
0000
0000
,
0001
0000
0000
0000
,
0000
0000
0000
0000
,
0000
0000
0000
0000
,
0000
0000
0000
0000
,
1000
0000
0000
0000
,
0000
0000
0000
0000
,
0000
0000
0000
0000
,
0000
0000
0000
0000
,
0100
0000
0000
0000
,
0000
0000
0000
0000
,
0000
0000
0000
0000
,
0000
0000
0000
0000
,
0010
0000
0000
0000
,
0000
0000
0000
0000
,
0000
0000
0000
0000
,
0000
0000
0000
0000
,
0100
0000
0000
0000
,
0000
0000
0000
0000
,
0000
0000
0000
0000
,
0000
0000
0000
0000
,
0010
0000
0000
0000
,
0000
0000
0000
0000
,
0000
0000
0000
0000
,
0000
0000
0000
0000
,
0100
0000
0000
0000
,
0000
0000
0000
0000
,
0000
0000
0000
0000
,
0000
0000
0000
0000
,
1000
0000
0000
0000
,
0000
0000
0000
0000
,
0000
0000
0000
0000
,
0000
0000
0000
0000
,
0010
0000
0000
0000
,
0000
0000
0000
0000
,
0000
0000
0000
0000
,
0000
0000
0000
0000
,
0100
0000
0000
0000
,
0000
0000
0000
0000
,
0000
0000
0000
0000
,
0000
0000
0000
0000
,
1000
0000
0000
0000
,
0000
0000
0000
0000
,
0000
0000
0000
0000
,
0000
0000
0000
0000
,
0010
0000
0000
0000
,
0000
0000
0000
0000
,
0000
0000
0000
0000
,
0000
0000
0000
0000
,
0001
0000
0000
0000
,
0000
0000
0000
0000
,
0000
0000
0000
0000
,
0000
0000
0000
0000
,
0010
0000
0000
0000
,
0000
0000
0000
0000
,
0000
0000
0000
0000
,
0000
0000
0000
0000
,
0100
0000
0000
0000
,
0000
0000
0000
0000
,
0000
0000
0000
0000
,
0000
0000
0000
0000
,
1000
0000
0000
0000
,
0000
0000
0000
0000
,
0000
0000
0000
0000
,
0000
0000
0000
0000
,
0100
0000
0000
0000
,
0000
0000
0000
0000
,
0000
0000
0000
0000
,
0000
0000
0000
0000
,
1000
0000
0000
0000
,
0000
0000
0000
0000
,
0000
0000
0000
0000
,
0000
0000
0000
0000
,
0100
0000
0000
0000
,
0000
0000
0000
0000
,
0000
0000
0000
0000
,
0000
0000
0000
0000
,
0010
0000
0000
0000
,
0000
0000
0000
0000
,
0000
0000
0000
0000
,
0000
0000
0000
0000
,
0010
0000
0000
0000
,
0000
0000
0000
0000
,
0000
0000
0000
0000
,
0000
0000
0000
0000
,
0010
0000
0000
0000
,
0000
0000
0000
0000
,
0000
0000
0000
0000
,
0000
0000
0000
0000
,
1000
0000
0000
0000
,
0000
0000
0000
0000
,
0000
0000
0000
0000
,
0000
0000
0000
0000
,
0100
0000
0000
0000
,
0000
0000
0000
0000
,
0000
0000
0000
0000
,
0000
0000
0000
0000
,
0010
0000
0000
0000
,
0000
0000
0000
0000
,
0000
0000
0000
0000
,
0000
0000
0000
0000
,
0010
0000
0000
0000
,
0000
0000
0000
0000
,
0000
0000
0000
0000
,
0000
0000
0000
0000
,
0010
0000
0000
0000
,
0000
0000
0000
0000
,
0000
0000
0000
0000
,
0000
0000
0000
0000
,
1000
0000
0000
0000
,
0000
0000
0000
0000
,
0000
0000
0000
0000
,
0000
0000
0000
0000
,
0010
0000
0000
0000
,
0000
0000
0000
0000
,
0000
0000
0000
0000
,
0000
0000
0000
0000
,
0100
0000
0000
0000
,
0000
0000
0000
0000
,
0000
0000
0000
0000
,
0000
0000
0000
0000
,
0100
0000
0000
0000
,
0000
0000
0000
0000
,
0000
0000
0000
0000
,
0000
0000
0000
0000
,
0010
0000
0000
0000
,
0000
0000
0000
0000
,
0000
0000
0000
0000
,
0000
0000
0000
0000
,
1000
0000
0000
0000
,
0000
0000
0000
0000
,
0000
0000
0000
0000
,
0000
0000
0000
0000
,
0001
0000
0000
0000
,
0000
0000
0000
0000
,
0000
0000
0000
0000
,
0000
0000
0000
0000
,
0100
0000
0000
0000
,
0000
0000
0000
0000
,
0000
0000
0000
0000
,
0000
0000
0000
0000
,
1000
0000
0000
0000
,
0000
0000
0000
0000
,
0000
0000
0000
0000
,
0000
0000
0000
0000
,
1000
0000
0000
0000
,
0000
0000
0000
0000
,
0000
0000
0000
0000
,
0000
0000
0000
0000
,
0100
0000
0000
0000
,
0000
0000
0000
0000
,
0000
0000
0000
0000
,
0000
0000
0000
0000
,
0100
0000
0000
0000
,
0000
0000
0000
0000
,
0000
0000
0000
0000
,
0000
0000
0000
0000
,
1000
0000
0000
0000
,
0000
0000
0000
0000
,
0000
0000
0000
0000
,
0000
0000
0000
0000
,
0100
0000
0000
0000
,
0000
0000
0000
0000
,
0000
0000
0000
0000
,
0000
0000
0000
0000
,
0010
0000
0000
0000
,
0000
0000
0000
0000
,
0000
0000
0000
0000
,
0000
0000
0000
0000
,
0010
0000
0000
0000
,
0000
0000
0000
0000
,
0000
0000
0000
0000
,
0000
0000
0000
0000
,
0010
0000
0000
0000
,
0000
0000
0000
0000
,
0000
0000
0000
0000
,
0000
0000
0000
0000
,
0001
0000
0000
0000
,
0000
0000
0000
0000
,
0000
0000
0000
0000
,
0000
0000
0000
0000
,
0100
0000
0000
0000
,
0000
0000
0000
0000
,
0000
0000
0000
0000
,
0000
0000
0000
0000
,
0100
0000
0000
0000
,
0000
0000
0000
0000
,
0000
0000
0000
0000
,
0000
0000
0000
0000
,
0010
0000
0000
0000
;

//---------------dance-single - I. Pyles----------------
#NOTES:
     dance-single:
     I. Pyles:
     Easy:
     12:
     0.869,1.000,0.002,0.693,0.437,2504.000,1.000,323.000,35.000,0.000:



0000
0000
0000
0000
,
0020
0000
0000
0000
,
0000
0100
0000
1000
0100
0000
1000
1000
,
0200
0030
0000
0000
,
0000
0000
0000
0000
0000
0000
0000
0000
0000
0000
0000
0000
0040
0030
0004
0003
,
0020
0300
0000
0000
,
0000
0100
0000
1000
0100
0000
1000
1000
,
0200
0030
0000
0000
,
0000
0000
0000
0000
,
0020
0300
0000
0000
,
0000
0100
0000
1000
0100
0000
1000
1000
,
0200
0030
0000
0000
,
0000
0000
0000
0000
0000
0000
0000
0000
0000
0000
0000
0000
0040
0030
0004
0003
,
0020
0300
0000
0000
,
0000
0100
0000
1000
0100
0000
1000
1000
,
0200
0030
0000
0000
,
0000
0000
0000
0000
,
0301
0010
0100
1000
0001
0010
0100
1000
,
0001
0010
0100
1000
0001
0010
0100
1000
,
0010
0100
0001
1000
0010
0100
0001
1000
,
0010
0000
0100
0000
0001
0000
1000
0000
0010
0000
0010
1000
0001
0000
0010
0000
,
0001
1000
0100
0010
0001
1000
0100
0010
,
0001
1000
0100
0010
0001
1000
0100
0010
,
0001
0100
0010
1000
0001
0100
0010
1000
,
0001
0100
0010
1000
0001
0100
0010
1000
,
0001
0010
0100
1000
0001
0010
0100
1000
,
0001
0010
0100
1000
0001
0010
0100
1000
,
0010
0100
0001
1000
0010
0100
0001
1000
,
0010
0000
0100
0000
0001
0000
1000
0000
0010
0000
0010
1000
0001
0000
0010
0000
,
0001
1000
0100
0010
0001
1000
0100
0010
,
0001
1000
0100
0010
0001
1000
0100
0010
,
0001
0100
0010
1000
0001
0100
0010
1000
,
0001
0100
0010
1000
0001
0100
0010
1000
,
0200
0000
0000
0000
,
0000
0010
0000
1000
0010
0000
1000
1000
,
0020
0300
0000
0000
,
0000
0000
0000
0000
0000
0000
0000
0000
0000
0000
0000
0000
0400
0300
0004
0003
,
0200
0030
0000
0000
,
0000
0010
0000
1000
0010
0000
1000
1000
,
0020
0300
0000
0000
,
0000
0000
0000
0000
,
0200
0030
0000
0000
,
0000
0000
0000
0000
,
0020
0300
0000
0000
,
0000
0000
0000
0000
,
0200
0030
0000
0000
,
0000
0000
0000
0000
,
0000
0000
0000
0000
,
0000
0000
0000
0000
,
1300
0000
0001
0000
0010
0000
0001
0000
1000
0000
0001
0000
0010
0000
0100
1000
,
0001
0000
1000
0000
0010
0000
1000
0000
0001
0100
0001
0000
0010
0000
0100
0000
,
1000
0000
0001
0000
0010
0000
0001
0000
1000
0000
0001
0000
0010
0000
0100
1000
,
0002
0000
0013
0200
0000
0310
0002
0000
,
1003
0000
1000
0000
M100
0000
1000
0000
0001
0010
0001
0000
1000
0000
0001
0010
,
0001
0000
0001
0000
010M
0000
0001
0000
1000
0010
1000
0000
0001
0000
1000
0010
,
1000
0000
1000
0000
M100
0000
1000
0000
0001
0100
0001
0000
1000
0000
0001
0100
,
0001
0000
0001
0000
001M
0000
0001
0000
1000
0010
0100
0000
0001
0000
1000
0000
,
0001
0000
1000
0000
0010
0000
1000
0000
0001
0000
1000
0000
0010
0000
0100
0001
,
1000
0000
0001
0000
0010
0000
0001
0000
1000
0100
1000
0000
0010
0000
0100
0000
,
0001
0000
1000
0000
0010
0000
1000
0000
0001
0000
1000
0000
0010
0000
0100
0001
,
2000
0000
3010
0200
0000
0310
2000
0000
,
3001
0000
0001
0000
001M
0000
0001
0000
1000
0100
1000
0000
0001
0000
1000
0100
,
1000
0000
1000
0000
M010
0000
1000
0000
0001
0100
0001
0000
1000
0000
0001
0100
,
0001
0000
0001
0000
001M
0000
0001
0000
1000
0010
1000
0000
0001
0000
1000
0010
,
1000
0000
000M
0000
00M0
0000
0M00
0000
1000
0010
1000
0001
0100
0001
0010
0001
,
1000
0000
0001
0000
0010
0000
0001
0000
1000
0000
0001
0000
0010
0000
0100
1000
,
0001
0000
1000
0000
0010
0000
1000
0000
0001
0100
0001
0000
0010
0000
0100
0000
,
1000
0000
0001
0000
0010
0000
0001
0000
1000
0000
0001
0000
0010
0000
0100
1000
,
0002
0000
0013
0200
0000
0310
0002
0000
,
1003
0000
1000
0000
M100
0000
1000
0000
0001
0010
0001
0000
1000
0000
0001
0010
,
0001
0000
0001
0000
010M
0000
0001
0000
1000
0010
1000
0000
0001
0000
1000
0010
,
1000
0000
1000
0000
M100
0000
1000
0000
0001
0100
0001
0000
1000
0000
0001
0100
,
0001
0000
0001
0000
001M
0000
0001
0000
1000
0010
0100
0000
0001
0000
1000
0000
,
0001
0000
1000
0000
0010
0000
1000
0000
0001
0000
1000
0000
0010
0000
0100
0001
,
1000
0000
0001
0000
0010
0000
0001
0000
1000
0100
1000
0000
0010
0000
0100
0000
,
0001
0000
1000
0000
0010
0000
1000
0000
0001
0000
1000
0000
0010
0000
0100
0001
,
2000
0000
3010
0200
0000
0310
2000
0000
,
3001
0000
0001
0000
001M
0000
0001
0000
1000
0100
1000
0000
0001
0000
1000
0100
,
1000
0000
1000
0000
M010
0000
1000
0000
0001
0100
0001
0000
1000
0000
0001
0100
,
0001
0000
0001
0000
001M
0000
0001
0000
1000
0010
1000
0000
0001
0000
1000
0010
,
1000
0000
0000
0000
0000
0000
0001
0000
1000
0000
0001
0000
1000
0000
0000
0010
0000
0000
0000
0000
0000
0010
0000
0000
1000
0000
0000
0100
0000
0000
0010
0000
0000
0100
0000
0000
1000
0000
0000
0010
0000
0000
1000
0000
0000
0001
0000
0000
,
1000
0000
0001
0000
0010
0000
0001
0000
1000
0100
1000
0000
0001
0100
0001
1000
,
0001
0000
1000
0000
0010
0000
1000
0000
0001
0100
0001
0000
1000
0100
1000
0001
,
1000
0000
0001
0000
0010
0000
0001
0000
1000
0100
1000
0000
0001
0100
0001
1000
,
0002
0000
0013
0200
0000
0310
0002
0000
,
1003
0000
1000
0000
0020
0000
1030
0000
0001
0100
0001
0000
0100
0001
0010
0100
,
1000
0000
1000
0000
0020
0000
1030
0000
0001
0010
0001
0000
0010
0001
0100
0010
,
1000
0000
1000
0000
0020
0000
1030
0000
0001
0100
0001
0000
0100
0001
0010
0100
,
1000
0000
1000
0000
0020
0000
1030
0000
0001
0100
0010
0100
0001
0010
0100
1000
,
0001
0000
1000
0000
0010
0000
1000
0000
0001
0100
0001
0000
1000
0100
1000
0001
,
1000
0000
0001
0000
0010
0000
0001
0000
1000
0100
1000
0000
0001
0100
0001
1000
,
0001
0000
1000
0000
0010
0000
1000
0000
0001
0100
0001
0000
1000
0100
1000
0001
,
1000
0000
0001
0000
0010
0000
0001
0000
1000
0100
1000
0000
0001
0100
0001
1000
,
0001
0000
0001
0000
0020
0000
0031
0000
1000
0010
1000
0000
0010
1000
0100
0010
,
0001
0000
0001
0000
0020
0000
0031
0000
1000
0100
1000
0000
0100
1000
0010
0100
,
0001
0000
0001
0000
0020
0000
0031
0000
1000
0010
1000
0000
0010
1000
0100
0010
,
0001
0000
0001
0000
0020
0000
0031
0000
1000
0010
0100
0010
1000
0100
0010
0001
,
1000
0000
0001
0000
0010
0000
0001
0000
1000
0100
1000
0000
0001
0100
0001
1000
,
0001
0000
1000
0000
0010
0000
1000
0000
0001
0100
0001
0000
1000
0100
1000
0001
,
1000
0000
0001
0000
0010
0000
0001
0000
1000
0100
1000
0000
0001
0100
0001
1000
,
0002
0000
0013
0200
0000
0310
0002
0000
,
1003
0000
1000
0000
0020
0000
1030
0000
0001
0100
0001
0000
0100
0001
0010
0100
,
1000
0000
1000
0000
0020
0000
1030
0000
0001
0010
0001
0000
0010
0001
0100
0010
,
1000
0000
1000
0000
0020
0000
1030
0000
0001
0100
0001
0000
0100
0001
0010
0100
,
1000
0000
1000
0000
0020
0000
1030
0000
0001
0100
0010
0100
0001
0010
0100
1000
,
0001
0000
1000
0000
0010
0000
1000
0000
0001
0100
0001
0000
1000
0100
1000
0001
,
1000
0000
0001
0000
0010
0000
0001
0000
1000
0100
1000
0000
0001
0100
0001
1000
,
0001
0000
1000
0000
0010
0000
1000
0000
0001
0100
0001
0000
1000
0100
1000
0001
,
1000
0000
0001
0000
0010
0000
0001
0000
1000
0100
1000
0000
0001
0100
0001
1000
,
0001
0000
0001
0000
0020
0000
0031
0000
1000
0010
1000
0000
0010
1000
0100
0010
,
0001
0000
0001
0000
0020
0000
0031
0000
1000
0100
1000
0000
0100
1000
0010
0100
,
0001
0000
0001
0000
0020
0000
0031
0000
1000
0010
1000
0000
0010
1000
0100
0010
,
0001
0000
0001
0000
0020
0000
0031
0000
1000
0010
0100
0010
1000
0100
0010
0001
,
1000
0000
0002
0003
0000
0000
0000
0000
0002
0000
0003
0000
0000
0000
0000
0100
,
0010
0000
1000
0000
0100
0000
0010
0000
0001
0000
0100
0010
0100
0010
0100
0001
,
1000
0000
0002
0003
0010
0000
0100
1000
0002
0000
1003
0000
0010
0000
0000
0100
,
0010
1000
0100
0010
0001
0100
0010
1000
,
0001
0000
2000
3000
0100
0000
0010
0001
2000
0000
3001
0000
0100
0000
0000
0010
,
0100
0001
0010
0100
1000
0010
0100
0001
,
1000
0000
0002
0003
0010
0000
0100
1000
0002
0000
1003
0000
0010
0000
0000
0100
,
0010
1000
0100
0010
0001
0100
0010
1000
,
0001
0000
2000
3000
0100
0000
0010
0001
2000
0000
3001
0000
0100
0000
0000
0010
,
0100
0001
0010
0100
1000
0010
0100
0001
,
1000
0000
0002
0003
0010
0000
0100
1000
0002
0000
1003
0000
0010
0000
0000
0100
,
0010
1000
0100
0010
0001
0100
0010
1000
,
0001
0000
2000
3000
0100
0000
0010
0001
2000
0000
3001
0000
0100
0000
0000
0010
,
0100
0001
0010
0100
1000
0010
0100
0001
,
1000
0000
0002
0003
0010
0000
0100
1000
0002
0000
1003
0000
0010
0000
0000
0100
,
0010
1000
0100
0010
0001
0100
0010
1000
,
0001
0000
2000
3000
0100
0000
0010
0001
2000
0000
3001
0000
0100
0000
0000
0010
,
0100
0001
0010
0100
1000
0010
0100
0001
,
1000
0000
0002
0003
0010
0000
0100
1000
0002
0000
1003
0000
0010
0000
0000
0100
,
0010
1000
0100
0010
0001
0100
0010
1000
,
0001
0000
2000
3000
0100
0000
0010
0001
2000
0000
3001
0000
0100
0000
0000
0010
,
0100
0001
0010
0100
1000
0010
0100
0001
,
1000
0000
0002
0003
0010
0000
0100
1000
0002
0000
1003
0000
0010
0000
0000
0100
,
0010
1000
0100
0010
0001
0100
0010
1000
,
0001
0000
2000
3000
0100
0000
0010
0001
2000
0000
3001
0000
0100
0000
0000
0010
,
0100
0001
0010
0100
1000
0010
0100
0001
,
1000
0000
0002
0003
0010
0000
0100
1000
0002
0000
1003
0000
0010
0000
0000
0100
,
0010
1000
0100
0010
0001
0100
0010
1000
,
0001
0000
2000
3000
0100
0000
0010
0001
2000
0000
3001
0000
0100
0000
0000
0010
,
0100
0001
0010
0100
1000
0010
0100
0001
,
1000
0000
0002
0003
0010
0000
0100
1000
0002
0000
1003
0000
0010
0000
0000
0100
,
0010
1000
0100
0010
0001
0100
0010
0010
,
1000
0000
0002
0003
0000
0000
0000
0000
0002
0000
0003
0000
0000
0000
0000
0100
,
0010
1000
0100
0010
0001
0100
0010
1000
,
0001
0000
2000
3000
0000
0000
0000
0000
2000
0000
3000
0000
0000
0000
0000
0010
,
0100
0001
0010
0100
1000
0010
0100
0001
,
1000
0000
0002
0003
0000
0000
0000
0000
0002
0000
0003
0000
0000
0000
0000
0100
,
0010
1000
0100
0010
0001
0100
0010
1000
,
0001
0000
2000
3000
0000
0000
0000
0000
2000
0000
3000
0000
0000
0000
0000
0010
,
0100
0001
0010
0100
1000
0010
0100
0100
,
0001
0000
2000
3000
0000
0000
0000
0000
2000
0000
3000
0000
0000
0000
0000
0010
,
0100
0001
0010
0100
1000
0010
0100
0001
,
1000
0000
0002
0003
0000
0000
0000
0000
0002
0000
0003
0000
0000
0000
0000
0100
,
0010
1000
0100
0010
0001
0100
0010
1000
,
0001
0000
2000
3000
0000
0000
0000
0000
2000
0000
3000
0000
0000
0000
0000
0010
,
0100
0001
0010
0100
1000
0010
0100
0001
,
1000
0000
0002
0003
0000
0000
0000
0000
0002
0000
0003
0000
0000
0000
0000
0100
,
0010
0100
0001
0010
0100
1000
0010
0100
,
0001
0010
0100
1000
0001
0010
0100
1000
,
0001
0010
0100
1000
0001
0010
0100
1000
,
0010
0100
0001
1000
0010
0100
0001
1000
,
0010
0000
0100
0000
0001
0000
1000
0000
0010
0000
0010
1000
0001
0000
0010
0000
,
0001
1000
0100
0010
0001
1000
0100
0010
,
0001
1000
0100
0010
0001
1000
0100
0010
,
0001
0100
0010
1000
0001
0100
0010
1000
,
0001
0100
0010
1000
0001
0100
0010
1000
,
0200
0000
0000
0000
,
0000
0010
0000
1000
0010
0000
1000
1000
,
0020
0300
0000
0000
,
0000
0000
0000
0000
,
0200
0030
0000
0000
,
0000
0000
0000
0000
,
0000
0000
0000
0000
,
0000
0010
0010
0010
0010
0010
0010
0010
,
0301
0000
1000
0000
0010
0000
1000
0000
0001
0000
1000
0000
0010
0000
0100
0001
,
1000
0000
0001
0000
0010
0000
0001
0000
1000
0100
1000
0000
0010
0000
0100
0000
,
0001
0000
1000
0000
0010
0000
1000
0000
0001
0000
1000
0000
0010
0000
0100
0001
,
2000
0000
3010
0200
0000
0310
2000
0000
,
3001
0000
0001
0000
010M
0000
0001
0000
1000
0010
1000
0000
0001
0000
1000
0010
,
1000
0000
1000
0000
M100
0000
1000
0000
0001
0010
0001
0000
1000
0000
0001
0010
,
0001
0000
0001
0000
010M
0000
0001
0000
1000
0100
1000
0000
0001
0000
1000
0100
,
1000
0000
1000
0000
M010
0000
1000
0000
0001
0010
0100
0000
1000
0000
0001
0000
,
1000
0000
0001
0000
0010
0000
0001
0000
1000
0000
0001
0000
0010
0000
0100
1000
,
0001
0000
1000
0000
0010
0000
1000
0000
0001
0100
0001
0000
0010
0000
0100
0000
,
1000
0000
0001
0000
0010
0000
0001
0000
1000
0000
0001
0000
0010
0000
0100
1000
,
0002
0000
0013
0200
0000
0310
0002
0000
,
1003
0000
1000
0000
M010
0000
1000
0000
0001
0100
0001
0000
1000
0000
0001
0100
,
0001
0000
0001
0000
001M
0000
0001
0000
1000
0100
1000
0000
0001
0000
1000
0100
,
1000
0000
1000
0000
M010
0000
1000
0000
0001
0010
0001
0000
1000
0000
0001
0010
,
0001
0000
0001
0000
110M
0000
0001
0000
1000
0100
1000
0000
0100
1000
0010
0100
,
0001
0000
1000
0000
0010
0000
1000
0000
0001
0000
1000
0000
0010
0000
0100
0001
,
1000
0000
0001
0000
0010
0000
0001
0000
1000
0100
1000
0000
0010
0000
0100
0000
,
0001
0000
1000
0000
0010
0000
1000
0000
0001
0000
1000
0000
0010
0000
0100
0001
,
2000
0000
3010
0200
0000
0310
2000
0000
,
3001
0000
0001
0000
010M
0000
0001
0000
1000
0010
1000
0000
0001
0000
1000
0010
,
1000
0000
1000
0000
M100
0000
1000
0000
0001
0010
0001
0000
1000
0000
0001
0010
,
0001
0000
0001
0000
010M
0000
0001
0000
1000
0100
1000
0000
0001
0000
1000
0100
,
1000
0000
1000
0000
M010
0000
1000
0000
0001
0010
0100
0000
1000
0000
0001
0000
,
1000
0000
0001
0000
0010
0000
0001
0000
1000
0000
0001
0000
0010
0000
0100
1000
,
0001
0000
1000
0000
0010
0000
1000
0000
0001
0100
0001
0000
0010
0000
0100
0000
,
1000
0000
0001
0000
0010
0000
0001
0000
1000
0000
0001
0000
0010
0000
0100
1000
,
0002
0000
0013
0200
0000
0310
0002
0000
,
1003
0000
1000
0000
M010
0000
1000
0000
0001
0100
0001
0000
1000
0000
0001
0100
,
0001
0000
0001
0000
001M
0000
0001
0000
1000
0100
1000
0000
0001
0000
1000
0100
,
1000
0000
1000
0000
M010
0000
1000
0000
0001
0010
0001
0000
1000
0000
0001
0010
,
0001
0000
0000
0000
0000
0000
1000
0000
0001
0000
1000
0000
0001
0000
0000
0100
0000
0000
0000
0000
0000
0100
0000
0000
0001
0000
0000
0010
0000
0000
0100
0000
0000
0010
0000
0000
0001
0000
0000
0100
0000
0000
0001
0000
0000
1000
0000
0000
,
0001
0000
1000
0000
0010
0000
1000
0000
0001
0100
0001
0000
1000
0100
1000
0001
,
1000
0000
0001
0000
0010
0000
0001
0000
1000
0100
1000
0000
0001
0100
0001
1000
,
0001
0000
1000
0000
0010
0000
1000
0000
0001
0100
0001
0000
1000
0100
1000
0001
,
2000
0000
3010
0200
0000
0310
2000
0000
,
3001
0000
0001
0000
0020
0000
0031
0000
1000
0100
1000
0000
0100
1000
0010
0100
,
0001
0000
0001
0000
0020
0000
0031
0000
1000
0010
1000
0000
0010
1000
0100
0010
,
0001
0000
0001
0000
0020
0000
0031
0000
1000
0100
1000
0000
0100
1000
0010
0100
,
0001
0000
0001
0000
0020
0000
0031
0000
1000
0100
0010
0100
1000
0010
0100
0001
,
1000
0000
0001
0000
0010
0000
0001
0000
1000
0100
1000
0000
0001
0100
0001
1000
,
0001
0000
1000
0000
0010
0000
1000
0000
0001
0100
0001
0000
1000
0100
1000
0001
,
1000
0000
0001
0000
0010
0000
0001
0000
1000
0100
1000
0000
0001
0100
0001
1000
,
0001
0000
1000
0000
0010
0000
1000
0000
0001
0100
0001
0000
1000
0100
1000
0001
,
1000
0000
1000
0000
0020
0000
1030
0000
0001
0010
0001
0000
0010
0001
0100
0010
,
1000
0000
1000
0000
0020
0000
1030
0000
0001
0100
0001
0000
0100
0001
0010
0100
,
1000
0000
1000
0000
0020
0000
1030
0000
0001
0010
0001
0000
0010
0001
0100
0010
,
1000
0000
1000
0000
0020
0000
1030
0000
0001
0010
0100
0010
0001
0100
0010
1000
,
0001
0000
1000
0000
0010
0000
1000
0000
0001
0100
0001
0000
1000
0100
1000
0001
,
1000
0000
0001
0000
0010
0000
0001
0000
1000
0100
1000
0000
0001
0100
0001
1000
,
0001
0000
1000
0000
0010
0000
1000
0000
0001
0100
0001
0000
1000
0100
1000
0001
,
2000
0000
3010
0200
0000
0310
2000
0000
,
3001
0000
0001
0000
0020
0000
0031
0000
1000
0100
1000
0000
0100
1000
0010
0100
,
0001
0000
0001
0000
0020
0000
0031
0000
1000
0010
1000
0000
0010
1000
0100
0010
,
0001
0000
0001
0000
0020
0000
0031
0000
1000
0100
1000
0000
0100
1000
0010
0100
,
0001
0000
0001
0000
0020
0000
0031
0000
1000
0100
0010
0100
1000
0010
0100
0001
,
1000
0000
0001
0000
0010
0000
0001
0000
1000
0100
1000
0000
0001
0100
0001
1000
,
0001
0000
1000
0000
0010
0000
1000
0000
0001
0100
0001
0000
1000
0100
1000
0001
,
1000
0000
0001
0000
0010
0000
0001
0000
1000
0100
1000
0000
0001
0100
0001
1000
,
0001
0000
1000
0000
0010
0000
1000
0000
0001
0100
0001
0000
1000
0100
1000
0001
,
1000
0000
1000
0000
0020
0000
1030
0000
0001
0010
0001
0000
0010
0001
0100
0010
,
1000
0000
1000
0000
0020
0000
1030
0000
0001
0100
0001
0000
0100
0001
0010
0100
,
1000
0000
1000
0000
0020
0000
1030
0000
0001
0010
0001
0000
0010
0001
0100
0010
,
1000
0000
1000
0000
0020
0000
1030
0000
0001
0010
0100
0010
0001
0100
0010
1000
,
0001
0000
2000
3000
0000
0000
0000
0000
2000
0000
3000
0000
0000
0000
0000
0010
,
0100
0000
0001
0000
0010
0000
0100
0000
1000
0000
0010
0100
0010
0100
0010
1000
,
0001
0000
2000
3000
0100
0000
0010
0001
2000
0000
3001
0000
0100
0000
0000
0010
,
0100
0001
0010
0100
1000
0010
0100
0001
,
1000
0000
0002
0003
0010
0000
0100
1000
0002
0000
1003
0000
0010
0000
0000
0100
,
0010
1000
0100
0010
0001
0100
0010
1000
,
0001
0000
2000
3000
0100
0000
0010
0001
2000
0000
3001
0000
0100
0000
0000
0010
,
0100
0001
0010
0100
1000
0010
0100
0001
,
1000
0000
0002
0003
0010
0000
0100
1000
0002
0000
1003
0000
0010
0000
0000
0100
,
0010
1000
0100
0010
0001
0100
0010
1000
,
0001
0000
2000
3000
0100
0000
0010
0001
2000
0000
3001
0000
0100
0000
0000
0010
,
0100
0001
0010
0100
1000
0010
0100
0001
,
1000
0000
0002
0003
0010
0000
0100
1000
0002
0000
1003
0000
0010
0000
0000
0100
,
0010
1000
0100
0010
0001
0100
0010
1000
,
0001
0000
2000
3000
0100
0000
0010
0001
2000
0000
3001
0000
0100
0000
0000
0010
,
0100
0001
0010
0100
1000
0010
0100
0001
,
1000
0000
0002
0003
0010
0000
0100
1000
0002
0000
1003
0000
0010
0000
0000
0100
,
0010
1000
0100
0010
0001
0100
0010
1000
,
0001
0000
2000
3000
0100
0000
0010
0001
2000
0000
3001
0000
0100
0000
0000
0010
,
0100
0001
0010
0100
1000
0010
0100
0001
,
1000
0000
0002
0003
0010
0000
0100
1000
0002
0000
1003
0000
0010
0000
0000
0100
,
0010
1000
0100
0010
0001
0100
0010
1000
,
0001
0000
2000
3000
0100
0000
0010
0001
2000
0000
3001
0000
0100
0000
0000
0010
,
0100
0001
0010
0100
1000
0010
0100
0001
,
1000
0000
0002
0003
0010
0000
0100
1000
0002
0000
1003
0000
0010
0000
0000
0100
,
0010
1000
0100
0010
0001
0100
0010
1000
,
0001
0000
2000
3000
0100
0000
0010
0001
2000
0000
3001
0000
0100
0000
0000
0010
,
0100
0001
0010
0100
1000
0010
0100
0001
,
1000
0000
0002
0003
0010
0000
0100
1000
0002
0000
1003
0000
0010
0000
0000
0100
,
0010
1000
0100
0010
0001
0100
0010
1000
,
0001
0000
2000
3000
0100
0000
0010
0001
2000
0000
3001
0000
0100
0000
0000
0010
,
0100
0001
0010
0100
1000
0010
0100
0100
,
0001
0000
0000
0000
2000
0000
3000
0000
0000
0000
0000
0000
0020
0030
0000
0000
2000
0000
3000
0000
0002
0000
0000
0003
0200
0000
0000
0000
0300
0000
0010
0000
,
0100
0001
0010
0100
1000
0010
0100
0001
,
1000
0000
0000
0000
0002
0000
0003
0000
0000
0000
0000
0000
0020
0030
0000
0000
0002
0000
0003
0000
0200
0000
0000
0300
0020
0000
0000
0000
2030
0000
0000
0000
,
0000
3000
0000
0000
0002
0000
0000
0000
0000
0000
0003
0000
0010
0000
0000
0000
0001
0000
0000
0000
0100
0000
0000
0000
0010
0000
0000
0000
1000
0000
0000
0000
,
0001
0000
0000
0000
2000
0000
3000
0000
0000
0000
0000
0000
0200
0300
0000
0000
2000
0000
3000
0000
0002
0000
0000
0003
0020
0000
0000
0000
0030
0000
0100
0000
,
0010
0001
0100
0010
1000
0100
0010
0001
,
1000
0000
0000
0000
0002
0000
0003
0000
0000
0000
0000
0000
0200
0300
0000
0000
0002
0000
0003
0000
0020
0000
0000
0030
0200
0000
0000
0000
0320
0000
0000
0000
,
0000
0030
0000
0000
0001
0000
0000
0000
0200
0000
0000
0000
0000
0000
0300
0000
0000
0000
0000
0000
0002
0003
0020
0030
0200
0300
0020
0030
0002
0003
2000
3000
,
0001
0000
0000
0000
2000
0000
3000
0000
0000
0000
0000
0000
0200
0300
0000
0000
2000
0000
3000
0000
0002
0000
0000
0003
0020
0000
0000
0000
0030
0000
0100
0000
,
0010
0001
0100
0010
1000
0100
0010
0001
,
1000
0000
0000
0000
0002
0000
0003
0000
0000
0000
0000
0000
0200
0300
0000
0000
0002
0000
0003
0000
0020
0000
0000
0030
0200
0000
0000
0000
2300
0000
0000
0000
,
0000
3000
0000
0000
0002
0000
0000
0000
0000
0000
0003
0000
0100
0000
0000
0000
0001
0000
0000
0000
0010
0000
0000
0000
0100
0000
0000
0000
1000
0000
0000
0000
,
0001
0000
0000
0000
2000
0000
3000
0000
0000
0000
0000
0000
0020
0030
0000
0000
2000
0000
3000
0000
0002
0000
0000
0003
0200
0000
0000
0000
0300
0000
0010
0000
,
0100
0001
0010
0100
1000
0010
0100
0001
,
1000
0000
0000
0000
0002
0000
0003
0000
0000
0000
0000
0000
0020
0030
0000
0000
0002
0000
0003
0000
0200
0000
0000
0300
0020
0000
0000
0000
0230
0000
0000
0000
,
0000
0300
0000
0000
0001
0000
0000
0000
0020
0000
0000
0000
0000
0000
0030
0000
0000
0000
0000
0000
0002
0003
0200
0300
0020
0030
0200
0300
0002
0003
2000
3000
,
0001
0000
0000
0000
2000
0000
3000
0000
0000
0000
0000
0000
0020
0030
0000
0000
2000
0000
3000
0000
0002
0000
0000
0003
0200
0000
0000
0000
0300
0000
0010
0000
,
0100
0001
0010
0100
1000
0010
0100
0001
,
1000
0000
0000
0000
0002
0000
0003
0000
0000
0000
0000
0000
0020
0030
0000
0000
0002
0000
0003
0000
0200
0000
0000
0300
0020
0000
0000
0000
2030
0000
0000
0000
,
0000
3000
0000
0000
0002
0000
0000
0000
0000
0000
0003
0000
0010
0000
0000
0000
0001
0000
0000
0000
0100
0000
0000
0000
0010
0000
0000
0000
1000
0000
0000
0000
,
0001
0000
0000
0000
2000
0000
3000
0000
0000
0000
0000
0000
0200
0300
0000
0000
2000
0000
3000
0000
0002
0000
0000
0003
0020
0000
0000
0000
0030
0000
0100
0000
,
0010
0001
0100
0010
1000
0100
0010
0001
,
1000
0000
0000
0000
0002
0000
0003
0000
0000
0000
0000
0000
0200
0300
0000
0000
0002
0000
0003
0000
0020
0000
0000
0030
0200
0000
0000
0000
0320
0000
0000
0000
,
0000
0030
0000
0000
0001
0000
0000
0000
0200
0000
0000
0000
0000
0000
0300
0000
0000
0000
0000
0000
0002
0003
0020
0030
0200
0300
0020
0030
0002
0003
2000
3000
,
0001
0000
0000
0000
2000
0000
3000
0000
0000
0000
0000
0000
0200
0300
0000
0000
2000
0000
3000
0000
0002
0000
0000
0003
0020
0000
0000
0000
0030
0000
0100
0000
,
0010
0001
0100
0010
1000
0100
0010
0001
,
1000
0000
0000
0000
0002
0000
0003
0000
0000
0000
0000
0000
0200
0300
0000
0000
0002
0000
0003
0000
0020
0000
0000
0030
0200
0000
0000
0000
2300
0000
0000
0000
,
0000
3000
0000
0000
0002
0000
0000
0000
0000
0000
0003
0000
0100
0000
0000
0000
0001
0000
0000
0000
0010
0000
0000
0000
0100
0000
0000
0000
1000
0000
0000
0000
,
0001
0000
0000
0000
2000
0000
3000
0000
0000
0000
0000
0000
0020
0030
0000
0000
2000
0000
3000
0000
0002
0000
0000
0003
0200
0000
0000
0000
0300
0000
0010
0000
,
0100
0001
0010
0100
1000
0010
0100
0001
,
1000
0000
0000
0000
0002
0000
0003
0000
0000
0000
0000
0000
0020
0030
0000
0000
0002
0000
0003
0000
0200
0000
0000
0300
0020
0000
0000
0000
0230
0000
0000
0000
,
0000
0300
0000
0000
0001
0000
0000
0000
0020
0000
0000
0000
0000
0000
0030
0000
0002
0003
0200
0300
0020
0030
0200
0300
0002
0003
0200
0300
0020
0030
0200
0300
,
0001
0000
2000
3000
0000
0000
0000
0000
2000
0000
3000
0000
0000
0000
0000
0010
,
0100
0001
0010
0100
1000
0010
0100
0001
,
1000
0000
0002
0003
0000
0000
0000
0000
0002
0000
0003
0000
0000
0000
0000
0100
,
0010
1000
0100
0010
0001
0100
0010
1000
,
0001
0000
2000
3000
0000
0000
0000
0000
2000
0000
3000
0000
0000
0000
0000
0010
,
0100
0001
0010
0100
1000
0010
0100
0001
,
1000
0000
0002
0003
0000
0000
0000
0000
0002
0000
0003
0000
0000
0000
0000
0100
,
0010
0000
0000
0000
1000
0000
0000
0000
0100
0000
0000
0000
0010
0000
0000
0000
0001
0000
0000
0000
2000
3000
0200
0300
0020
0030
0200
0300
2000
3000
0002
0003
,
0010
0000
0002
0003
0000
0000
0000
0000
0002
0000
0003
0000
0000
0000
0000
0100
,
0010
1000
0100
0010
0001
0100
0010
1000
,
0001
0000
2000
3000
0000
0000
0000
0000
2000
0000
3000
0000
0000
0000
0000
0010
,
0100
0001
0010
0100
1000
0010
0100
0001
,
1000
0000
0002
0003
0000
0000
0000
0000
0002
0000
0003
0000
0000
0000
0000
0100
,
0010
1000
0100
0010
0001
0100
0010
1000
,
0001
0000
2000
3000
0000
0000
0000
0000
2000
0000
3000
0000
0000
0000
0000
0010
,
0100
0000
0000
0000
0001
0000
0000
0000
0010
0000
0000
0000
0100
0000
0000
0000
1000
0000
0000
0000
0002
0003
0020
0030
0200
0300
0020
0030
0002
0003
2000
3000
,
0020
0000
0000
0000
,
0000
0000
0000
0000
,
0230
0000
0000
0000
,
0000
0000
0000
0000
,
0320
0000
0000
0000
,
0000
0000
0000
0000
,
0230
0000
0000
0000
,
0000
0000
0000
0000
,
0320
0000
0000
0000
,
0000
0000
0000
0000
,
0230
0000
0000
0000
,
0000
0000
0000
0000
,
0320
0000
0000
0000
,
0000
0000
0000
0030
,
M0MM
0000
0000
0000
;

//---------------dance-single - I. Pyles----------------
#NOTES:
     dance-single:
     I. Pyles:
     Medium:
     13:
     0.970,1.000,0.002,0.564,0.823,2894.000,1.000,263.000,35.000,0.000:





0000
0000
0000
0000
,
0020
0000
0000
0000
,
0000
0100
0000
1000
0100
0000
1000
1000
,
0200
0030
0000
0000
,
0000
0000
0000
0000
0000
0000
0000
0000
0000
0000
0000
0000
0040
0030
0004
0003
,
0020
0300
0000
0000
,
0000
0100
0000
1000
0100
0000
1000
1000
,
0200
0030
0000
0000
,
0000
0000
0000
0000
,
0020
0300
0000
0000
,
0000
0100
0000
1000
0100
0000
1000
1000
,
0200
0030
0000
0000
,
0000
0000
0000
0000
0000
0000
0000
0000
0000
0000
0000
0000
0040
0030
0004
0003
,
0020
0300
0000
0000
,
0000
0100
0000
1000
0100
0000
1000
1000
,
0200
0030
0000
0000
,
0000
0000
0000
0000
,
0301
0010
0100
1000
0001
0010
0100
1000
,
0001
0010
0100
1000
0001
0010
0100
1000
,
0010
0100
0001
1000
0010
0100
0001
1000
,
0010
0000
0100
0000
0001
0000
1000
0000
0010
0000
0010
1000
0001
0000
0010
0000
,
0001
1000
0100
0010
0001
1000
0100
0010
,
0001
1000
0100
0010
0001
1000
0100
0010
,
0001
0100
0010
1000
0001
0100
0010
1000
,
0001
0100
0010
1000
0001
0100
0010
1000
,
0001
0010
0100
1000
0001
0010
0100
1000
,
0001
0010
0100
1000
0001
0010
0100
1000
,
0010
0100
0001
1000
0010
0100
0001
1000
,
0010
0000
0100
0000
0001
0000
1000
0000
0010
0000
0010
1000
0001
0000
0010
0000
,
0001
1000
0100
0010
0001
1000
0100
0010
,
0001
1000
0100
0010
0001
1000
0100
0010
,
0001
0100
0010
1000
0001
0100
0010
1000
,
0001
0100
0010
1000
0001
0100
0010
1000
,
0200
0000
0000
0000
,
0000
0010
0000
1000
0010
0000
1000
1000
,
0020
0300
0000
0000
,
0000
0000
0000
0000
0000
0000
0000
0000
0000
0000
0000
0000
0400
0300
0004
0003
,
0200
0030
0000
0000
,
0000
0010
0000
1000
0010
0000
1000
1000
,
0020
0300
0000
0000
,
0000
0000
0000
0000
,
0200
0030
0000
0000
,
0000
0000
0000
0000
,
0020
0300
0000
0000
,
0000
0000
0000
0000
,
0200
0030
0000
0000
,
0000
0000
0000
0000
,
0000
0000
0000
0000
,
0000
0000
0000
0000
,
1300
0000
0001
0000
0010
0000
0001
0000
1000
0000
0001
0000
0010
0000
0100
1000
,
0001
0000
1000
0000
0010
0000
1000
0000
0001
0100
0001
0000
0010
0000
0100
0000
,
1000
0000
0001
0000
0010
0000
0001
0000
1000
0000
0001
0000
0010
0000
0100
1000
,
0002
0000
0013
0200
0000
0310
0002
0000
,
1003
0000
1000
0000
M100
0000
1000
0000
0001
0010
0001
0000
1000
0000
0001
0010
,
0001
0000
0001
0000
010M
0000
0001
0000
1000
0010
1000
0000
0001
0000
1000
0010
,
1000
0000
1000
0000
M100
0000
1000
0000
0001
0100
0001
0000
1000
0000
0001
0100
,
0001
0000
0001
0000
001M
0000
0001
0000
1000
0010
0100
0000
0001
0000
1000
0000
,
0001
0000
1000
0000
0010
0000
1000
0000
0001
0000
1000
0000
0010
0000
0100
0001
,
1000
0000
0001
0000
0010
0000
0001
0000
1000
0100
1000
0000
0010
0000
0100
0000
,
0001
0000
1000
0000
0010
0000
1000
0000
0001
0000
1000
0000
0010
0000
0100
0001
,
2000
0000
3010
0200
0000
0310
2000
0000
,
3001
0000
0001
0000
001M
0000
0001
0000
1000
0100
1000
0000
0001
0000
1000
0100
,
1000
0000
1000
0000
M010
0000
1000
0000
0001
0100
0001
0000
1000
0000
0001
0100
,
0001
0000
0001
0000
001M
0000
0001
0000
1000
0010
1000
0000
0001
0000
1000
0010
,
1000
0000
000M
0000
00M0
0000
0M00
0000
1000
0010
1000
0001
0100
0001
0010
0001
,
1000
0000
0001
0000
0010
0000
0001
0000
1000
0000
0001
0000
0010
0000
0100
1000
,
0001
0000
1000
0000
0010
0000
1000
0000
0001
0100
0001
0000
0010
0000
0100
0000
,
1000
0000
0001
0000
0010
0000
0001
0000
1000
0000
0001
0000
0010
0000
0100
1000
,
0002
0000
0013
0200
0000
0310
0002
0000
,
1003
0000
1000
0000
M100
0000
1000
0000
0001
0010
0001
0000
1000
0000
0001
0010
,
0001
0000
0001
0000
010M
0000
0001
0000
1000
0010
1000
0000
0001
0000
1000
0010
,
1000
0000
1000
0000
M100
0000
1000
0000
0001
0100
0001
0000
1000
0000
0001
0100
,
0001
0000
0001
0000
001M
0000
0001
0000
1000
0010
0100
0000
0001
0000
1000
0000
,
0001
0000
1000
0000
0010
0000
1000
0000
0001
0000
1000
0000
0010
0000
0100
0001
,
1000
0000
0001
0000
0010
0000
0001
0000
1000
0100
1000
0000
0010
0000
0100
0000
,
0001
0000
1000
0000
0010
0000
1000
0000
0001
0000
1000
0000
0010
0000
0100
0001
,
2000
0000
3010
0200
0000
0310
2000
0000
,
3001
0000
0001
0000
001M
0000
0001
0000
1000
0100
1000
0000
0001
0000
1000
0100
,
1000
0000
1000
0000
M010
0000
1000
0000
0001
0100
0001
0000
1000
0000
0001
0100
,
0001
0000
0001
0000
001M
0000
0001
0000
1000
0010
1000
0000
0001
0000
1000
0010
,
1000
0000
0000
0000
0000
0000
0001
0000
1000
0000
0001
0000
1000
0000
0000
0010
0000
0000
0000
0000
0000
0010
0000
0000
1000
0000
0000
0100
0000
0000
0010
0000
0000
0100
0000
0000
1000
0000
0000
0010
0000
0000
1000
0000
0000
0001
0000
0000
,
1000
0000
0001
0000
0010
0000
0001
0000
1000
0100
1000
0000
0001
0100
0001
1000
,
0001
0000
1000
0000
0010
0000
1000
0000
0001
0100
0001
0000
1000
0100
1000
0001
,
1000
0000
0001
0000
0010
0000
0001
0000
1000
0100
1000
0000
0001
0100
0001
1000
,
0002
0000
0013
0200
0000
0310
0002
0000
,
1003
0000
1000
0000
0020
0000
1030
0000
0001
0100
0001
0000
0100
0001
0010
0100
,
1000
0000
1000
0000
0020
0000
1030
0000
0001
0010
0001
0000
0010
0001
0100
0010
,
1000
0000
1000
0000
0020
0000
1030
0000
0001
0100
0001
0000
0100
0001
0010
0100
,
1000
0000
1000
0000
0020
0000
1030
0000
0001
0100
0010
0100
0001
0010
0100
1000
,
0001
0000
1000
0000
0010
0000
1000
0000
0001
0100
0001
0000
1000
0100
1000
0001
,
1000
0000
0001
0000
0010
0000
0001
0000
1000
0100
1000
0000
0001
0100
0001
1000
,
0001
0000
1000
0000
0010
0000
1000
0000
0001
0100
0001
0000
1000
0100
1000
0001
,
1000
0000
0001
0000
0010
0000
0001
0000
1000
0100
1000
0000
0001
0100
0001
1000
,
0001
0000
0001
0000
0020
0000
0031
0000
1000
0010
1000
0000
0010
1000
0100
0010
,
0001
0000
0001
0000
0020
0000
0031
0000
1000
0100
1000
0000
0100
1000
0010
0100
,
0001
0000
0001
0000
0020
0000
0031
0000
1000
0010
1000
0000
0010
1000
0100
0010
,
0001
0000
0001
0000
0020
0000
0031
0000
1000
0010
0100
0010
1000
0100
0010
0001
,
1000
0000
0001
0000
0010
0000
0001
0000
1000
0100
1000
0000
0001
0100
0001
1000
,
0001
0000
1000
0000
0010
0000
1000
0000
0001
0100
0001
0000
1000
0100
1000
0001
,
1000
0000
0001
0000
0010
0000
0001
0000
1000
0100
1000
0000
0001
0100
0001
1000
,
0002
0000
0013
0200
0000
0310
0002
0000
,
1003
0000
1000
0000
0020
0000
1030
0000
0001
0100
0001
0000
0100
0001
0010
0100
,
1000
0000
1000
0000
0020
0000
1030
0000
0001
0010
0001
0000
0010
0001
0100
0010
,
1000
0000
1000
0000
0020
0000
1030
0000
0001
0100
0001
0000
0100
0001
0010
0100
,
1000
0000
1000
0000
0020
0000
1030
0000
0001
0100
0010
0100
0001
0010
0100
1000
,
0001
0000
1000
0000
0010
0000
1000
0000
0001
0100
0001
0000
1000
0100
1000
0001
,
1000
0000
0001
0000
0010
0000
0001
0000
1000
0100
1000
0000
0001
0100
0001
1000
,
0001
0000
1000
0000
0010
0000
1000
0000
0001
0100
0001
0000
1000
0100
1000
0001
,
1000
0000
0001
0000
0010
0000
0001
0000
1000
0100
1000
0000
0001
0100
0001
1000
,
0001
0000
0001
0000
0020
0000
0031
0000
1000
0010
1000
0000
0010
1000
0100
0010
,
0001
0000
0001
0000
0020
0000
0031
0000
1000
0100
1000
0000
0100
1000
0010
0100
,
0001
0000
0001
0000
0020
0000
0031
0000
1000
0010
1000
0000
0010
1000
0100
0010
,
0001
0000
0001
0000
0020
0000
0031
0000
1000
0010
0100
0010
1000
0100
0010
0001
,
1000
0000
0002
0003
0000
0000
0000
0000
0002
0000
0003
0000
0000
0000
0000
0100
,
0010
0000
1000
0000
0100
0000
0010
0000
0001
0000
0100
0010
0100
0010
0100
0001
,
1000
0100
0010
0001
0010
0000
0001
0010
0100
0010
0100
1000
0001
0000
0010
0100
,
1000
0100
1000
0001
1000
0100
0010
0001
1000
0001
1000
0010
0100
0001
0010
0100
,
1000
0010
0100
0001
0100
0000
0001
0100
0010
0100
0010
1000
0001
0000
0100
0010
,
1000
0010
1000
0001
1000
0010
0100
0001
1000
0001
1000
0100
0010
0001
0100
0010
,
1000
0100
0010
0001
0010
0000
0001
0010
0100
0010
0100
1000
0001
0000
0010
0100
,
1000
0100
1000
0001
1000
0100
0010
0001
1000
0001
1000
0010
0100
0001
0010
0100
,
1000
0010
0100
0001
0100
0000
0001
0100
0010
0100
0010
1000
0001
0000
0100
0010
,
1000
0010
1000
0001
1000
0010
0100
0001
1000
0001
1000
0100
0010
0001
0100
0010
,
1000
0100
0010
0001
0010
0000
0001
0010
0100
0010
0100
1000
0001
0000
0010
0100
,
1000
0100
1000
0001
1000
0100
0010
0001
1000
0001
1000
0010
0100
0001
0010
0100
,
1000
0010
0100
0001
0100
0000
0001
0100
0010
0100
0010
1000
0001
0000
0100
0010
,
1000
0010
1000
0001
1000
0010
0100
0001
1000
0001
1000
0100
0010
0001
0100
0010
,
1000
0100
0010
0001
0010
0000
0001
0010
0100
0010
0100
1000
0001
0000
0010
0100
,
1000
0100
1000
0001
1000
0100
0010
0001
1000
0001
1000
0010
0100
0001
0010
0100
,
1000
0010
0100
0001
0100
0000
0001
0100
0010
0100
0010
1000
0001
0000
0100
0010
,
1000
0010
1000
0001
1000
0010
0100
0001
1000
0001
1000
0100
0010
0001
0100
0010
,
1000
0100
0010
0001
0010
0000
0001
0010
0100
0010
0100
1000
0001
0000
0010
0100
,
1000
0100
1000
0001
1000
0100
0010
0001
1000
0001
1000
0010
0100
0001
0010
0100
,
1000
0010
0100
0001
0100
0000
0001
0100
0010
0100
0010
1000
0001
0000
0100
0010
,
1000
0010
1000
0001
1000
0010
0100
0001
1000
0001
1000
0100
0010
0001
0100
0010
,
1000
0100
0010
0001
0010
0000
0001
0010
0100
0010
0100
1000
0001
0000
0010
0100
,
1000
0100
1000
0001
1000
0100
0010
0001
1000
0001
1000
0010
0100
0001
0010
0100
,
1000
0010
0100
0001
0100
0000
0001
0100
0010
0100
0010
1000
0001
0000
0100
0010
,
1000
0010
1000
0001
1000
0010
0100
0001
1000
0001
1000
0100
0010
0001
0100
0010
,
1000
0100
0010
0001
0010
0000
0001
0010
0100
0010
0100
1000
0001
0000
0010
0100
,
1000
0100
1000
0001
1000
0100
0010
0001
1000
0001
1000
0010
0100
0001
0010
0100
,
1000
0010
0100
0001
0100
0000
0001
0100
0010
0100
0010
1000
0001
0000
0100
0010
,
1000
0010
1000
0001
1000
0010
0100
0001
1000
0001
1000
0100
0010
0001
0100
0010
,
1000
0100
0010
0001
0010
0000
0001
0010
0100
0010
0100
1000
0001
0000
0010
0100
,
1000
0100
1000
0001
1000
0100
0010
0001
1000
0001
1000
0010
0100
0001
0010
0100
,
1000
0000
0002
0003
0000
0000
0000
0000
0002
0000
0003
0000
0000
0000
0000
0100
,
0010
1000
0100
0010
0001
0100
0010
1000
,
0001
0000
2000
3000
0000
0000
0000
0000
2000
0000
3000
0000
0000
0000
0000
0010
,
0100
0001
0010
0100
1000
0010
0100
0001
,
1000
0000
0002
0003
0000
0000
0000
0000
0002
0000
0003
0000
0000
0000
0000
0100
,
0010
1000
0100
0010
0001
0100
0010
1000
,
0001
0000
2000
3000
0000
0000
0000
0000
2000
0000
3000
0000
0000
0000
0000
0010
,
0100
0001
0010
0100
1000
0010
0100
0100
,
0001
0000
2000
3000
0000
0000
0000
0000
2000
0000
3000
0000
0000
0000
0000
0010
,
0100
0001
0010
0100
1000
0010
0100
0001
,
1000
0000
0002
0003
0000
0000
0000
0000
0002
0000
0003
0000
0000
0000
0000
0100
,
0010
1000
0100
0010
0001
0100
0010
1000
,
0001
0000
2000
3000
0000
0000
0000
0000
2000
0000
3000
0000
0000
0000
0000
0010
,
0100
0001
0010
0100
1000
0010
0100
0001
,
1000
0000
0002
0003
0000
0000
0000
0000
0002
0000
0003
0000
0000
0000
0000
0100
,
0010
0100
0001
0010
0100
1000
0010
0100
,
0001
0010
0100
1000
0001
0010
0100
1000
,
0001
0010
0100
1000
0001
0010
0100
1000
,
0010
0100
0001
1000
0010
0100
0001
1000
,
0010
0000
0100
0000
0001
0000
1000
0000
0010
0000
0010
1000
0001
0000
0010
0000
,
0001
1000
0100
0010
0001
1000
0100
0010
,
0001
1000
0100
0010
0001
1000
0100
0010
,
0001
0100
0010
1000
0001
0100
0010
1000
,
0001
0100
0010
1000
0001
0100
0010
1000
,
0200
0000
0000
0000
,
0000
0010
0000
1000
0010
0000
1000
1000
,
0020
0300
0000
0000
,
0000
0000
0000
0000
,
0200
0030
0000
0000
,
0000
0000
0000
0000
,
0000
0000
0000
0000
,
0000
0010
0010
0010
0010
0010
0010
0010
,
0301
0000
1000
0000
0010
0000
1000
0000
0001
0000
1000
0000
0010
0000
0100
0001
,
1000
0000
0001
0000
0010
0000
0001
0000
1000
0100
1000
0000
0010
0000
0100
0000
,
0001
0000
1000
0000
0010
0000
1000
0000
0001
0000
1000
0000
0010
0000
0100
0001
,
2000
0000
3010
0200
0000
0310
2000
0000
,
3001
0000
0001
0000
010M
0000
0001
0000
1000
0010
1000
0000
0001
0000
1000
0010
,
1000
0000
1000
0000
M100
0000
1000
0000
0001
0010
0001
0000
1000
0000
0001
0010
,
0001
0000
0001
0000
010M
0000
0001
0000
1000
0100
1000
0000
0001
0000
1000
0100
,
1000
0000
1000
0000
M010
0000
1000
0000
0001
0010
0100
0000
1000
0000
0001
0000
,
1000
0000
0001
0000
0010
0000
0001
0000
1000
0000
0001
0000
0010
0000
0100
1000
,
0001
0000
1000
0000
0010
0000
1000
0000
0001
0100
0001
0000
0010
0000
0100
0000
,
1000
0000
0001
0000
0010
0000
0001
0000
1000
0000
0001
0000
0010
0000
0100
1000
,
0002
0000
0013
0200
0000
0310
0002
0000
,
1003
0000
1000
0000
M010
0000
1000
0000
0001
0100
0001
0000
1000
0000
0001
0100
,
0001
0000
0001
0000
001M
0000
0001
0000
1000
0100
1000
0000
0001
0000
1000
0100
,
1000
0000
1000
0000
M010
0000
1000
0000
0001
0010
0001
0000
1000
0000
0001
0010
,
0001
0000
0001
0000
110M
0000
0001
0000
1000
0100
1000
0000
0100
1000
0010
0100
,
0001
0000
1000
0000
0010
0000
1000
0000
0001
0000
1000
0000
0010
0000
0100
0001
,
1000
0000
0001
0000
0010
0000
0001
0000
1000
0100
1000
0000
0010
0000
0100
0000
,
0001
0000
1000
0000
0010
0000
1000
0000
0001
0000
1000
0000
0010
0000
0100
0001
,
2000
0000
3010
0200
0000
0310
2000
0000
,
3001
0000
0001
0000
010M
0000
0001
0000
1000
0010
1000
0000
0001
0000
1000
0010
,
1000
0000
1000
0000
M100
0000
1000
0000
0001
0010
0001
0000
1000
0000
0001
0010
,
0001
0000
0001
0000
010M
0000
0001
0000
1000
0100
1000
0000
0001
0000
1000
0100
,
1000
0000
1000
0000
M010
0000
1000
0000
0001
0010
0100
0000
1000
0000
0001
0000
,
1000
0000
0001
0000
0010
0000
0001
0000
1000
0000
0001
0000
0010
0000
0100
1000
,
0001
0000
1000
0000
0010
0000
1000
0000
0001
0100
0001
0000
0010
0000
0100
0000
,
1000
0000
0001
0000
0010
0000
0001
0000
1000
0000
0001
0000
0010
0000
0100
1000
,
0002
0000
0013
0200
0000
0310
0002
0000
,
1003
0000
1000
0000
M010
0000
1000
0000
0001
0100
0001
0000
1000
0000
0001
0100
,
0001
0000
0001
0000
001M
0000
0001
0000
1000
0100
1000
0000
0001
0000
1000
0100
,
1000
0000
1000
0000
M010
0000
1000
0000
0001
0010
0001
0000
1000
0000
0001
0010
,
0001
0000
0000
0000
0000
0000
1000
0000
0001
0000
1000
0000
0001
0000
0000
0100
0000
0000
0000
0000
0000
0100
0000
0000
0001
0000
0000
0010
0000
0000
0100
0000
0000
0010
0000
0000
0001
0000
0000
0100
0000
0000
0001
0000
0000
1000
0000
0000
,
0001
0000
1000
0000
0010
0000
1000
0000
0001
0100
0001
0000
1000
0100
1000
0001
,
1000
0000
0001
0000
0010
0000
0001
0000
1000
0100
1000
0000
0001
0100
0001
1000
,
0001
0000
1000
0000
0010
0000
1000
0000
0001
0100
0001
0000
1000
0100
1000
0001
,
2000
0000
3010
0200
0000
0310
2000
0000
,
3001
0000
0001
0000
0020
0000
0031
0000
1000
0100
1000
0000
0100
1000
0010
0100
,
0001
0000
0001
0000
0020
0000
0031
0000
1000
0010
1000
0000
0010
1000
0100
0010
,
0001
0000
0001
0000
0020
0000
0031
0000
1000
0100
1000
0000
0100
1000
0010
0100
,
0001
0000
0001
0000
0020
0000
0031
0000
1000
0100
0010
0100
1000
0010
0100
0001
,
1000
0000
0001
0000
0010
0000
0001
0000
1000
0100
1000
0000
0001
0100
0001
1000
,
0001
0000
1000
0000
0010
0000
1000
0000
0001
0100
0001
0000
1000
0100
1000
0001
,
1000
0000
0001
0000
0010
0000
0001
0000
1000
0100
1000
0000
0001
0100
0001
1000
,
0001
0000
1000
0000
0010
0000
1000
0000
0001
0100
0001
0000
1000
0100
1000
0001
,
1000
0000
1000
0000
0020
0000
1030
0000
0001
0010
0001
0000
0010
0001
0100
0010
,
1000
0000
1000
0000
0020
0000
1030
0000
0001
0100
0001
0000
0100
0001
0010
0100
,
1000
0000
1000
0000
0020
0000
1030
0000
0001
0010
0001
0000
0010
0001
0100
0010
,
1000
0000
1000
0000
0020
0000
1030
0000
0001
0010
0100
0010
0001
0100
0010
1000
,
0001
0000
1000
0000
0010
0000
1000
0000
0001
0100
0001
0000
1000
0100
1000
0001
,
1000
0000
0001
0000
0010
0000
0001
0000
1000
0100
1000
0000
0001
0100
0001
1000
,
0001
0000
1000
0000
0010
0000
1000
0000
0001
0100
0001
0000
1000
0100
1000
0001
,
2000
0000
3010
0200
0000
0310
2000
0000
,
3001
0000
0001
0000
0020
0000
0031
0000
1000
0100
1000
0000
0100
1000
0010
0100
,
0001
0000
0001
0000
0020
0000
0031
0000
1000
0010
1000
0000
0010
1000
0100
0010
,
0001
0000
0001
0000
0020
0000
0031
0000
1000
0100
1000
0000
0100
1000
0010
0100
,
0001
0000
0001
0000
0020
0000
0031
0000
1000
0100
0010
0100
1000
0010
0100
0001
,
1000
0000
0001
0000
0010
0000
0001
0000
1000
0100
1000
0000
0001
0100
0001
1000
,
0001
0000
1000
0000
0010
0000
1000
0000
0001
0100
0001
0000
1000
0100
1000
0001
,
1000
0000
0001
0000
0010
0000
0001
0000
1000
0100
1000
0000
0001
0100
0001
1000
,
0001
0000
1000
0000
0010
0000
1000
0000
0001
0100
0001
0000
1000
0100
1000
0001
,
1000
0000
1000
0000
0020
0000
1030
0000
0001
0010
0001
0000
0010
0001
0100
0010
,
1000
0000
1000
0000
0020
0000
1030
0000
0001
0100
0001
0000
0100
0001
0010
0100
,
1000
0000
1000
0000
0020
0000
1030
0000
0001
0010
0001
0000
0010
0001
0100
0010
,
1000
0000
1000
0000
0020
0000
1030
0000
0001
0010
0100
0010
0001
0100
0010
1000
,
0001
0000
2000
3000
0000
0000
0000
0000
2000
0000
3000
0000
0000
0000
0000
0010
,
0100
0000
0001
0000
0010
0000
0100
0000
1000
0000
0010
0100
0010
0100
0010
1000
,
0001
0010
0100
1000
0100
0000
1000
0100
0010
0100
0010
0001
1000
0000
0100
0010
,
0001
0010
0001
1000
0001
0010
0100
1000
0001
1000
0001
0100
0010
1000
0100
0010
,
0001
0100
0010
1000
0010
0000
1000
0010
0100
0010
0100
0001
1000
0000
0010
0100
,
0001
0100
0001
1000
0001
0100
0010
1000
0001
1000
0001
0010
0100
1000
0010
0100
,
0001
0010
0100
1000
0100
0000
1000
0100
0010
0100
0010
0001
1000
0000
0100
0010
,
0001
0010
0001
1000
0001
0010
0100
1000
0001
1000
0001
0100
0010
1000
0100
0010
,
0001
0100
0010
1000
0010
0000
1000
0010
0100
0010
0100
0001
1000
0000
0010
0100
,
0001
0100
0001
1000
0001
0100
0010
1000
0001
1000
0001
0010
0100
1000
0010
0100
,
0001
0010
0100
1000
0100
0000
1000
0100
0010
0100
0010
0001
1000
0000
0100
0010
,
0001
0010
0001
1000
0001
0010
0100
1000
0001
1000
0001
0100
0010
1000
0100
0010
,
0001
0100
0010
1000
0010
0000
1000
0010
0100
0010
0100
0001
1000
0000
0010
0100
,
0001
0100
0001
1000
0001
0100
0010
1000
0001
1000
0001
0010
0100
1000
0010
0100
,
0001
0010
0100
1000
0100
0000
1000
0100
0010
0100
0010
0001
1000
0000
0100
0010
,
0001
0010
0001
1000
0001
0010
0100
1000
0001
1000
0001
0100
0010
1000
0100
0010
,
0001
0100
0010
1000
0010
0000
1000
0010
0100
0010
0100
0001
1000
0000
0010
0100
,
0001
0100
0001
1000
0001
0100
0010
1000
0001
1000
0001
0010
0100
1000
0010
0100
,
0001
0010
0100
1000
0100
0000
1000
0100
0010
0100
0010
0001
1000
0000
0100
0010
,
0001
0010
0001
1000
0001
0010
0100
1000
0001
1000
0001
0100
0010
1000
0100
0010
,
0001
0100
0010
1000
0010
0000
1000
0010
0100
0010
0100
0001
1000
0000
0010
0100
,
0001
0100
0001
1000
0001
0100
0010
1000
0001
1000
0001
0010
0100
1000
0010
0100
,
0001
0010
0100
1000
0100
0000
1000
0100
0010
0100
0010
0001
1000
0000
0100
0010
,
0001
0010
0001
1000
0001
0010
0100
1000
0001
1000
0001
0100
0010
1000
0100
0010
,
0001
0100
0010
1000
0010
0000
1000
0010
0100
0010
0100
0001
1000
0000
0010
0100
,
0001
0100
0001
1000
0001
0100
0010
1000
0001
1000
0001
0010
0100
1000
0010
0100
,
0001
0010
0100
1000
0100
0000
1000
0100
0010
0100
0010
0001
1000
0000
0100
0010
,
0001
0010
0001
1000
0001
0010
0100
1000
0001
1000
0001
0100
0010
1000
0100
0010
,
0001
0100
0010
1000
0010
0000
1000
0010
0100
0010
0100
0001
1000
0000
0010
0100
,
0001
0100
0001
1000
0001
0100
0010
1000
0001
1000
0001
0010
0100
1000
0010
0100
,
0001
0010
0100
1000
0100
0000
1000
0100
0010
0100
0010
0001
1000
0000
0100
0010
,
0001
0010
0001
1000
0001
0010
0100
1000
0001
1000
0001
0100
0010
1000
0100
0010
,
0001
0000
0000
0000
2000
0000
3000
0000
0000
0000
0000
0000
0020
0030
0000
0000
2000
0000
3000
0000
0002
0000
0000
0003
0200
0000
0000
0000
0300
0000
0010
0000
,
0100
0001
0010
0100
1000
0010
0100
0001
,
1000
0000
0000
0000
0002
0000
0003
0000
0000
0000
0000
0000
0020
0030
0000
0000
0002
0000
0003
0000
0200
0000
0000
0300
0020
0000
0000
0000
2030
0000
0000
0000
,
0000
3000
0000
0000
0002
0000
0000
0000
0000
0000
0003
0000
0010
0000
0000
0000
0001
0000
0000
0000
0100
0000
0000
0000
0010
0000
0000
0000
1000
0000
0000
0000
,
0001
0000
0000
0000
2000
0000
3000
0000
0000
0000
0000
0000
0200
0300
0000
0000
2000
0000
3000
0000
0002
0000
0000
0003
0020
0000
0000
0000
0030
0000
0100
0000
,
0010
0001
0100
0010
1000
0100
0010
0001
,
1000
0000
0000
0000
0002
0000
0003
0000
0000
0000
0000
0000
0200
0300
0000
0000
0002
0000
0003
0000
0020
0000
0000
0030
0200
0000
0000
0000
0320
0000
0000
0000
,
0000
0030
0000
0000
0001
0000
0000
0000
0200
0000
0000
0000
0000
0000
0300
0000
0000
0000
0000
0000
0002
0003
0020
0030
0200
0300
0020
0030
0002
0003
2000
3000
,
0001
0000
0000
0000
2000
0000
3000
0000
0000
0000
0000
0000
0200
0300
0000
0000
2000
0000
3000
0000
0002
0000
0000
0003
0020
0000
0000
0000
0030
0000
0100
0000
,
0010
0001
0100
0010
1000
0100
0010
0001
,
1000
0000
0000
0000
0002
0000
0003
0000
0000
0000
0000
0000
0200
0300
0000
0000
0002
0000
0003
0000
0020
0000
0000
0030
0200
0000
0000
0000
2300
0000
0000
0000
,
0000
3000
0000
0000
0002
0000
0000
0000
0000
0000
0003
0000
0100
0000
0000
0000
0001
0000
0000
0000
0010
0000
0000
0000
0100
0000
0000
0000
1000
0000
0000
0000
,
0001
0000
0000
0000
2000
0000
3000
0000
0000
0000
0000
0000
0020
0030
0000
0000
2000
0000
3000
0000
0002
0000
0000
0003
0200
0000
0000
0000
0300
0000
0010
0000
,
0100
0001
0010
0100
1000
0010
0100
0001
,
1000
0000
0000
0000
0002
0000
0003
0000
0000
0000
0000
0000
0020
0030
0000
0000
0002
0000
0003
0000
0200
0000
0000
0300
0020
0000
0000
0000
0230
0000
0000
0000
,
0000
0300
0000
0000
0001
0000
0000
0000
0020
0000
0000
0000
0000
0000
0030
0000
0000
0000
0000
0000
0002
0003
0200
0300
0020
0030
0200
0300
0002
0003
2000
3000
,
0001
0000
0000
0000
2000
0000
3000
0000
0000
0000
0000
0000
0020
0030
0000
0000
2000
0000
3000
0000
0002
0000
0000
0003
0200
0000
0000
0000
0300
0000
0010
0000
,
0100
0001
0010
0100
1000
0010
0100
0001
,
1000
0000
0000
0000
0002
0000
0003
0000
0000
0000
0000
0000
0020
0030
0000
0000
0002
0000
0003
0000
0200
0000
0000
0300
0020
0000
0000
0000
2030
0000
0000
0000
,
0000
3000
0000
0000
0002
0000
0000
0000
0000
0000
0003
0000
0010
0000
0000
0000
0001
0000
0000
0000
0100
0000
0000
0000
0010
0000
0000
0000
1000
0000
0000
0000
,
0001
0000
0000
0000
2000
0000
3000
0000
0000
0000
0000
0000
0200
0300
0000
0000
2000
0000
3000
0000
0002
0000
0000
0003
0020
0000
0000
0000
0030
0000
0100
0000
,
0010
0001
0100
0010
1000
0100
0010
0001
,
1000
0000
0000
0000
0002
0000
0003
0000
0000
0000
0000
0000
0200
0300
0000
0000
0002
0000
0003
0000
0020
0000
0000
0030
0200
0000
0000
0000
0320
0000
0000
0000
,
0000
0030
0000
0000
0001
0000
0000
0000
0200
0000
0000
0000
0000
0000
0300
0000
0000
0000
0000
0000
0002
0003
0020
0030
0200
0300
0020
0030
0002
0003
2000
3000
,
0001
0000
0000
0000
2000
0000
3000
0000
0000
0000
0000
0000
0200
0300
0000
0000
2000
0000
3000
0000
0002
0000
0000
0003
0020
0000
0000
0000
0030
0000
0100
0000
,
0010
0001
0100
0010
1000
0100
0010
0001
,
1000
0000
0000
0000
0002
0000
0003
0000
0000
0000
0000
0000
0200
0300
0000
0000
0002
0000
0003
0000
0020
0000
0000
0030
0200
0000
0000
0000
2300
0000
0000
0000
,
0000
3000
0000
0000
0002
0000
0000
0000
0000
0000
0003
0000
0100
0000
0000
0000
0001
0000
0000
0000
0010
0000
0000
0000
0100
0000
0000
0000
1000
0000
0000
0000
,
0001
0000
0000
0000
2000
0000
3000
0000
0000
0000
0000
0000
0020
0030
0000
0000
2000
0000
3000
0000
0002
0000
0000
0003
0200
0000
0000
0000
0300
0000
0010
0000
,
0100
0001
0010
0100
1000
0010
0100
0001
,
1000
0000
0000
0000
0002
0000
0003
0000
0000
0000
0000
0000
0020
0030
0000
0000
0002
0000
0003
0000
0200
0000
0000
0300
0020
0000
0000
0000
0230
0000
0000
0000
,
0000
0300
0000
0000
0001
0000
0000
0000
0020
0000
0000
0000
0000
0000
0030
0000
0002
0003
0200
0300
0020
0030
0200
0300
0002
0003
0200
0300
0020
0030
0200
0300
,
0001
0000
2000
3000
0000
0000
0000
0000
2000
0000
3000
0000
0000
0000
0000
0010
,
0100
0001
0010
0100
1000
0010
0100
0001
,
1000
0000
0002
0003
0000
0000
0000
0000
0002
0000
0003
0000
0000
0000
0000
0100
,
0010
1000
0100
0010
0001
0100
0010
1000
,
0001
0000
2000
3000
0000
0000
0000
0000
2000
0000
3000
0000
0000
0000
0000
0010
,
0100
0001
0010
0100
1000
0010
0100
0001
,
1000
0000
0002
0003
0000
0000
0000
0000
0002
0000
0003
0000
0000
0000
0000
0100
,
0010
0000
0000
0000
1000
0000
0000
0000
0100
0000
0000
0000
0010
0000
0000
0000
0001
0000
0000
0000
2000
3000
0200
0300
0020
0030
0200
0300
2000
3000
0002
0003
,
0010
0000
0002
0003
0000
0000
0000
0000
0002
0000
0003
0000
0000
0000
0000
0100
,
0010
1000
0100
0010
0001
0100
0010
1000
,
0001
0000
2000
3000
0000
0000
0000
0000
2000
0000
3000
0000
0000
0000
0000
0010
,
0100
0001
0010
0100
1000
0010
0100
0001
,
1000
0000
0002
0003
0000
0000
0000
0000
0002
0000
0003
0000
0000
0000
0000
0100
,
0010
1000
0100
0010
0001
0100
0010
1000
,
0001
0000
2000
3000
0000
0000
0000
0000
2000
0000
3000
0000
0000
0000
0000
0010
,
0100
0000
0000
0000
0001
0000
0000
0000
0010
0000
0000
0000
0100
0000
0000
0000
1000
0000
0000
0000
0002
0003
0020
0030
0200
0300
0020
0030
0002
0003
2000
3000
,
0020
0000
0000
0000
,
0000
0000
0000
0000
,
0230
0000
0000
0000
,
0000
0000
0000
0000
,
0320
0000
0000
0000
,
0000
0000
0000
0000
,
0230
0000
0000
0000
,
0000
0000
0000
0000
,
0320
0000
0000
0000
,
0000
0000
0000
0000
,
0230
0000
0000
0000
,
0000
0000
0000
0000
,
0320
0000
0000
0000
,
0000
0000
0000
0030
,
M0MM
0000
0000
0000
;

//---------------dance-single - I. Pyles----------------
#NOTES:
     dance-single:
     I. Pyles:
     Hard:
     14:
     1.000,1.000,0.002,0.470,1.000,3230.000,1.000,219.000,35.000,0.000:







0000
0000
0000
0000
,
0020
0000
0000
0000
,
0000
0100
0000
1000
0100
0000
1000
1000
,
0200
0030
0000
0000
,
0000
0000
0000
0000
0000
0000
0000
0000
0000
0000
0000
0000
0040
0030
0004
0003
,
0020
0300
0000
0000
,
0000
0100
0000
1000
0100
0000
1000
1000
,
0200
0030
0000
0000
,
0000
0000
0000
0000
,
0020
0300
0000
0000
,
0000
0100
0000
1000
0100
0000
1000
1000
,
0200
0030
0000
0000
,
0000
0000
0000
0000
0000
0000
0000
0000
0000
0000
0000
0000
0040
0030
0004
0003
,
0020
0300
0000
0000
,
0000
0100
0000
1000
0100
0000
1000
1000
,
0200
0030
0000
0000
,
0000
0000
0000
0000
,
0301
0010
0100
1000
0001
0010
0100
1000
,
0001
0010
0100
1000
0001
0010
0100
1000
,
0010
0100
0001
1000
0010
0100
0001
1000
,
0010
0000
0100
0000
0001
0000
1000
0000
0010
0000
0010
1000
0001
0000
0010
0000
,
0001
1000
0100
0010
0001
1000
0100
0010
,
0001
1000
0100
0010
0001
1000
0100
0010
,
0001
0100
0010
1000
0001
0100
0010
1000
,
0001
0100
0010
1000
0001
0100
0010
1000
,
0001
0010
0100
1000
0001
0010
0100
1000
,
0001
0010
0100
1000
0001
0010
0100
1000
,
0010
0100
0001
1000
0010
0100
0001
1000
,
0010
0000
0100
0000
0001
0000
1000
0000
0010
0000
0010
1000
0001
0000
0010
0000
,
0001
1000
0100
0010
0001
1000
0100
0010
,
0001
1000
0100
0010
0001
1000
0100
0010
,
0001
0100
0010
1000
0001
0100
0010
1000
,
0001
0100
0010
1000
0001
0100
0010
1000
,
0200
0000
0000
0000
,
0000
0010
0000
1000
0010
0000
1000
1000
,
0020
0300
0000
0000
,
0000
0000
0000
0000
0000
0000
0000
0000
0000
0000
0000
0000
0400
0300
0004
0003
,
0200
0030
0000
0000
,
0000
0010
0000
1000
0010
0000
1000
1000
,
0020
0300
0000
0000
,
0000
0000
0000
0000
,
0200
0030
0000
0000
,
0000
0000
0000
0000
,
0020
0300
0000
0000
,
0000
0000
0000
0000
,
0200
0030
0000
0000
,
0000
0000
0000
0000
,
0000
0000
0000
0000
,
0000
0000
0000
0000
,
1300
0000
0001
0000
0010
0000
0001
0000
1000
0000
0001
0000
0010
0000
0100
1000
,
0001
0000
1000
0000
0010
0000
1000
0000
0001
0100
0001
0000
0010
0000
0100
0000
,
1000
0000
0001
0000
0010
0000
0001
0000
1000
0000
0001
0000
0010
0000
0100
1000
,
0002
0000
0013
0200
0000
0310
0002
0000
,
1003
0000
1000
0000
M100
0000
1000
0000
0001
0010
0001
0000
1000
0000
0001
0010
,
0001
0000
0001
0000
010M
0000
0001
0000
1000
0010
1000
0000
0001
0000
1000
0010
,
1000
0000
1000
0000
M100
0000
1000
0000
0001
0100
0001
0000
1000
0000
0001
0100
,
0001
0000
0001
0000
001M
0000
0001
0000
1000
0010
0100
0000
0001
0000
1000
0000
,
0001
0000
1000
0000
0010
0000
1000
0000
0001
0000
1000
0000
0010
0000
0100
0001
,
1000
0000
0001
0000
0010
0000
0001
0000
1000
0100
1000
0000
0010
0000
0100
0000
,
0001
0000
1000
0000
0010
0000
1000
0000
0001
0000
1000
0000
0010
0000
0100
0001
,
2000
0000
3010
0200
0000
0310
2000
0000
,
3001
0000
0001
0000
001M
0000
0001
0000
1000
0100
1000
0000
0001
0000
1000
0100
,
1000
0000
1000
0000
M010
0000
1000
0000
0001
0100
0001
0000
1000
0000
0001
0100
,
0001
0000
0001
0000
001M
0000
0001
0000
1000
0010
1000
0000
0001
0000
1000
0010
,
1000
0000
000M
0000
00M0
0000
0M00
0000
1000
0010
1000
0001
0100
0001
0010
0001
,
1000
0000
0001
0000
0010
0000
0001
0000
1000
0000
0001
0000
0010
0000
0100
1000
,
0001
0000
1000
0000
0010
0000
1000
0000
0001
0100
0001
0000
0010
0000
0100
0000
,
1000
0000
0001
0000
0010
0000
0001
0000
1000
0000
0001
0000
0010
0000
0100
1000
,
0002
0000
0013
0200
0000
0310
0002
0000
,
1003
0000
1000
0000
M100
0000
1000
0000
0001
0010
0001
0000
1000
0000
0001
0010
,
0001
0000
0001
0000
010M
0000
0001
0000
1000
0010
1000
0000
0001
0000
1000
0010
,
1000
0000
1000
0000
M100
0000
1000
0000
0001
0100
0001
0000
1000
0000
0001
0100
,
0001
0000
0001
0000
001M
0000
0001
0000
1000
0010
0100
0000
0001
0000
1000
0000
,
0001
0000
1000
0000
0010
0000
1000
0000
0001
0000
1000
0000
0010
0000
0100
0001
,
1000
0000
0001
0000
0010
0000
0001
0000
1000
0100
1000
0000
0010
0000
0100
0000
,
0001
0000
1000
0000
0010
0000
1000
0000
0001
0000
1000
0000
0010
0000
0100
0001
,
2000
0000
3010
0200
0000
0310
2000
0000
,
3001
0000
0001
0000
001M
0000
0001
0000
1000
0100
1000
0000
0001
0000
1000
0100
,
1000
0000
1000
0000
M010
0000
1000
0000
0001
0100
0001
0000
1000
0000
0001
0100
,
0001
0000
0001
0000
001M
0000
0001
0000
1000
0010
1000
0000
0001
0000
1000
0010
,
1000
0000
0000
0000
0000
0000
0001
0000
1000
0000
0001
0000
1000
0000
0000
0010
0000
0000
0000
0000
0000
0010
0000
0000
1000
0000
0000
0100
0000
0000
0010
0000
0000
0100
0000
0000
1000
0000
0000
0010
0000
0000
1000
0000
0000
0001
0000
0000
,
1000
0010
0100
0001
0010
0100
0010
0001
0100
0010
0100
0001
1000
0100
0010
0001
,
1000
0010
0100
0010
1000
0100
0010
0100
1000
0010
0100
0010
1000
0001
0010
0100
,
1000
0010
0100
0001
0010
0100
0010
0001
0100
0010
0100
0001
1000
0100
0010
0001
,
1000
0010
0100
0010
0100
0001
0010
0100
0010
0100
1000
0010
0100
0001
0010
0100
,
1000
0010
1000
0100
0010
0100
1000
0001
0010
0100
1000
0001
0100
0010
1000
0001
,
1000
0100
1000
0010
0100
0010
1000
0001
0100
0010
1000
0001
0010
0100
1000
0001
,
1000
0010
1000
0100
0010
0100
1000
0001
0010
0100
1000
0001
0100
0010
1000
0001
,
1000
0100
1000
0010
0100
0010
1000
0001
1000
0100
0010
0001
1000
0010
0100
0001
,
1000
0100
0010
0100
1000
0010
0100
0010
1000
0100
0010
0100
1000
0001
0100
0010
,
1000
0100
0010
0001
0100
0010
0100
0001
0010
0100
0010
0001
1000
0010
0100
0001
,
1000
0100
1000
0010
0100
0010
1000
0001
0100
0010
1000
0001
0010
0100
1000
0001
,
1000
0010
1000
0100
0010
0100
1000
0001
0010
0100
1000
0001
0100
0010
1000
0001
,
1000
0100
1000
0010
1000
0100
0010
0001
0100
0010
1000
0001
0010
0100
1000
0001
,
1000
0010
1000
0100
1000
0010
0100
0001
0010
0100
1000
0001
0100
0010
1000
0001
,
1000
0100
1000
0010
1000
0100
0010
0001
0100
0010
1000
0001
0010
0100
1000
0001
,
1000
0010
1000
0100
0010
0100
1000
0001
1000
0010
0100
0001
1000
0100
0010
0001
,
1000
0010
0100
0001
0010
0100
0010
0001
0100
0010
0100
0001
1000
0100
0010
0001
,
1000
0010
0100
0010
1000
0100
0010
0100
1000
0010
0100
0010
1000
0001
0010
0100
,
1000
0010
0100
0001
0010
0100
0010
0001
0100
0010
0100
0001
1000
0100
0010
0001
,
1000
0010
0100
0010
0100
0001
0010
0100
0010
0100
1000
0010
0100
0001
0010
0100
,
1000
0010
1000
0100
0010
0100
1000
0001
0010
0100
1000
0001
0100
0010
1000
0001
,
1000
0100
1000
0010
0100
0010
1000
0001
0100
0010
1000
0001
0010
0100
1000
0001
,
1000
0010
1000
0100
0010
0100
1000
0001
0010
0100
1000
0001
0100
0010
1000
0001
,
1000
0100
1000
0010
0100
0010
1000
0001
1000
0100
0010
0001
1000
0010
0100
0001
,
1000
0100
0010
0100
1000
0010
0100
0010
1000
0100
0010
0100
1000
0001
0100
0010
,
1000
0100
0010
0001
0100
0010
0100
0001
0010
0100
0010
0001
1000
0010
0100
0001
,
1000
0100
1000
0010
0100
0010
1000
0001
0100
0010
1000
0001
0010
0100
1000
0001
,
1000
0010
1000
0100
0010
0100
1000
0001
0010
0100
1000
0001
0100
0010
1000
0001
,
1000
0100
1000
0010
1000
0100
0010
0001
0100
0010
1000
0001
0010
0100
1000
0001
,
1000
0010
1000
0100
1000
0010
0100
0001
0010
0100
1000
0001
0100
0010
1000
0001
,
1000
0100
1000
0010
1000
0100
0010
0001
0100
0010
1000
0001
0010
0100
1000
0001
,
1000
0010
1000
0100
0010
0100
1000
0001
1000
0010
0100
0001
1000
0100
0010
0001
,
1000
0000
0002
0003
0000
0000
0000
0000
0002
0000
0003
0000
0000
0000
0000
0100
,
0010
0000
1000
0000
0100
0000
0010
0000
0001
0000
0100
0010
0100
0010
0100
0001
,
1000
0100
0010
0001
0010
0000
0001
0010
0100
0010
0100
1000
0001
0000
0010
0100
,
1000
0100
1000
0001
1000
0100
0010
0001
1000
0001
1000
0010
0100
0001
0010
0100
,
1000
0010
0100
0001
0100
0000
0001
0100
0010
0100
0010
1000
0001
0000
0100
0010
,
1000
0010
1000
0001
1000
0010
0100
0001
1000
0001
1000
0100
0010
0001
0100
0010
,
1000
0100
0010
0001
0010
0000
0001
0010
0100
0010
0100
1000
0001
0000
0010
0100
,
1000
0100
1000
0001
1000
0100
0010
0001
1000
0001
1000
0010
0100
0001
0010
0100
,
1000
0010
0100
0001
0100
0000
0001
0100
0010
0100
0010
1000
0001
0000
0100
0010
,
1000
0010
1000
0001
1000
0010
0100
0001
1000
0001
1000
0100
0010
0001
0100
0010
,
1000
0100
0010
0001
0010
0000
0001
0010
0100
0010
0100
1000
0001
0000
0010
0100
,
1000
0100
1000
0001
1000
0100
0010
0001
1000
0001
1000
0010
0100
0001
0010
0100
,
1000
0010
0100
0001
0100
0000
0001
0100
0010
0100
0010
1000
0001
0000
0100
0010
,
1000
0010
1000
0001
1000
0010
0100
0001
1000
0001
1000
0100
0010
0001
0100
0010
,
1000
0100
0010
0001
0010
0000
0001
0010
0100
0010
0100
1000
0001
0000
0010
0100
,
1000
0100
1000
0001
1000
0100
0010
0001
1000
0001
1000
0010
0100
0001
0010
0100
,
1000
0010
0100
0001
0100
0000
0001
0100
0010
0100
0010
1000
0001
0000
0100
0010
,
1000
0010
1000
0001
1000
0010
0100
0001
1000
0001
1000
0100
0010
0001
0100
0010
,
1000
0100
0010
0001
0010
0000
0001
0010
0100
0010
0100
1000
0001
0000
0010
0100
,
1000
0100
1000
0001
1000
0100
0010
0001
1000
0001
1000
0010
0100
0001
0010
0100
,
1000
0010
0100
0001
0100
0000
0001
0100
0010
0100
0010
1000
0001
0000
0100
0010
,
1000
0010
1000
0001
1000
0010
0100
0001
1000
0001
1000
0100
0010
0001
0100
0010
,
1000
0100
0010
0001
0010
0000
0001
0010
0100
0010
0100
1000
0001
0000
0010
0100
,
1000
0100
1000
0001
1000
0100
0010
0001
1000
0001
1000
0010
0100
0001
0010
0100
,
1000
0010
0100
0001
0100
0000
0001
0100
0010
0100
0010
1000
0001
0000
0100
0010
,
1000
0010
1000
0001
1000
0010
0100
0001
1000
0001
1000
0100
0010
0001
0100
0010
,
1000
0100
0010
0001
0010
0000
0001
0010
0100
0010
0100
1000
0001
0000
0010
0100
,
1000
0100
1000
0001
1000
0100
0010
0001
1000
0001
1000
0010
0100
0001
0010
0100
,
1000
0010
0100
0001
0100
0000
0001
0100
0010
0100
0010
1000
0001
0000
0100
0010
,
1000
0010
1000
0001
1000
0010
0100
0001
1000
0001
1000
0100
0010
0001
0100
0010
,
1000
0100
0010
0001
0010
0000
0001
0010
0100
0010
0100
1000
0001
0000
0010
0100
,
1000
0100
1000
0001
1000
0100
0010
0001
1000
0001
1000
0010
0100
0001
0010
0100
,
1000
0000
0002
0003
0000
0000
0000
0000
0002
0000
0003
0000
0000
0000
0000
0100
,
0010
1000
0100
0010
0001
0100
0010
1000
,
0001
0000
2000
3000
0000
0000
0000
0000
2000
0000
3000
0000
0000
0000
0000
0010
,
0100
0001
0010
0100
1000
0010
0100
0001
,
1000
0000
0002
0003
0000
0000
0000
0000
0002
0000
0003
0000
0000
0000
0000
0100
,
0010
1000
0100
0010
0001
0100
0010
1000
,
0001
0000
2000
3000
0000
0000
0000
0000
2000
0000
3000
0000
0000
0000
0000
0010
,
0100
0001
0010
0100
1000
0010
0100
0100
,
0001
0000
2000
3000
0000
0000
0000
0000
2000
0000
3000
0000
0000
0000
0000
0010
,
0100
0001
0010
0100
1000
0010
0100
0001
,
1000
0000
0002
0003
0000
0000
0000
0000
0002
0000
0003
0000
0000
0000
0000
0100
,
0010
1000
0100
0010
0001
0100
0010
1000
,
0001
0000
2000
3000
0000
0000
0000
0000
2000
0000
3000
0000
0000
0000
0000
0010
,
0100
0001
0010
0100
1000
0010
0100
0001
,
1000
0000
0002
0003
0000
0000
0000
0000
0002
0000
0003
0000
0000
0000
0000
0100
,
0010
0100
0001
0010
0100
1000
0010
0100
,
0001
0010
0100
1000
0001
0010
0100
1000
,
0001
0010
0100
1000
0001
0010
0100
1000
,
0010
0100
0001
1000
0010
0100
0001
1000
,
0010
0000
0100
0000
0001
0000
1000
0000
0010
0000
0010
1000
0001
0000
0010
0000
,
0001
1000
0100
0010
0001
1000
0100
0010
,
0001
1000
0100
0010
0001
1000
0100
0010
,
0001
0100
0010
1000
0001
0100
0010
1000
,
0001
0100
0010
1000
0001
0100
0010
1000
,
0200
0000
0000
0000
,
0000
0010
0000
1000
0010
0000
1000
1000
,
0020
0300
0000
0000
,
0000
0000
0000
0000
,
0200
0030
0000
0000
,
0000
0000
0000
0000
,
0000
0000
0000
0000
,
0000
0010
0010
0010
0010
0010
0010
0010
,
0301
0000
1000
0000
0010
0000
1000
0000
0001
0000
1000
0000
0010
0000
0100
0001
,
1000
0000
0001
0000
0010
0000
0001
0000
1000
0100
1000
0000
0010
0000
0100
0000
,
0001
0000
1000
0000
0010
0000
1000
0000
0001
0000
1000
0000
0010
0000
0100
0001
,
2000
0000
3010
0200
0000
0310
2000
0000
,
3001
0000
0001
0000
010M
0000
0001
0000
1000
0010
1000
0000
0001
0000
1000
0010
,
1000
0000
1000
0000
M100
0000
1000
0000
0001
0010
0001
0000
1000
0000
0001
0010
,
0001
0000
0001
0000
010M
0000
0001
0000
1000
0100
1000
0000
0001
0000
1000
0100
,
1000
0000
1000
0000
M010
0000
1000
0000
0001
0010
0100
0000
1000
0000
0001
0000
,
1000
0000
0001
0000
0010
0000
0001
0000
1000
0000
0001
0000
0010
0000
0100
1000
,
0001
0000
1000
0000
0010
0000
1000
0000
0001
0100
0001
0000
0010
0000
0100
0000
,
1000
0000
0001
0000
0010
0000
0001
0000
1000
0000
0001
0000
0010
0000
0100
1000
,
0002
0000
0013
0200
0000
0310
0002
0000
,
1003
0000
1000
0000
M010
0000
1000
0000
0001
0100
0001
0000
1000
0000
0001
0100
,
0001
0000
0001
0000
001M
0000
0001
0000
1000
0100
1000
0000
0001
0000
1000
0100
,
1000
0000
1000
0000
M010
0000
1000
0000
0001
0010
0001
0000
1000
0000
0001
0010
,
0001
0000
0001
0000
110M
0000
0001
0000
1000
0100
1000
0000
0100
1000
0010
0100
,
0001
0000
1000
0000
0010
0000
1000
0000
0001
0000
1000
0000
0010
0000
0100
0001
,
1000
0000
0001
0000
0010
0000
0001
0000
1000
0100
1000
0000
0010
0000
0100
0000
,
0001
0000
1000
0000
0010
0000
1000
0000
0001
0000
1000
0000
0010
0000
0100
0001
,
2000
0000
3010
0200
0000
0310
2000
0000
,
3001
0000
0001
0000
010M
0000
0001
0000
1000
0010
1000
0000
0001
0000
1000
0010
,
1000
0000
1000
0000
M100
0000
1000
0000
0001
0010
0001
0000
1000
0000
0001
0010
,
0001
0000
0001
0000
010M
0000
0001
0000
1000
0100
1000
0000
0001
0000
1000
0100
,
1000
0000
1000
0000
M010
0000
1000
0000
0001
0010
0100
0000
1000
0000
0001
0000
,
1000
0000
0001
0000
0010
0000
0001
0000
1000
0000
0001
0000
0010
0000
0100
1000
,
0001
0000
1000
0000
0010
0000
1000
0000
0001
0100
0001
0000
0010
0000
0100
0000
,
1000
0000
0001
0000
0010
0000
0001
0000
1000
0000
0001
0000
0010
0000
0100
1000
,
0002
0000
0013
0200
0000
0310
0002
0000
,
1003
0000
1000
0000
M010
0000
1000
0000
0001
0100
0001
0000
1000
0000
0001
0100
,
0001
0000
0001
0000
001M
0000
0001
0000
1000
0100
1000
0000
0001
0000
1000
0100
,
1000
0000
1000
0000
M010
0000
1000
0000
0001
0010
0001
0000
1000
0000
0001
0010
,
0001
0000
0000
0000
0000
0000
1000
0000
0001
0000
1000
0000
0001
0000
0000
0100
0000
0000
0000
0000
0000
0100
0000
0000
0001
0000
0000
0010
0000
0000
0100
0000
0000
0010
0000
0000
0001
0000
0000
0100
0000
0000
0001
0000
0000
1000
0000
0000
,
0001
0100
0010
1000
0100
0010
0100
1000
0010
0100
0010
1000
0001
0010
0100
1000
,
0001
0100
0010
0100
0001
0010
0100
0010
0001
0100
0010
0100
0001
1000
0100
0010
,
0001
0100
0010
1000
0100
0010
0100
1000
0010
0100
0010
1000
0001
0010
0100
1000
,
0001
0100
0010
0100
0010
1000
0100
0010
0100
0010
0001
0100
0010
1000
0100
0010
,
0001
0100
0001
0010
0100
0010
0001
1000
0100
0010
0001
1000
0010
0100
0001
1000
,
0001
0010
0001
0100
0010
0100
0001
1000
0010
0100
0001
1000
0100
0010
0001
1000
,
0001
0100
0001
0010
0100
0010
0001
1000
0100
0010
0001
1000
0010
0100
0001
1000
,
0001
0010
0001
0100
0010
0100
0001
1000
0001
0010
0100
1000
0001
0100
0010
1000
,
0001
0010
0100
0010
0001
0100
0010
0100
0001
0010
0100
0010
0001
1000
0010
0100
,
0001
0010
0100
1000
0010
0100
0010
1000
0100
0010
0100
1000
0001
0100
0010
1000
,
0001
0010
0001
0100
0010
0100
0001
1000
0010
0100
0001
1000
0100
0010
0001
1000
,
0001
0100
0001
0010
0100
0010
0001
1000
0100
0010
0001
1000
0010
0100
0001
1000
,
0001
0010
0001
0100
0001
0010
0100
1000
0010
0100
0001
1000
0100
0010
0001
1000
,
0001
0100
0001
0010
0001
0100
0010
1000
0100
0010
0001
1000
0010
0100
0001
1000
,
0001
0010
0001
0100
0001
0010
0100
1000
0010
0100
0001
1000
0100
0010
0001
1000
,
0001
0100
0001
0010
0100
0010
0001
1000
0001
0100
0010
1000
0001
0010
0100
1000
,
0001
0100
0010
1000
0100
0010
0100
1000
0010
0100
0010
1000
0001
0010
0100
1000
,
0001
0100
0010
0100
0001
0010
0100
0010
0001
0100
0010
0100
0001
1000
0100
0010
,
0001
0100
0010
1000
0100
0010
0100
1000
0010
0100
0010
1000
0001
0010
0100
1000
,
0001
0100
0010
0100
0010
1000
0100
0010
0100
0010
0001
0100
0010
1000
0100
0010
,
0001
0100
0001
0010
0100
0010
0001
1000
0100
0010
0001
1000
0010
0100
0001
1000
,
0001
0010
0001
0100
0010
0100
0001
1000
0010
0100
0001
1000
0100
0010
0001
1000
,
0001
0100
0001
0010
0100
0010
0001
1000
0100
0010
0001
1000
0010
0100
0001
1000
,
0001
0010
0001
0100
0010
0100
0001
1000
0001
0010
0100
1000
0001
0100
0010
1000
,
0001
0010
0100
0010
0001
0100
0010
0100
0001
0010
0100
0010
0001
1000
0010
0100
,
0001
0010
0100
1000
0010
0100
0010
1000
0100
0010
0100
1000
0001
0100
0010
1000
,
0001
0010
0001
0100
0010
0100
0001
1000
0010
0100
0001
1000
0100
0010
0001
1000
,
0001
0100
0001
0010
0100
0010
0001
1000
0100
0010
0001
1000
0010
0100
0001
1000
,
0001
0010
0001
0100
0001
0010
0100
1000
0010
0100
0001
1000
0100
0010
0001
1000
,
0001
0100
0001
0010
0001
0100
0010
1000
0100
0010
0001
1000
0010
0100
0001
1000
,
0001
0010
0001
0100
0001
0010
0100
1000
0010
0100
0001
1000
0100
0010
0001
1000
,
0001
0100
0001
0010
0100
0010
0001
1000
0001
0100
0010
1000
0001
0010
0100
1000
,
0001
0000
2000
3000
0000
0000
0000
0000
2000
0000
3000
0000
0000
0000
0000
0010
,
0100
0000
0001
0000
0010
0000
0100
0000
1000
0000
0010
0100
0010
0100
0010
1000
,
0001
0010
0100
1000
0100
0000
1000
0100
0010
0100
0010
0001
1000
0000
0100
0010
,
0001
0010
0001
1000
0001
0010
0100
1000
0001
1000
0001
0100
0010
1000
0100
0010
,
0001
0100
0010
1000
0010
0000
1000
0010
0100
0010
0100
0001
1000
0000
0010
0100
,
0001
0100
0001
1000
0001
0100
0010
1000
0001
1000
0001
0010
0100
1000
0010
0100
,
0001
0010
0100
1000
0100
0000
1000
0100
0010
0100
0010
0001
1000
0000
0100
0010
,
0001
0010
0001
1000
0001
0010
0100
1000
0001
1000
0001
0100
0010
1000
0100
0010
,
0001
0100
0010
1000
0010
0000
1000
0010
0100
0010
0100
0001
1000
0000
0010
0100
,
0001
0100
0001
1000
0001
0100
0010
1000
0001
1000
0001
0010
0100
1000
0010
0100
,
0001
0010
0100
1000
0100
0000
1000
0100
0010
0100
0010
0001
1000
0000
0100
0010
,
0001
0010
0001
1000
0001
0010
0100
1000
0001
1000
0001
0100
0010
1000
0100
0010
,
0001
0100
0010
1000
0010
0000
1000
0010
0100
0010
0100
0001
1000
0000
0010
0100
,
0001
0100
0001
1000
0001
0100
0010
1000
0001
1000
0001
0010
0100
1000
0010
0100
,
0001
0010
0100
1000
0100
0000
1000
0100
0010
0100
0010
0001
1000
0000
0100
0010
,
0001
0010
0001
1000
0001
0010
0100
1000
0001
1000
0001
0100
0010
1000
0100
0010
,
0001
0100
0010
1000
0010
0000
1000
0010
0100
0010
0100
0001
1000
0000
0010
0100
,
0001
0100
0001
1000
0001
0100
0010
1000
0001
1000
0001
0010
0100
1000
0010
0100
,
0001
0010
0100
1000
0100
0000
1000
0100
0010
0100
0010
0001
1000
0000
0100
0010
,
0001
0010
0001
1000
0001
0010
0100
1000
0001
1000
0001
0100
0010
1000
0100
0010
,
0001
0100
0010
1000
0010
0000
1000
0010
0100
0010
0100
0001
1000
0000
0010
0100
,
0001
0100
0001
1000
0001
0100
0010
1000
0001
1000
0001
0010
0100
1000
0010
0100
,
0001
0010
0100
1000
0100
0000
1000
0100
0010
0100
0010
0001
1000
0000
0100
0010
,
0001
0010
0001
1000
0001
0010
0100
1000
0001
1000
0001
0100
0010
1000
0100
0010
,
0001
0100
0010
1000
0010
0000
1000
0010
0100
0010
0100
0001
1000
0000
0010
0100
,
0001
0100
0001
1000
0001
0100
0010
1000
0001
1000
0001
0010
0100
1000
0010
0100
,
0001
0010
0100
1000
0100
0000
1000
0100
0010
0100
0010
0001
1000
0000
0100
0010
,
0001
0010
0001
1000
0001
0010
0100
1000
0001
1000
0001
0100
0010
1000
0100
0010
,
0001
0100
0010
1000
0010
0000
1000
0010
0100
0010
0100
0001
1000
0000
0010
0100
,
0001
0100
0001
1000
0001
0100
0010
1000
0001
1000
0001
0010
0100
1000
0010
0100
,
0001
0010
0100
1000
0100
0000
1000
0100
0010
0100
0010
0001
1000
0000
0100
0010
,
0001
0010
0001
1000
0001
0010
0100
1000
0001
1000
0001
0100
0010
1000
0100
0010
,
0001
0000
0000
0000
2000
0000
3000
0000
0000
0000
0000
0000
0020
0030
0000
0000
2000
0000
3000
0000
0002
0000
0000
0003
0200
0000
0000
0000
0300
0000
0010
0000
,
0100
0001
0010
0100
1000
0010
0100
0001
,
1000
0000
0000
0000
0002
0000
0003
0000
0000
0000
0000
0000
0020
0030
0000
0000
0002
0000
0003
0000
0200
0000
0000
0300
0020
0000
0000
0000
2030
0000
0000
0000
,
0000
3000
0000
0000
0002
0000
0000
0000
0000
0000
0003
0000
0010
0000
0000
0000
0001
0000
0000
0000
0100
0000
0000
0000
0010
0000
0000
0000
1000
0000
0000
0000
,
0001
0000
0000
0000
2000
0000
3000
0000
0000
0000
0000
0000
0200
0300
0000
0000
2000
0000
3000
0000
0002
0000
0000
0003
0020
0000
0000
0000
0030
0000
0100
0000
,
0010
0001
0100
0010
1000
0100
0010
0001
,
1000
0000
0000
0000
0002
0000
0003
0000
0000
0000
0000
0000
0200
0300
0000
0000
0002
0000
0003
0000
0020
0000
0000
0030
0200
0000
0000
0000
0320
0000
0000
0000
,
0000
0030
0000
0000
0001
0000
0000
0000
0200
0000
0000
0000
0000
0000
0300
0000
0000
0000
0000
0000
0002
0003
0020
0030
0200
0300
0020
0030
0002
0003
2000
3000
,
0001
0000
0000
0000
2000
0000
3000
0000
0000
0000
0000
0000
0200
0300
0000
0000
2000
0000
3000
0000
0002
0000
0000
0003
0020
0000
0000
0000
0030
0000
0100
0000
,
0010
0001
0100
0010
1000
0100
0010
0001
,
1000
0000
0000
0000
0002
0000
0003
0000
0000
0000
0000
0000
0200
0300
0000
0000
0002
0000
0003
0000
0020
0000
0000
0030
0200
0000
0000
0000
2300
0000
0000
0000
,
0000
3000
0000
0000
0002
0000
0000
0000
0000
0000
0003
0000
0100
0000
0000
0000
0001
0000
0000
0000
0010
0000
0000
0000
0100
0000
0000
0000
1000
0000
0000
0000
,
0001
0000
0000
0000
2000
0000
3000
0000
0000
0000
0000
0000
0020
0030
0000
0000
2000
0000
3000
0000
0002
0000
0000
0003
0200
0000
0000
0000
0300
0000
0010
0000
,
0100
0001
0010
0100
1000
0010
0100
0001
,
1000
0000
0000
0000
0002
0000
0003
0000
0000
0000
0000
0000
0020
0030
0000
0000
0002
0000
0003
0000
0200
0000
0000
0300
0020
0000
0000
0000
0230
0000
0000
0000
,
0000
0300
0000
0000
0001
0000
0000
0000
0020
0000
0000
0000
0000
0000
0030
0000
0000
0000
0000
0000
0002
0003
0200
0300
0020
0030
0200
0300
0002
0003
2000
3000
,
0001
0000
0000
0000
2000
0000
3000
0000
0000
0000
0000
0000
0020
0030
0000
0000
2000
0000
3000
0000
0002
0000
0000
0003
0200
0000
0000
0000
0300
0000
0010
0000
,
0100
0001
0010
0100
1000
0010
0100
0001
,
1000
0000
0000
0000
0002
0000
0003
0000
0000
0000
0000
0000
0020
0030
0000
0000
0002
0000
0003
0000
0200
0000
0000
0300
0020
0000
0000
0000
2030
0000
0000
0000
,
0000
3000
0000
0000
0002
0000
0000
0000
0000
0000
0003
0000
0010
0000
0000
0000
0001
0000
0000
0000
0100
0000
0000
0000
0010
0000
0000
0000
1000
0000
0000
0000
,
0001
0000
0000
0000
2000
0000
3000
0000
0000
0000
0000
0000
0200
0300
0000
0000
2000
0000
3000
0000
0002
0000
0000
0003
0020
0000
0000
0000
0030
0000
0100
0000
,
0010
0001
0100
0010
1000
0100
0010
0001
,
1000
0000
0000
0000
0002
0000
0003
0000
0000
0000
0000
0000
0200
0300
0000
0000
0002
0000
0003
0000
0020
0000
0000
0030
0200
0000
0000
0000
0320
0000
0000
0000
,
0000
0030
0000
0000
0001
0000
0000
0000
0200
0000
0000
0000
0000
0000
0300
0000
0000
0000
0000
0000
0002
0003
0020
0030
0200
0300
0020
0030
0002
0003
2000
3000
,
0001
0000
0000
0000
2000
0000
3000
0000
0000
0000
0000
0000
0200
0300
0000
0000
2000
0000
3000
0000
0002
0000
0000
0003
0020
0000
0000
0000
0030
0000
0100
0000
,
0010
0001
0100
0010
1000
0100
0010
0001
,
1000
0000
0000
0000
0002
0000
0003
0000
0000
0000
0000
0000
0200
0300
0000
0000
0002
0000
0003
0000
0020
0000
0000
0030
0200
0000
0000
0000
2300
0000
0000
0000
,
0000
3000
0000
0000
0002
0000
0000
0000
0000
0000
0003
0000
0100
0000
0000
0000
0001
0000
0000
0000
0010
0000
0000
0000
0100
0000
0000
0000
1000
0000
0000
0000
,
0001
0000
0000
0000
2000
0000
3000
0000
0000
0000
0000
0000
0020
0030
0000
0000
2000
0000
3000
0000
0002
0000
0000
0003
0200
0000
0000
0000
0300
0000
0010
0000
,
0100
0001
0010
0100
1000
0010
0100
0001
,
1000
0000
0000
0000
0002
0000
0003
0000
0000
0000
0000
0000
0020
0030
0000
0000
0002
0000
0003
0000
0200
0000
0000
0300
0020
0000
0000
0000
0230
0000
0000
0000
,
0000
0300
0000
0000
0001
0000
0000
0000
0020
0000
0000
0000
0000
0000
0030
0000
0002
0003
0200
0300
0020
0030
0200
0300
0002
0003
0200
0300
0020
0030
0200
0300
,
0001
0000
2000
3000
0000
0000
0000
0000
2000
0000
3000
0000
0000
0000
0000
0010
,
0100
0001
0010
0100
1000
0010
0100
0001
,
1000
0000
0002
0003
0000
0000
0000
0000
0002
0000
0003
0000
0000
0000
0000
0100
,
0010
1000
0100
0010
0001
0100
0010
1000
,
0001
0000
2000
3000
0000
0000
0000
0000
2000
0000
3000
0000
0000
0000
0000
0010
,
0100
0001
0010
0100
1000
0010
0100
0001
,
1000
0000
0002
0003
0000
0000
0000
0000
0002
0000
0003
0000
0000
0000
0000
0100
,
0010
0000
0000
0000
1000
0000
0000
0000
0100
0000
0000
0000
0010
0000
0000
0000
0001
0000
0000
0000
2000
3000
0200
0300
0020
0030
0200
0300
2000
3000
0002
0003
,
0010
0000
0002
0003
0000
0000
0000
0000
0002
0000
0003
0000
0000
0000
0000
0100
,
0010
1000
0100
0010
0001
0100
0010
1000
,
0001
0000
2000
3000
0000
0000
0000
0000
2000
0000
3000
0000
0000
0000
0000
0010
,
0100
0001
0010
0100
1000
0010
0100
0001
,
1000
0000
0002
0003
0000
0000
0000
0000
0002
0000
0003
0000
0000
0000
0000
0100
,
0010
1000
0100
0010
0001
0100
0010
1000
,
0001
0000
2000
3000
0000
0000
0000
0000
2000
0000
3000
0000
0000
0000
0000
0010
,
0100
0000
0000
0000
0001
0000
0000
0000
0010
0000
0000
0000
0100
0000
0000
0000
1000
0000
0000
0000
0002
0003
0020
0030
0200
0300
0020
0030
0002
0003
2000
3000
,
0020
0000
0000
0000
,
0000
0000
0000
0000
,
0230
0000
0000
0000
,
0000
0000
0000
0000
,
0320
0000
0000
0000
,
0000
0000
0000
0000
,
0230
0000
0000
0000
,
0000
0000
0000
0000
,
0320
0000
0000
0000
,
0000
0000
0000
0000
,
0230
0000
0000
0000
,
0000
0000
0000
0000
,
0320
0000
0000
0000
,
0000
0000
0000
0030
,
M0MM
0000
0000
0000
;

//---------------dance-single - I. Pyles----------------
#NOTES:
     dance-single:
     I. Pyles:
     Challenge:
     16:
     1.000,1.000,0.002,0.393,1.000,3828.000,1.000,183.000,36.000,0.000:








0000
0000
0000
0000
,
0020
0000
0000
0000
,
0000
0100
0000
1000
0100
0000
1000
1000
,
0200
0030
0000
0000
,
0000
0000
0000
0000
0000
0000
0000
0000
0000
0000
0000
0000
0040
0030
0004
0003
,
0020
0300
0000
0000
,
0000
0100
0000
1000
0100
0000
1000
1000
,
0200
0030
0000
0000
,
0000
0000
0000
0000
,
0020
0300
0000
0000
,
0000
0100
0000
1000
0100
0000
1000
1000
,
0200
0030
0000
0000
,
0000
0000
0000
0000
0000
0000
0000
0000
0000
0000
0000
0000
0040
0030
0004
0003
,
0020
0300
0000
0000
,
0000
0100
0000
1000
0100
0000
1000
1000
,
0200
0030
0000
0000
,
0000
0000
0000
0000
,
0301
0010
0100
1000
0001
0010
0100
1000
,
0001
0010
0100
1000
0001
0010
0100
1000
,
0010
0100
0001
1000
0010
0100
0001
1000
,
0010
0000
0100
0000
0001
0000
1000
0000
0010
0000
0010
1000
0001
0000
0010
0000
,
0001
1000
0100
0010
0001
1000
0100
0010
,
0001
1000
0100
0010
0001
1000
0100
0010
,
0001
0100
0010
1000
0001
0100
0010
1000
,
0001
0100
0010
1000
0001
0100
0010
1000
,
0001
0010
0100
1000
0001
0010
0100
1000
,
0001
0010
0100
1000
0001
0010
0100
1000
,
0010
0100
0001
1000
0010
0100
0001
1000
,
0010
0000
0100
0000
0001
0000
1000
0000
0010
0000
0010
1000
0001
0000
0010
0000
,
0001
1000
0100
0010
0001
1000
0100
0010
,
0001
1000
0100
0010
0001
1000
0100
0010
,
0001
0100
0010
1000
0001
0100
0010
1000
,
0001
0100
0010
1000
0001
0100
0010
1000
,
0200
0000
0000
0000
,
0000
0010
0000
1000
0010
0000
1000
1000
,
0020
0300
0000
0000
,
0000
0000
0000
0000
0000
0000
0000
0000
0000
0000
0000
0000
0400
0300
0004
0003
,
0200
0030
0000
0000
,
0000
0010
0000
1000
0010
0000
1000
1000
,
0020
0300
0000
0000
,
0000
0000
0000
0000
,
0200
0030
0000
0000
,
0000
0000
0000
0000
,
0020
0300
0000
0000
,
0000
0000
0000
0000
,
0200
0030
0000
0000
,
0000
0000
0000
0000
,
0000
0000
0000
0000
,
0000
0000
0000
0000
,
1300
0001
0100
0001
0100
0010
1000
0001
0100
0001
0100
0010
1000
0100
0010
0001
,
1000
0100
0010
0100
0010
0001
1000
0100
0010
0100
0010
0001
1000
0100
0010
0001
,
0100
0010
1000
0010
1000
0001
0100
0010
1000
0010
1000
0001
0100
0010
1000
0100
,
0010
0001
1000
0100
0010
0001
1000
0010
0100
0001
0010
0100
1000
0001
0100
0010
,
1000
0000
1000
0000
M100
0000
1000
0000
0001
0010
0001
0000
1000
0000
0001
0010
,
0001
0000
0001
0000
010M
0000
0001
0000
1000
0010
1000
0000
0001
0000
1000
0010
,
1000
0000
1000
0000
M100
0000
1000
0000
0001
0100
0001
0000
1000
0000
0001
0100
,
0001
0000
0001
0000
001M
0000
0001
0000
1000
0010
0100
0000
0001
0000
1000
0100
,
1000
0001
0010
0001
0010
0100
1000
0001
0010
0001
0010
0100
1000
0010
0100
0001
,
1000
0010
0100
0010
0100
0001
1000
0010
0100
0010
0100
0001
1000
0010
0100
0001
,
0010
0100
1000
0100
1000
0001
0010
0100
1000
0100
1000
0001
0010
0100
1000
0010
,
0100
0001
1000
0010
0100
0001
1000
0100
0010
0001
0100
0010
1000
0001
0010
0100
,
1000
0000
1000
0000
M010
0000
1000
0000
0001
0100
0001
0000
1000
0000
0001
0100
,
0001
0000
0001
0000
001M
0000
0001
0000
1000
0100
1000
0000
0001
0000
1000
0100
,
1000
0000
1000
0000
M010
0000
1000
0000
0001
0010
0001
0000
1000
0000
0001
0010
,
0001
0000
M000
0000
0M00
0000
00M0
0000
M001
0010
0001
1000
0100
1000
0010
0100
,
0001
1000
0010
1000
0010
0100
0001
1000
0010
1000
0010
0100
0001
0010
0100
1000
,
0001
0010
0100
0010
0100
1000
0001
0010
0100
0010
0100
1000
0001
0010
0100
1000
,
0010
0100
0001
0100
0001
1000
0010
0100
0001
0100
0001
1000
0010
0100
0001
0010
,
0100
1000
0001
0010
0100
1000
0001
0100
0010
1000
0100
0010
0001
1000
0010
0100
,
0001
0000
0001
0000
001M
0000
0001
0000
1000
0100
1000
0000
0001
0000
1000
0100
,
1000
0000
1000
0000
M010
0000
1000
0000
0001
0100
0001
0000
1000
0000
0001
0100
,
0001
0000
0001
0000
001M
0000
0001
0000
1000
0010
1000
0000
0001
0000
1000
0010
,
1000
0000
1000
0000
M100
0000
1000
0000
0001
0100
0010
0000
1000
0000
0001
0010
,
0001
1000
0100
1000
0100
0010
0001
1000
0100
1000
0100
0010
0001
0100
0010
1000
,
0001
0100
0010
0100
0010
1000
0001
0100
0010
0100
0010
1000
0001
0100
0010
1000
,
0100
0010
0001
0010
0001
1000
0100
0010
0001
0010
0001
1000
0100
0010
0001
0100
,
0010
1000
0001
0100
0010
1000
0001
0010
0100
1000
0010
0100
0001
1000
0100
0010
,
0001
0000
0001
0000
010M
0000
0001
0000
1000
0010
1000
0000
0001
0000
1000
0010
,
1000
0000
1000
0000
M100
0000
1000
0000
0001
0010
0001
0000
1000
0000
0001
0010
,
0001
0000
0001
0000
010M
0000
0001
0000
1000
0100
1000
0000
0001
0000
1000
0100
,
1000
0000
0000
0000
0000
0000
0001
0000
1000
0000
0001
0000
1000
0000
0000
0010
0000
0000
0000
0000
0000
0010
0000
0000
1000
0000
0000
0100
0000
0000
0010
0000
0000
0100
0000
0000
1000
0000
0000
0010
0000
0000
1000
0000
0000
0001
0000
0000
,
1000
0010
0100
0001
0010
0100
0010
0001
0100
0010
0100
0001
1000
0100
0010
0001
,
1000
0010
0100
0010
1000
0100
0010
0100
1000
0010
0100
0010
1000
0001
0010
0100
,
1000
0010
0100
0001
0010
0100
0010
0001
0100
0010
0100
0001
1000
0100
0010
0001
,
1000
0010
0100
0010
0100
0001
0010
0100
0010
0100
1000
0010
0100
0001
0010
0100
,
1000
0010
1000
0100
0010
0100
1000
0001
0010
0100
1000
0001
0100
0010
1000
0001
,
1000
0100
1000
0010
0100
0010
1000
0001
0100
0010
1000
0001
0010
0100
1000
0001
,
1000
0010
1000
0100
0010
0100
1000
0001
0010
0100
1000
0001
0100
0010
1000
0001
,
1000
0100
1000
0010
0100
0010
1000
0001
1000
0100
0010
0001
1000
0010
0100
0001
,
1000
0100
0010
0100
1000
0010
0100
0010
1000
0100
0010
0100
1000
0001
0100
0010
,
1000
0100
0010
0001
0100
0010
0100
0001
0010
0100
0010
0001
1000
0010
0100
0001
,
1000
0100
1000
0010
0100
0010
1000
0001
0100
0010
1000
0001
0010
0100
1000
0001
,
1000
0010
1000
0100
0010
0100
1000
0001
0010
0100
1000
0001
0100
0010
1000
0001
,
1000
0100
1000
0010
1000
0100
0010
0001
0100
0010
1000
0001
0010
0100
1000
0001
,
1000
0010
1000
0100
1000
0010
0100
0001
0010
0100
1000
0001
0100
0010
1000
0001
,
1000
0100
1000
0010
1000
0100
0010
0001
0100
0010
1000
0001
0010
0100
1000
0001
,
1000
0010
1000
0100
0010
0100
1000
0001
1000
0010
0100
0001
1000
0100
0010
0001
,
1000
0010
0100
0001
0010
0100
0010
0001
0100
0010
0100
0001
1000
0100
0010
0001
,
1000
0010
0100
0010
1000
0100
0010
0100
1000
0010
0100
0010
1000
0001
0010
0100
,
1000
0010
0100
0001
0010
0100
0010
0001
0100
0010
0100
0001
1000
0100
0010
0001
,
1000
0010
0100
0010
0100
0001
0010
0100
0010
0100
1000
0010
0100
0001
0010
0100
,
1000
0010
1000
0100
0010
0100
1000
0001
0010
0100
1000
0001
0100
0010
1000
0001
,
1000
0100
1000
0010
0100
0010
1000
0001
0100
0010
1000
0001
0010
0100
1000
0001
,
1000
0010
1000
0100
0010
0100
1000
0001
0010
0100
1000
0001
0100
0010
1000
0001
,
1000
0100
1000
0010
0100
0010
1000
0001
1000
0100
0010
0001
1000
0010
0100
0001
,
1000
0100
0010
0100
1000
0010
0100
0010
1000
0100
0010
0100
1000
0001
0100
0010
,
1000
0100
0010
0001
0100
0010
0100
0001
0010
0100
0010
0001
1000
0010
0100
0001
,
1000
0100
1000
0010
0100
0010
1000
0001
0100
0010
1000
0001
0010
0100
1000
0001
,
1000
0010
1000
0100
0010
0100
1000
0001
0010
0100
1000
0001
0100
0010
1000
0001
,
1000
0100
1000
0010
1000
0100
0010
0001
0100
0010
1000
0001
0010
0100
1000
0001
,
1000
0010
1000
0100
1000
0010
0100
0001
0010
0100
1000
0001
0100
0010
1000
0001
,
1000
0100
1000
0010
1000
0100
0010
0001
0100
0010
1000
0001
0010
0100
1000
0001
,
1000
0010
1000
0100
0010
0100
1000
0001
1000
0010
0100
0001
1000
0100
0010
0001
,
1000
0000
0002
0003
0000
0000
0000
0000
0002
0000
0003
0000
0000
0000
0000
0100
,
0010
0000
1000
0000
0100
0000
0010
0000
0001
0000
0100
0010
0100
0010
0100
0001
,
1000
0100
0010
0001
0010
0001
1000
0100
0010
0100
0010
0001
1000
0001
0010
0100
,
1000
0100
1000
0001
1000
0100
0010
0001
1000
0001
1000
0010
0100
0001
0010
0100
,
1000
0010
0100
0001
0100
0001
1000
0010
0100
0010
0100
0001
1000
0001
0100
0010
,
1000
0010
1000
0001
1000
0010
0100
0001
1000
0001
1000
0100
0010
0001
0100
0010
,
1000
0100
0010
0001
0010
0001
1000
0100
0010
0100
0010
0001
1000
0001
0010
0100
,
1000
0100
1000
0001
1000
0100
0010
0001
1000
0001
1000
0010
0100
0001
0010
0100
,
1000
0010
0100
0001
0100
0001
1000
0010
0100
0010
0100
0001
1000
0001
0100
0010
,
1000
0010
1000
0001
1000
0010
0100
0001
1000
0001
1000
0100
0010
0001
0100
0010
,
1000
0100
0010
0001
0010
0001
1000
0100
0010
0100
0010
0001
1000
0001
0010
0100
,
1000
0100
1000
0001
1000
0100
0010
0001
1000
0001
1000
0010
0100
0001
0010
0100
,
1000
0010
0100
0001
0100
0001
1000
0010
0100
0010
0100
0001
1000
0001
0100
0010
,
1000
0010
1000
0001
1000
0010
0100
0001
1000
0001
1000
0100
0010
0001
0100
0010
,
1000
0100
0010
0001
0010
0001
1000
0100
0010
0100
0010
0001
1000
0001
0010
0100
,
1000
0100
1000
0001
1000
0100
0010
0001
1000
0001
1000
0010
0100
0001
0010
0100
,
1000
0010
0100
0001
0100
0001
1000
0010
0100
0010
0100
0001
1000
0001
0100
0010
,
1000
0010
1000
0001
1000
0010
0100
0001
1000
0001
1000
0100
0010
0001
0100
0010
,
1000
0100
0010
0001
0010
0001
1000
0100
0010
0100
0010
0001
1000
0001
0010
0100
,
1000
0100
1000
0001
1000
0100
0010
0001
1000
0001
1000
0010
0100
0001
0010
0100
,
1000
0010
0100
0001
0100
0001
1000
0010
0100
0010
0100
0001
1000
0001
0100
0010
,
1000
0010
1000
0001
1000
0010
0100
0001
1000
0001
1000
0100
0010
0001
0100
0010
,
1000
0100
0010
0001
0010
0001
1000
0100
0010
0100
0010
0001
1000
0001
0010
0100
,
1000
0100
1000
0001
1000
0100
0010
0001
1000
0001
1000
0010
0100
0001
0010
0100
,
1000
0010
0100
0001
0100
0001
1000
0010
0100
0010
0100
0001
1000
0001
0100
0010
,
1000
0010
1000
0001
1000
0010
0100
0001
1000
0001
1000
0100
0010
0001
0100
0010
,
1000
0100
0010
0001
0010
0001
1000
0100
0010
0100
0010
0001
1000
0001
0010
0100
,
1000
0100
1000
0001
1000
0100
0010
0001
1000
0001
1000
0010
0100
0001
0010
0100
,
1000
0010
0100
0001
0100
0001
1000
0010
0100
0010
0100
0001
1000
0001
0100
0010
,
1000
0010
1000
0001
1000
0010
0100
0001
1000
0001
1000
0100
0010
0001
0100
0010
,
1000
0100
0010
0001
0010
0001
1000
0100
0010
0100
0010
0001
1000
0001
0010
0100
,
1000
0100
1000
0001
1000
0100
0010
0001
1000
0001
1000
0010
0100
0001
0010
0100
,
1000
0000
0002
0003
0000
0000
0000
0000
0002
0000
0003
0000
0000
0000
0000
0100
,
0010
1000
0100
0010
0001
0100
0010
1000
,
0001
0000
2000
3000
0000
0000
0000
0000
2000
0000
3000
0000
0000
0000
0000
0010
,
0100
0001
0010
0100
1000
0010
0100
0001
,
1000
0000
0002
0003
0000
0000
0000
0000
0002
0000
0003
0000
0000
0000
0000
0100
,
0010
1000
0100
0010
0001
0100
0010
1000
,
0001
0000
2000
3000
0000
0000
0000
0000
2000
0000
3000
0000
0000
0000
0000
0010
,
0100
0001
0010
0100
1000
0010
0100
0100
,
0001
0000
2000
3000
0000
0000
0000
0000
2000
0000
3000
0000
0000
0000
0000
0010
,
0100
0001
0010
0100
1000
0010
0100
0001
,
1000
0000
0002
0003
0000
0000
0000
0000
0002
0000
0003
0000
0000
0000
0000
0100
,
0010
1000
0100
0010
0001
0100
0010
1000
,
0001
0000
2000
3000
0000
0000
0000
0000
2000
0000
3000
0000
0000
0000
0000
0010
,
0100
0001
0010
0100
1000
0010
0100
0001
,
1000
0000
0002
0003
0000
0000
0000
0000
0002
0000
0003
0000
0000
0000
0000
0100
,
0010
0100
0001
0010
0100
1000
0010
0100
,
0001
0010
0100
1000
0001
0010
0100
1000
,
0001
0010
0100
1000
0001
0010
0100
1000
,
0010
0100
0001
1000
0010
0100
0001
1000
,
0010
0000
0100
0000
0001
0000
1000
0000
0010
0000
0010
1000
0001
0000
0010
0000
,
0001
1000
0100
0010
0001
1000
0100
0010
,
0001
1000
0100
0010
0001
1000
0100
0010
,
0001
0100
0010
1000
0001
0100
0010
1000
,
0001
0100
0010
1000
0001
0100
0010
1000
,
0200
0000
0000
0000
,
0000
0010
0000
1000
0010
0000
1000
1000
,
0020
0300
0000
0000
,
0000
0000
0000
0000
,
0200
0030
0000
0000
,
0000
0000
0000
0000
,
0000
0000
0000
0000
,
0000
0010
0010
0010
0010
0010
0010
0010
,
0301
1000
0100
1000
0100
0010
0001
1000
0100
1000
0100
0010
0001
0100
0010
1000
,
0001
0100
0010
0100
0010
1000
0001
0100
0010
0100
0010
1000
0001
0100
0010
1000
,
0100
0010
0001
0010
0001
1000
0100
0010
0001
0010
0001
1000
0100
0010
0001
0100
,
0010
1000
0001
0100
0010
1000
0001
0010
0100
1000
0010
0100
0001
1000
0100
0010
,
0001
0000
0001
0000
010M
0000
0001
0000
1000
0010
1000
0000
0001
0000
1000
0010
,
1000
0000
1000
0000
M100
0000
1000
0000
0001
0010
0001
0000
1000
0000
0001
0010
,
0001
0000
0001
0000
010M
0000
0001
0000
1000
0100
1000
0000
0001
0000
1000
0100
,
1000
0000
1000
0000
M100
0000
1000
0000
0001
0100
0010
0000
1000
0000
0001
0010
,
0001
1000
0010
1000
0010
0100
0001
1000
0010
1000
0010
0100
0001
0010
0100
1000
,
0001
0010
0100
0010
0100
1000
0001
0010
0100
0010
0100
1000
0001
0010
0100
1000
,
0010
0100
0001
0100
0001
1000
0010
0100
0001
0100
0001
1000
0010
0100
0001
0010
,
0100
1000
0001
0010
0100
1000
0001
0100
0010
1000
0100
0010
0001
1000
0010
0100
,
0001
0000
0001
0000
001M
0000
0001
0000
1000
0100
1000
0000
0001
0000
1000
0100
,
1000
0000
1000
0000
M010
0000
1000
0000
0001
0100
0001
0000
1000
0000
0001
0100
,
0001
0000
0001
0000
001M
0000
0001
0000
1000
0010
1000
0000
0001
0000
1000
0010
,
1000
0000
1000
0000
M101
0000
1000
0000
0001
0100
0001
0000
0100
0001
0010
0100
,
1000
0001
0010
0001
0010
0100
1000
0001
0010
0001
0010
0100
1000
0010
0100
0001
,
1000
0010
0100
0010
0100
0001
1000
0010
0100
0010
0100
0001
1000
0010
0100
0001
,
0010
0100
1000
0100
1000
0001
0010
0100
1000
0100
1000
0001
0010
0100
1000
0010
,
0100
0001
1000
0010
0100
0001
1000
0100
0010
0001
0100
0010
1000
0001
0010
0100
,
1000
0000
1000
0000
M010
0000
1000
0000
0001
0100
0001
0000
1000
0000
0001
0100
,
0001
0000
0001
0000
001M
0000
0001
0000
1000
0100
1000
0000
0001
0000
1000
0100
,
1000
0000
1000
0000
M010
0000
1000
0000
0001
0010
0001
0000
1000
0000
0001
0010
,
0001
0000
0001
0000
001M
0000
0001
0000
1000
0010
0100
0000
0001
0000
1000
0100
,
1000
0001
0100
0001
0100
0010
1000
0001
0100
0001
0100
0010
1000
0100
0010
0001
,
1000
0100
0010
0100
0010
0001
1000
0100
0010
0100
0010
0001
1000
0100
0010
0001
,
0100
0010
1000
0010
1000
0001
0100
0010
1000
0010
1000
0001
0100
0010
1000
0100
,
0010
0001
1000
0100
0010
0001
1000
0010
0100
0001
0010
0100
1000
0001
0100
0010
,
1000
0000
1000
0000
M100
0000
1000
0000
0001
0010
0001
0000
1000
0000
0001
0010
,
0001
0000
0001
0000
010M
0000
0001
0000
1000
0010
1000
0000
0001
0000
1000
0010
,
1000
0000
1000
0000
M100
0000
1000
0000
0001
0100
0001
0000
1000
0000
0001
0100
,
0001
0000
0000
0000
0000
0000
1000
0000
0001
0000
1000
0000
0001
0000
0000
0100
0000
0000
0000
0000
0000
0100
0000
0000
0001
0000
0000
0010
0000
0000
0100
0000
0000
0010
0000
0000
0001
0000
0000
0100
0000
0000
0001
0000
0000
1000
0000
0000
,
0001
0100
0010
1000
0100
0010
0100
1000
0010
0100
0010
1000
0001
0010
0100
1000
,
0001
0100
0010
0100
0001
0010
0100
0010
0001
0100
0010
0100
0001
1000
0100
0010
,
0001
0100
0010
1000
0100
0010
0100
1000
0010
0100
0010
1000
0001
0010
0100
1000
,
0001
0100
0010
0100
0010
1000
0100
0010
0100
0010
0001
0100
0010
1000
0100
0010
,
0001
0100
0001
0010
0100
0010
0001
1000
0100
0010
0001
1000
0010
0100
0001
1000
,
0001
0010
0001
0100
0010
0100
0001
1000
0010
0100
0001
1000
0100
0010
0001
1000
,
0001
0100
0001
0010
0100
0010
0001
1000
0100
0010
0001
1000
0010
0100
0001
1000
,
0001
0010
0001
0100
0010
0100
0001
1000
0001
0010
0100
1000
0001
0100
0010
1000
,
0001
0010
0100
0010
0001
0100
0010
0100
0001
0010
0100
0010
0001
1000
0010
0100
,
0001
0010
0100
1000
0010
0100
0010
1000
0100
0010
0100
1000
0001
0100
0010
1000
,
0001
0010
0001
0100
0010
0100
0001
1000
0010
0100
0001
1000
0100
0010
0001
1000
,
0001
0100
0001
0010
0100
0010
0001
1000
0100
0010
0001
1000
0010
0100
0001
1000
,
0001
0010
0001
0100
0001
0010
0100
1000
0010
0100
0001
1000
0100
0010
0001
1000
,
0001
0100
0001
0010
0001
0100
0010
1000
0100
0010
0001
1000
0010
0100
0001
1000
,
0001
0010
0001
0100
0001
0010
0100
1000
0010
0100
0001
1000
0100
0010
0001
1000
,
0001
0100
0001
0010
0100
0010
0001
1000
0001
0100
0010
1000
0001
0010
0100
1000
,
0001
0100
0010
1000
0100
0010
0100
1000
0010
0100
0010
1000
0001
0010
0100
1000
,
0001
0100
0010
0100
0001
0010
0100
0010
0001
0100
0010
0100
0001
1000
0100
0010
,
0001
0100
0010
1000
0100
0010
0100
1000
0010
0100
0010
1000
0001
0010
0100
1000
,
0001
0100
0010
0100
0010
1000
0100
0010
0100
0010
0001
0100
0010
1000
0100
0010
,
0001
0100
0001
0010
0100
0010
0001
1000
0100
0010
0001
1000
0010
0100
0001
1000
,
0001
0010
0001
0100
0010
0100
0001
1000
0010
0100
0001
1000
0100
0010
0001
1000
,
0001
0100
0001
0010
0100
0010
0001
1000
0100
0010
0001
1000
0010
0100
0001
1000
,
0001
0010
0001
0100
0010
0100
0001
1000
0001
0010
0100
1000
0001
0100
0010
1000
,
0001
0010
0100
0010
0001
0100
0010
0100
0001
0010
0100
0010
0001
1000
0010
0100
,
0001
0010
0100
1000
0010
0100
0010
1000
0100
0010
0100
1000
0001
0100
0010
1000
,
0001
0010
0001
0100
0010
0100
0001
1000
0010
0100
0001
1000
0100
0010
0001
1000
,
0001
0100
0001
0010
0100
0010
0001
1000
0100
0010
0001
1000
0010
0100
0001
1000
,
0001
0010
0001
0100
0001
0010
0100
1000
0010
0100
0001
1000
0100
0010
0001
1000
,
0001
0100
0001
0010
0001
0100
0010
1000
0100
0010
0001
1000
0010
0100
0001
1000
,
0001
0010
0001
0100
0001
0010
0100
1000
0010
0100
0001
1000
0100
0010
0001
1000
,
0001
0100
0001
0010
0100
0010
0001
1000
0001
0100
0010
1000
0001
0010
0100
1000
,
0001
0000
2000
3000
0000
0000
0000
0000
2000
0000
3000
0000
0000
0000
0000
0010
,
0100
0000
0001
0000
0010
0000
0100
0000
1000
0000
0010
0100
0010
0100
0010
1000
,
0001
0010
0100
1000
0100
1000
0001
0010
0100
0010
0100
1000
0001
1000
0100
0010
,
0001
0010
0001
1000
0001
0010
0100
1000
0001
1000
0001
0100
0010
1000
0100
0010
,
0001
0100
0010
1000
0010
1000
0001
0100
0010
0100
0010
1000
0001
1000
0010
0100
,
0001
0100
0001
1000
0001
0100
0010
1000
0001
1000
0001
0010
0100
1000
0010
0100
,
0001
0010
0100
1000
0100
1000
0001
0010
0100
0010
0100
1000
0001
1000
0100
0010
,
0001
0010
0001
1000
0001
0010
0100
1000
0001
1000
0001
0100
0010
1000
0100
0010
,
0001
0100
0010
1000
0010
1000
0001
0100
0010
0100
0010
1000
0001
1000
0010
0100
,
0001
0100
0001
1000
0001
0100
0010
1000
0001
1000
0001
0010
0100
1000
0010
0100
,
0001
0010
0100
1000
0100
1000
0001
0010
0100
0010
0100
1000
0001
1000
0100
0010
,
0001
0010
0001
1000
0001
0010
0100
1000
0001
1000
0001
0100
0010
1000
0100
0010
,
0001
0100
0010
1000
0010
1000
0001
0100
0010
0100
0010
1000
0001
1000
0010
0100
,
0001
0100
0001
1000
0001
0100
0010
1000
0001
1000
0001
0010
0100
1000
0010
0100
,
0001
0010
0100
1000
0100
1000
0001
0010
0100
0010
0100
1000
0001
1000
0100
0010
,
0001
0010
0001
1000
0001
0010
0100
1000
0001
1000
0001
0100
0010
1000
0100
0010
,
0001
0100
0010
1000
0010
1000
0001
0100
0010
0100
0010
1000
0001
1000
0010
0100
,
0001
0100
0001
1000
0001
0100
0010
1000
0001
1000
0001
0010
0100
1000
0010
0100
,
0001
0010
0100
1000
0100
1000
0001
0010
0100
0010
0100
1000
0001
1000
0100
0010
,
0001
0010
0001
1000
0001
0010
0100
1000
0001
1000
0001
0100
0010
1000
0100
0010
,
0001
0100
0010
1000
0010
1000
0001
0100
0010
0100
0010
1000
0001
1000
0010
0100
,
0001
0100
0001
1000
0001
0100
0010
1000
0001
1000
0001
0010
0100
1000
0010
0100
,
0001
0010
0100
1000
0100
1000
0001
0010
0100
0010
0100
1000
0001
1000
0100
0010
,
0001
0010
0001
1000
0001
0010
0100
1000
0001
1000
0001
0100
0010
1000
0100
0010
,
0001
0100
0010
1000
0010
1000
0001
0100
0010
0100
0010
1000
0001
1000
0010
0100
,
0001
0100
0001
1000
0001
0100
0010
1000
0001
1000
0001
0010
0100
1000
0010
0100
,
0001
0010
0100
1000
0100
1000
0001
0010
0100
0010
0100
1000
0001
1000
0100
0010
,
0001
0010
0001
1000
0001
0010
0100
1000
0001
1000
0001
0100
0010
1000
0100
0010
,
0001
0100
0010
1000
0010
1000
0001
0100
0010
0100
0010
1000
0001
1000
0010
0100
,
0001
0100
0001
1000
0001
0100
0010
1000
0001
1000
0001
0010
0100
1000
0010
0100
,
0001
0010
0100
1000
0100
1000
0001
0010
0100
0010
0100
1000
0001
1000
0100
0010
,
0001
0010
0001
1000
0001
0010
0100
1000
0001
1000
0001
0100
0010
1000
0100
0010
,
0001
0000
0100
0000
0010
0000
1000
0000
0010
0000
1000
0000
0002
0003
0100
0000
0020
0030
1000
0000
0002
0003
0010
0000
0200
0300
1000
0000
0010
0000
0100
0000
,
0001
0100
0001
1000
0001
0100
0010
1000
0001
1000
0001
0010
0100
1000
0010
0100
,
0001
0000
0010
0000
0100
0000
1000
0000
0100
0000
1000
0000
0002
0003
0100
0000
0020
0030
1000
0000
0002
0003
0010
0000
0200
0300
1000
0000
0002
0003
0010
0000
,
0001
0000
1000
0000
0200
0300
1000
0000
0001
0000
0010
0000
0100
0000
1000
0000
0001
0000
1000
0000
0001
0000
0100
0000
0010
0000
1000
0000
0100
0000
0010
0000
,
0001
0000
0100
0000
0010
0000
1000
0000
0010
0000
1000
0000
0002
0003
0010
0000
0200
0300
1000
0000
0002
0003
0100
0000
0020
0030
1000
0000
0100
0000
0010
0000
,
0001
0010
0001
1000
0001
0010
0100
1000
0001
1000
0001
0100
0010
1000
0100
0010
,
0001
0000
0100
0000
0010
0000
1000
0000
0010
0000
1000
0000
0002
0003
0010
0000
0200
0300
1000
0000
0002
0003
0100
0000
0020
0030
1000
0000
0002
0003
0100
0000
,
0001
0000
1000
0000
0020
0030
1000
0000
0002
0003
0100
0000
0010
0000
1000
0000
0001
0000
1000
0000
0002
0003
0020
0030
0200
0300
0020
0030
0002
0003
2000
3000
,
0100
0000
0010
0000
0100
0000
1000
0000
0100
0000
1000
0000
0002
0003
0010
0000
0200
0300
1000
0000
0002
0003
0100
0000
0020
0030
1000
0000
0100
0000
0010
0000
,
0001
0010
0001
1000
0001
0010
0100
1000
0001
1000
0001
0100
0010
1000
0100
0010
,
0001
0000
0100
0000
0010
0000
1000
0000
0100
0000
1000
0000
0002
0003
0010
0000
0200
0300
1000
0000
0002
0003
0100
0000
0020
0030
1000
0000
0002
0003
0100
0000
,
0001
0000
1000
0000
0020
0030
1000
0000
0001
0000
0100
0000
0010
0000
1000
0000
0001
0000
1000
0000
0001
0000
0010
0000
0100
0000
1000
0000
0010
0000
0100
0000
,
0001
0000
0010
0000
0100
0000
1000
0000
0100
0000
1000
0000
0002
0003
0100
0000
0020
0030
1000
0000
0002
0003
0010
0000
0200
0300
1000
0000
0010
0000
0100
0000
,
0001
0100
0001
1000
0001
0100
0010
1000
0001
1000
0001
0010
0100
1000
0010
0100
,
0001
0000
0010
0000
0100
0000
1000
0000
0100
0000
1000
0000
0002
0003
0100
0000
0020
0030
1000
0000
0002
0003
0010
0000
0200
0300
1000
0000
0002
0003
0010
0000
,
0001
0000
1000
0000
0200
0300
1000
0000
0002
0003
0010
0000
0100
0000
1000
0000
0001
0000
1000
0000
0002
0003
0200
0300
0020
0030
0200
0300
0002
0003
2000
3000
,
0010
0000
0100
0000
0010
0000
1000
0000
0010
0000
1000
0000
0002
0003
0100
0000
0020
0030
1000
0000
0002
0003
0010
0000
0200
0300
1000
0000
0010
0000
0100
0000
,
0001
0100
0001
1000
0001
0100
0010
1000
0001
1000
0001
0010
0100
1000
0010
0100
,
0001
0000
0010
0000
0100
0000
1000
0000
0100
0000
1000
0000
0002
0003
0100
0000
0020
0030
1000
0000
0002
0003
0010
0000
0200
0300
1000
0000
0002
0003
0010
0000
,
0001
0000
1000
0000
0200
0300
1000
0000
0001
0000
0010
0000
0100
0000
1000
0000
0001
0000
1000
0000
0001
0000
0100
0000
0010
0000
1000
0000
0100
0000
0010
0000
,
0001
0000
0100
0000
0010
0000
1000
0000
0010
0000
1000
0000
0002
0003
0010
0000
0200
0300
1000
0000
0002
0003
0100
0000
0020
0030
1000
0000
0100
0000
0010
0000
,
0001
0010
0001
1000
0001
0010
0100
1000
0001
1000
0001
0100
0010
1000
0100
0010
,
0001
0000
0100
0000
0010
0000
1000
0000
0010
0000
1000
0000
0002
0003
0010
0000
0200
0300
1000
0000
0002
0003
0100
0000
0020
0030
1000
0000
0002
0003
0100
0000
,
0001
0000
1000
0000
0020
0030
1000
0000
0002
0003
0100
0000
0010
0000
1000
0000
0001
0000
1000
0000
0002
0003
0020
0030
0200
0300
0020
0030
0002
0003
2000
3000
,
0100
0000
0010
0000
0100
0000
1000
0000
0100
0000
1000
0000
0002
0003
0010
0000
0200
0300
1000
0000
0002
0003
0100
0000
0020
0030
1000
0000
0100
0000
0010
0000
,
0001
0010
0001
1000
0001
0010
0100
1000
0001
1000
0001
0100
0010
1000
0100
0010
,
0001
0000
0100
0000
0010
0000
1000
0000
0100
0000
1000
0000
0002
0003
0010
0000
0200
0300
1000
0000
0002
0003
0100
0000
0020
0030
1000
0000
0002
0003
0100
0000
,
0001
0000
1000
0000
0020
0030
1000
0000
0001
0000
0100
0000
0010
0000
1000
0000
0001
0000
1000
0000
0001
0000
0010
0000
0100
0000
1000
0000
0010
0000
0100
0000
,
0001
0000
0010
0000
0100
0000
1000
0000
0100
0000
1000
0000
0002
0003
0100
0000
0020
0030
1000
0000
0002
0003
0010
0000
0200
0300
1000
0000
0010
0000
0100
0000
,
0001
0100
0001
1000
0001
0100
0010
1000
0001
1000
0001
0010
0100
1000
0010
0100
,
0001
0000
0010
0000
0100
0000
1000
0000
0100
0000
1000
0000
0002
0003
0100
0000
0020
0030
1000
0000
0002
0003
0010
0000
0200
0300
1000
0000
0002
0003
0010
0000
,
0001
0000
1000
0000
0200
0300
1000
0000
0002
0003
0010
0000
0100
0000
1000
0000
0002
0003
0200
0300
0020
0030
0200
0300
0002
0003
0200
0300
0020
0030
0200
0300
,
0001
0000
2000
3000
0000
0000
0000
0000
2000
0000
3000
0000
0000
0000
0000
0010
,
0100
0001
0010
0100
1000
0010
0100
0001
,
1000
0000
0002
0003
0000
0000
0000
0000
0002
0000
0003
0000
0000
0000
0000
0100
,
0010
1000
0100
0010
0001
0100
0010
1000
,
0001
0000
2000
3000
0000
0000
0000
0000
2000
0000
3000
0000
0000
0000
0000
0010
,
0100
0001
0010
0100
1000
0010
0100
0001
,
1000
0000
0002
0003
0000
0000
0000
0000
0002
0000
0003
0000
0000
0000
0000
0100
,
0010
0000
0000
0000
1000
0000
0000
0000
0100
0000
0000
0000
0010
0000
0000
0000
0001
0000
0000
0000
2000
3000
0200
0300
0020
0030
0200
0300
2000
3000
0002
0003
,
0010
0000
0002
0003
0000
0000
0000
0000
0002
0000
0003
0000
0000
0000
0000
0100
,
0010
1000
0100
0010
0001
0100
0010
1000
,
0001
0000
2000
3000
0000
0000
0000
0000
2000
0000
3000
0000
0000
0000
0000
0010
,
0100
0001
0010
0100
1000
0010
0100
0001
,
1000
0000
0002
0003
0000
0000
0000
0000
0002
0000
0003
0000
0000
0000
0000
0100
,
0010
1000
0100
0010
0001
0100
0010
1000
,
0001
0000
2000
3000
0000
0000
0000
0000
2000
0000
3000
0000
0000
0000
0000
0010
,
0100
0000
0000
0000
0001
0000
0000
0000
0010
0000
0000
0000
0100
0000
0000
0000
1000
0000
0000
0000
0002
0003
0020
0030
0200
0300
0020
0030
0002
0003
2000
3000
,
0020
0000
0000
0000
,
0000
0000
0000
0000
,
0230
0000
0000
0000
,
0000
0000
0000
0000
,
0320
0000
0000
0000
,
0000
0000
0000
0000
,
0230
0000
0000
0000
,
0000
0000
0000
0000
,
0320
0000
0000
0000
,
0000
0000
0000
0000
,
0230
0000
0000
0000
,
0000
0000
0000
0000
,
0320
0000
0000
0000
,
0000
0000
0000
0030
,
M0MM
0000
0000
0000
;
