#TITLE:Hatebreeder;
#SUBTITLE:Hatebreeder (1999);
#ARTIST:Children Of Bodom;
#TITLETRANSLIT:;
#SUBTITLETRANSLIT:;
#ARTISTTRANSLIT:;
#CREDIT:;
#BANNER:Hatebreeder-banner.png;
#BACKGROUND:hatebreeder-bg.PNG;
#LYRICSPATH:;
#CDTITLE:cdtitle.png;
#MUSIC:Hatebreeder.mp3;
#OFFSET:0.760;
#SAMPLESTART:27.778;
#SAMPLELENGTH:12.000;
#SELECTABLE:YES;
#BPMS:0.000=224.040,457.000=220.100,537.000=219.900,673.000=224.020;
#STOPS:160.000=0.803
,681.000=1.340
;
#BGCHANGES:;
// cache tags:
#FIRSTBEAT:4.000;
#LASTBEAT:946.000;
#SONGFILENAME:Songs/Astronomic Metal Collection 2/(Patashu) Hatebreeder/Hatebreeder.sm;
#HASMUSIC:1;
#HASBANNER:1;
#MUSICLENGTH:262.901;
// end cache tags

//---------------dance-single - ----------------
#NOTES:
     dance-single:
     :
     Hard:
     13:
     1.000,1.000,1.000,1.000,1.000,1893.000,609.000,307.000,4.000,289.000:
0000
0000
0000
0000
,
0010
0000
0000
0001
0100
0001
1000
0000
0000
0100
0010
0100
,
0001
0000
0000
1000
0001
1000
0110
0000
0011
0000
0101
0000
,
1100
0000
0000
0010
0100
0010
0001
0000
0000
0100
0010
0100
,
1000
0000
0000
1000
0010
1000
0111
0000
0111
0000
0111
0000
,
1110
0000
0000
0001
0010
0100
1000
0000
0000
0100
0010
0001
,
1000
0000
0000
0010
0100
0001
1010
0000
1100
0000
0011
0000
,
1001
0000
0000
0100
0001
1000
0010
0000
0000
0100
0010
0100
,
1001
1010
1100
MMMM
,
1101
0010
0100
0010
0100
1000
0011
0100
0010
1000
0010
0100
,
0011
1000
0100
0010
0001
0010
1001
0100
0011
1000
0101
1000
,
0011
0100
0010
0001
0100
0010
1001
0100
1000
0001
0010
0100
,
1001
0000
0000
0000
0010
0000
0000
0000
0001
0000
0000
0000
1010
0000
0000
0000
0001
0000
0000
0000
0010
0000
0000
0000
1001
0000
0000
0000
0010
0000
0000
0000
0001
0000
0000
0000
1210
0000
0000
0300
0001
0000
0000
0000
0010
0000
0000
0000
,
1201
0000
0000
0300
0010
0000
0000
0000
0100
0000
0000
0000
0001
0000
0000
0000
0100
0000
0000
0000
0001
0000
0000
0000
1010
0000
0000
0000
0100
0000
0000
0000
1000
0000
0000
0000
0010
0000
0000
0000
0100
0000
0000
0000
0010
0000
0000
0000
,
1100
0001
0010
0100
0010
0001
1010
0100
0011
0100
1001
0100
,
1010
0000
0000
0000
0100
0000
0000
0000
0010
0000
0000
0000
0101
0000
0000
0000
0010
0000
0000
0000
0001
0000
0000
0000
1010
0000
0000
0000
0100
0000
0000
0000
0000
0010
0000
0000
0100
0000
0000
0010
0000
0000
1000
0000
0000
0100
0000
0000
,
0010
0001
0010
0100
1000
0010
0100
0010
2002
0000
0000
0000
0000
0000
3003
0000
,
1101
0010
0100
0010
0100
1000
0011
0100
0010
1000
0100
0010
,
1100
0010
0001
0010
0100
1000
0011
0100
1001
0100
0011
1000
,
0101
0010
0001
0100
0010
1000
0101
0010
0001
0010
0100
0010
,
1001
0000
0000
0000
0100
0000
0000
0000
1000
0000
0000
0000
0101
0000
0000
0000
1000
0000
0000
0000
0100
0000
0000
0000
1001
0000
0000
0000
0100
0000
0000
0000
1000
0000
0000
0000
0121
0000
0000
0030
1000
0000
0000
0000
0100
0000
0000
0000
,
1021
0000
0000
0030
0100
0000
0000
0000
0001
0000
0000
0000
0010
0000
0000
0000
0100
0000
0000
0000
1000
0000
0000
0000
0011
0000
0000
0000
1000
0000
0000
0000
0100
0000
0000
0000
0001
0000
0000
0000
0010
0000
0000
0000
0001
0000
0000
0000
,
1100
0010
1000
0010
0100
0001
1010
0100
1001
0100
1010
0001
,
0110
0000
0000
0000
1000
0000
0000
0000
0100
0000
0000
0000
1010
0000
0000
0000
0100
0000
0000
0000
0010
0000
0000
0000
0101
0000
0000
0000
0010
0000
0000
0000
0000
0001
0000
0000
0010
0000
0000
0100
0000
0000
1000
0000
0000
0010
0000
0000
,
1000
0100
0010
0001
0100
0001
0010
0100
2002
0000
0000
0000
0110
0000
3003
0000
,
1001
0100
1010
0101
1000
0011
1100
0010
,
1001
1010
0101
1010
0001
1100
1011
0100
,
1011
0100
0010
1100
0010
0100
0021
0000
0000
1230
0000
0000
,
1301
0010
0100
1010
0100
0001
1020
0000
0000
1231
0000
0000
,
1311
0100
1010
0101
1000
0011
1100
0001
,
0110
0000
0000
0101
0000
0000
1010
0000
0000
0100
0000
0000
1001
0000
0000
0010
1000
0000
0100
0000
1000
0010
0000
0000
,
1002
0113
1001
0110
1001
0110
1001
0110
,
1110
0000
0000
0000
0000
0000
0111
0000
0000
0000
0000
1011
0000
0000
0000
0000
1101
0000
0000
0000
0000
0000
0000
0000
0000
0000
0000
0000
0000
0000
0000
0000
,
0201
0001
1321
1001
,
1230
1000
1312
1010
,
2013
0000
0000
0010
0000
0001
3211
0000
0000
0011
0000
0000
,
1302
0000
0000
0000
1100
0000
0000
0000
1123
0000
0000
0000
1201
0300
0000
0000
,
2231
3000
0000
0000
0001
0000
0000
0000
1321
0000
0000
0000
1001
0000
0000
0000
,
1230
0000
0000
1000
0000
0010
1312
0000
0000
1010
0000
0000
,
2113
0101
3211
0001
,
1311
0000
0000
0000
0020
0000
0000
0101
0000
0101
0030
1100
0000
1100
0000
0110
,
0000
0110
0000
0011
0000
0011
0000
0101
0000
0101
0000
1001
0000
1001
0000
0011
,
0000
0011
0000
1100
0000
1100
0000
0110
0000
0110
0000
1010
0000
1010
0000
0101
,
0000
0101
0000
0000
1021
0030
0000
0000
1201
0300
0000
0000
1021
0130
0010
0001
,
1000
0010
0100
0001
1200
0000
0000
1001
0000
1001
0300
0011
0000
0011
0000
0101
,
0000
0101
0000
1010
0000
1010
0000
0110
0000
0110
0000
1001
0000
1001
0000
1100
,
0000
1100
0000
0110
0000
0110
0000
0011
0000
0011
0000
1100
0000
1100
0000
0000
,
0000
0000
0000
0000
1001
0100
1001
0010
0100
1000
0010
0100
0001
0010
0100
1000
,
0100
0010
0001
0100
2010
0000
0000
0000
0011
0000
0100
0000
3020
0000
1000
0000
,
0101
0000
1230
0001
0000
0010
1302
0100
,
0010
1000
0123
0000
1100
0001
0000
0100
,
1001
0000
0000
0000
0100
0000
0000
0000
1100
0000
0000
0000
0001
0000
0100
1000
,
0031
0000
2100
0000
0110
0001
3020
0001
,
1100
0000
0231
0010
0000
0001
2320
0100
,
0001
0000
3232
0000
0010
1000
0000
1000
,
0313
0000
0100
0000
1001
0100
0010
1000
0010
0100
0001
1000
0100
0010
0001
0100
,
0010
1000
0001
0100
2010
0000
0000
0000
0011
0000
0100
0000
3020
0000
1000
0000
,
0101
0000
1230
0001
0000
0010
1302
0100
,
0010
1000
0123
0000
1100
0001
0000
0100
,
1001
0000
0000
0000
0100
0000
0000
0000
1100
0000
0000
0000
0001
0000
0100
1000
,
0031
0000
2100
0000
0110
0001
3020
0001
,
1100
0000
0231
0010
0000
0001
2320
0100
,
0001
0000
3232
0000
0010
1000
0000
1000
,
0313
0000
0111
1000
1101
0010
1101
0100
,
1011
0000
0000
0001
0000
0000
1010
0000
0001
0000
0100
0000
0010
0000
0100
0000
1000
0000
0011
0000
0100
0000
0010
0000
,
1000
0010
0100
0011
1000
0100
0010
0001
0010
1001
0100
0011
,
1000
0101
1000
0011
0100
0010
0001
0100
0010
1001
0100
1000
,
0001
0010
0100
1001
0010
0001
1010
0001
0010
1001
0010
0001
,
1210
0000
0000
0300
0001
0000
0000
0000
0010
0000
0000
0000
1201
0000
0000
0300
0010
0000
0000
0000
0100
0000
0000
0000
0001
0000
0000
0000
0100
0000
0000
0000
0001
0000
0000
0000
1010
0000
0000
0000
0100
0000
0000
0000
1000
0000
0000
0000
,
0010
0100
0010
1100
0001
0010
0100
0010
0001
1010
0100
0011
,
0100
0000
0000
0000
1001
0000
0000
0000
0100
0000
0000
0000
1010
0000
0000
0000
0100
0000
0000
0000
0010
0000
0000
0000
0101
0000
0000
0000
0010
0000
0000
0000
0001
0000
0000
0000
1010
0000
0000
0000
0100
0000
0000
0000
0000
0010
0000
0000
,
0100
0010
1000
0100
0010
0001
0010
0100
1000
0010
0100
0010
2002
0000
0000
0000
,
0000
0000
0000
3003
0000
0000
1101
0000
0010
0000
0100
0000
0010
0000
0100
0000
1000
0000
0011
0000
0100
0000
0010
0000
,
1000
0100
0010
1100
0010
0001
0010
0100
1000
0011
0100
1001
,
0100
0011
1000
0101
0010
0001
0100
0010
1000
0101
0010
0001
,
0010
0100
0010
1001
0100
1000
0101
1000
0100
1001
0100
1000
,
0121
0000
0000
0030
1000
0000
0000
0000
0100
0000
0000
0000
1021
0000
0000
0030
0100
0000
0000
0000
0001
0000
0000
0000
0010
0000
0000
0000
0100
0000
0000
0000
1000
0000
0000
0000
0011
0000
0000
0000
1000
0000
0000
0000
0100
0000
0000
0000
,
0001
0010
0001
1100
0010
1000
0010
0100
0001
1010
0100
1001
,
0100
1010
0100
1001
0010
0100
1010
0100
0010
1001
0100
0010
,
1100
0010
0100
1001
0010
0100
1010
0100
1000
0101
0010
0100
,
1010
0001
0010
1001
0100
0010
0001
0100
0001
1010
0100
1000
,
0010
1000
0100
1001
0010
0100
1011
0100
0010
1102
0000
0000
,
0003
0000
0000
0201
0000
0000
0001
0000
1000
1321
0000
0000
,
1001
1230
1000
1312
,
1010
0000
0000
2013
0000
0000
0010
0000
0001
3211
0000
0000
,
0011
0000
0000
1302
0000
0000
1100
0000
0000
1013
0000
0100
,
1021
0000
0000
0030
0100
0000
0000
0000
0010
0000
0000
0000
2201
0000
0000
3000
0000
0000
0000
0000
0000
0000
0000
0000
0001
0000
0000
0000
0000
0000
0000
0000
1000
0000
0000
0000
1321
0000
0000
0000
0000
0000
0000
0000
0000
0000
0000
0000
,
0101
0000
1231
0000
1000
0000
1312
0100
,
0010
0100
2013
0000
0010
0000
3201
0000
,
0001
0000
0000
0301
0010
0100
1000
0010
0100
0001
0010
0100
,
1000
0000
0010
0000
0100
0000
1010
0000
0000
0010
0000
0000
0010
0000
0000
0010
0000
0000
1110
0000
0000
0000
0000
0000
,
0000
0000
1000
0010
0010
0010
1120
0000
,
0032
0000
1013
0010
0010
0010
1110
0000
,
0000
1000
1000
0000
0000
0000
1101
0000
,
0000
0000
1011
0100
0100
0100
1110
0000
,
0000
0000
1000
0010
0010
0010
1120
0000
,
0032
0000
0000
0000
1103
0000
0001
0010
0100
0000
0011
0000
1000
0100
0010
0000
,
0001
0000
0010
0100
1000
0000
0100
0000
0010
0000
0001
0000
0010
0000
0100
0000
,
1001
2202
3303
0100
0110
0100
1100
0100
,
0101
2022
3033
0010
0110
0010
0011
0010
,
1010
0222
0333
0001
1001
0001
0101
0001
,
0011
2220
3330
1000
1001
1000
1100
1000
,
1010
2202
3303
0010
0110
0010
1010
0010
,
0011
2022
3033
0100
0110
2202
3303
1000
,
1100
0222
0333
0001
1001
0001
0101
0001
,
1001
0000
0001
0000
1101
0000
0010
0100
0010
0000
1000
0000
0001
0000
0100
0000
,
0011
2202
3303
0010
0110
0000
0100
0011
,
0110
2022
3033
1000
1010
0000
0001
0101
,
1010
0222
0333
0010
0110
0000
0010
1001
,
0110
2220
3330
0001
1001
0001
1001
0001
,
1001
2202
3303
0010
0110
0000
0100
1100
,
0011
2022
3033
0100
1100
0222
0333
0010
,
0110
2202
3303
0001
1001
0010
0010
0100
,
0100
1000
2000
0000
0000
0000
0000
0000
,
3000
0000
1011
0000
0100
0010
0010
0000
,
1000
0100
0100
0000
0001
1000
1000
0000
,
1000
0100
0100
0000
0010
0001
0001
0000
,
1000
0000
0000
1000
0000
0000
1100
0000
0000
0000
0110
0000
0000
0000
0011
0000
0000
0000
0110
0000
0000
0000
1100
0000
,
0000
0000
0110
0000
0000
0000
1001
0000
0000
0000
0000
0000
1001
0000
0000
1000
0000
0000
1001
0000
0000
1000
0000
0000
,
1001
1000
1001
1000
1001
1000
1001
1000
,
1001
1000
1001
1000
1001
1000
1001
1000
,
1001
0000
0000
1000
0000
0000
1100
0000
0000
0000
0110
0000
0000
0000
0011
0000
0000
0000
0110
0000
0000
0000
1100
0000
,
0000
0000
0110
0000
0000
0000
1001
0000
0000
0000
0000
0000
0010
0000
0000
0010
0000
0000
0010
0000
0000
0010
0000
0000
,
0110
0110
0110
0110
0110
0110
0110
0110
,
1110
1110
1110
1110
1111
1111
1111
1111
,
1111
1111
0102
1003
0201
0310
1002
0103
,
2010
0000
3100
0000
1002
0000
0000
0000
1100
0000
0023
0030
0020
0000
0000
0000
,
1001
0000
0230
0300
0200
0000
0000
0000
0011
0000
2300
3000
2000
0000
0000
0000
,
0011
0000
3200
0300
0200
0000
0000
0000
1010
0000
0302
0003
0002
0000
0000
0000
,
1100
0000
0023
0030
0001
0000
1000
0000
0101
0000
0010
0000
0001
0000
0100
0000
,
1021
0030
0100
0000
1022
0030
0000
0000
1100
0000
0023
0030
0020
0000
0000
0000
,
1001
0000
0230
0300
0200
0000
0000
0000
0011
0000
2300
3000
2000
0000
0000
0000
,
0011
0000
3200
0300
0200
0000
0000
0000
1010
0000
0302
0003
0002
0000
0000
0000
,
1100
0000
0023
0030
1001
0100
0010
1000
0001
0100
0010
1000
0010
0100
0001
1000
,
0010
0100
0001
1000
0012
0000
0000
0000
1100
0000
0023
0030
0120
0000
0000
0000
,
1001
0000
0230
0300
1200
0000
0000
0000
0011
0000
2300
3000
2010
0000
0000
0000
,
0011
0000
3200
0300
0201
0000
0000
0000
1010
0000
0302
0003
1002
0000
0000
0000
,
1100
0000
0023
0030
0001
0000
1000
0000
0101
0000
0010
0000
0001
0000
0100
0000
,
1021
0030
0100
0000
1022
0030
0000
0000
1100
0000
0023
0030
0120
0000
0000
0000
,
1001
0000
0230
0300
1200
0000
0000
0000
0011
0000
2300
3000
2010
0000
0000
0000
,
0011
0000
3200
0300
0201
0000
0000
0000
1010
0000
0302
0003
1002
0000
0000
0000
,
1100
0000
0023
0030
1020
0000
0100
0000
0001
0000
0100
0000
0231
0000
1000
0000
,
0001
0010
1302
0100
0010
0100
2013
0100
,
0010
0100
3021
0000
0000
0000
0000
0000
,
0000
0000
0000
0031
0010
0100
1000
0010
0100
0001
0010
0100
,
1000
0000
0010
0000
0100
0000
1020
0000
0000
0100
0000
0000
0001
0000
0000
0100
0000
0000
0231
0000
0000
1000
0000
0000
,
0001
0010
1302
0100
0010
0100
2013
0100
,
0010
0100
3012
0000
0010
0000
0010
0000
,
0203
0000
0000
0301
0100
0010
1000
0001
0100
1011
0000
0000
,
1011
0000
0000
0010
1000
0010
1100
0010
1000
0001
0100
0001
,
0110
0001
0100
0010
0100
0010
0101
0010
0100
1000
0100
1000
,
0110
1000
0100
1010
0001
0010
0100
1000
0100
1010
0001
0010
,
0100
1000
0100
1010
0001
0010
0100
1000
0100
0021
0000
0000
,
0000
0000
0000
0030
0000
0000
0111
0000
1000
0000
0001
0000
1100
0000
0001
0000
1000
0000
0010
0000
0100
0000
0010
0000
,
1100
0010
0100
0001
0010
0001
0110
0001
0010
0100
1000
0100
,
1001
0100
0010
1111
0000
0000
1111
0000
0000
1111
0000
0000
,
1111
1111
1111
1111
,
0111
0000
1110
0100
0010
0100
0001
0010
,
0100
0000
0000
0000
0000
0000
0010
0000
0000
0000
0000
0000
1000
0000
0000
0000
0000
0000
0000
1110
0000
0000
0000
0000
1101
0000
0000
0000
0000
0000
1110
0000
0000
0000
0000
0000
1101
0000
0000
0000
0000
0000
1110
0000
0000
0000
0000
0000
,
1101
0000
0000
0000
0000
0000
0000
0000
1110
0000
0000
0000
0000
0000
0000
0000
1101
0000
0000
0000
0000
0000
0000
0000
0000
1000
0000
0000
0000
0000
0000
0000
0100
0000
0000
0000
0000
0000
0000
0000
0010
0000
0000
0000
0000
0000
0000
0000
0001
0000
0000
0000
0000
0000
0000
0000
0100
0000
0000
0000
0000
0000
0000
0000
,
0010
0000
0000
0000
0000
0000
0000
0000
1000
0000
0000
0000
0000
0000
0000
0000
0100
0000
0000
0000
0000
0000
0000
0000
0000
0000
0111
0000
0000
0000
0000
0000
0000
1011
0000
0000
0000
0000
0000
0000
0111
0000
0000
0000
0000
0000
0000
0000
1011
0000
0000
0000
0000
0000
0000
0000
0111
0000
0000
0000
0000
0000
0000
0000
,
1011
0111
1011
1000
0100
0010
0111
1000
,
1101
0100
1011
1000
0111
0100
1110
0001
,
1110
0001
1011
0100
1011
0010
1101
0001
,
1110
2011
0000
3200
,
0000
0320
0032
1213
,
2300
3121
0000
2030
,
0000
3002
0000
0113
,
1110
0000
0000
0111
0000
0000
0001
0100
0001
1000
0000
0000
,
0100
0010
0100
0001
0000
0000
1000
0001
1000
0110
0000
0011
,
0000
0101
0000
1100
0000
0000
1010
0000
0000
0101
0000
0000
,
2000
0100
0011
0100
3020
0001
1100
0001
,
0230
1000
0011
1000
0302
0100
1010
0100
,
0023
1000
0101
1000
0100
0001
1100
0001
,
0100
0000
1000
0000
0101
0000
1000
0000
0100
0000
0001
1000
0130
0000
0010
0000
,
2000
0001
0110
0001
3020
1000
0101
1000
,
0230
0001
1010
0001
2320
0000
0001
0000
,
3232
1000
0000
1303
,
1001
0010
0100
1000
0100
0010
0001
1000
0100
0010
0001
0010
0100
1000
0001
0010
,
2000
0100
0011
0100
3020
0001
1100
0001
,
0230
1000
0011
1000
0302
0100
1010
0100
,
0023
1000
0101
1000
0100
0001
1100
0001
,
0100
1000
1101
0000
0100
0001
1131
0000
,
2000
0001
0110
0001
3020
1000
0101
1000
,
0230
0001
1010
0001
2300
0100
0011
3100
,
1010
0010
0010
0010
1110
0000
0000
1010
,
1011
0000
0000
0000
0000
0000
0000
2202
,
3303
0100
0110
0100
1100
0100
0101
2022
,
3033
0010
0110
0010
0011
0010
1010
0222
,
0333
0001
1001
0001
0101
0001
0011
2220
,
3330
1000
1001
1000
1100
1000
1010
2202
,
3303
0010
0110
0010
1010
0010
0011
2022
,
3033
0100
0110
2202
3303
1000
1100
0222
,
0333
0001
1001
0001
0101
0001
1001
0001
,
1101
0000
0010
0100
0010
0000
1000
0000
0001
0000
0100
0000
0011
0000
2202
0000
,
3303
0010
0110
0000
0100
0011
0110
2022
,
3033
1000
1010
0000
0001
0101
1010
0222
,
0333
0010
0110
0000
0010
1001
0110
2220
,
3330
0000
0001
0000
1001
0000
0001
0000
1001
0100
0001
0010
1001
0000
2202
0000
,
3303
0010
0110
0000
0100
1100
0011
2022
,
3033
0100
1100
0222
0333
0010
0110
2202
,
3303
0001
1001
0010
0010
0100
0110
1000
,
1001
0000
0010
0100
1000
0000
0100
0000
0010
0000
0001
0000
0010
0000
2202
0000
,
3303
1000
0010
0100
0001
0010
0100
2022
,
3033
0100
0010
0100
0001
0010
0001
2220
,
3330
0100
0001
1000
0001
0010
0001
0111
,
0010
1000
0100
0200
0000
1300
0010
0222
,
0333
0000
0010
0001
0010
0100
1000
0010
0100
0001
0100
0010
,
1000
0001
0010
0100
1000
0010
0100
0001
0100
0010
1000
0100
,
1000
0100
0010
1000
0100
0010
1000
0100
,
0110
0000
0000
0011
0000
0000
1001
0000
0000
1001
0000
0000
0000
0000
0020
0000
,
0000
0000
0000
0000
0030
0000
0000
0000
0001
0000
0010
0000
0100
1000
0010
0000
,
0000
0000
0000
0000
0000
0000
0000
0000
0000
0000
0000
0000
1000
0000
0002
0000
0000
0000
0000
0000
0000
0000
0000
0000
1003
0000
0000
0000
0000
0000
0100
0000
0000
0010
0000
0000
0001
0000
0000
1000
0000
0000
0010
0000
0200
0000
0000
0000
,
0000
0000
0000
0000
0000
0000
0000
0000
0000
0000
0000
0000
0000
0000
0000
0000
0000
0000
0000
0000
0000
0000
0000
0000
0000
0000
0000
0000
0000
0000
0000
0000
0000
0000
0000
0000
0000
0000
0000
0000
0000
0000
0000
0000
0000
0000
0000
0000
0310
0000
0000
0000
0000
0000
0000
0000
0000
0000
0000
0000
0000
0000
0000
0000
0000
0000
0100
0000
0000
0000
0000
0000
0000
0000
0000
0000
0000
0000
0000
0000
0000
0000
0000
0000
1000
0000
0000
0000
0000
0000
0000
0000
0000
0000
0000
0000
0000
0000
0000
0000
0000
0000
0000
0000
0000
0000
0000
0000
0100
0000
0000
0000
0000
0000
0000
0000
0000
0000
0000
0000
0001
0000
0000
0000
0000
0000
0000
0000
0000
0000
0000
0000
0000
0000
0000
0000
0010
0000
0000
0000
0000
0000
0000
0000
1000
0000
0000
0000
0000
0000
0000
0000
0000
0000
0000
0000
0000
0000
0000
0000
0100
0000
0000
0000
0000
0000
0000
0000
0010
0000
0000
0000
0000
0000
0000
0000
0000
0000
0000
0000
0001
0000
0000
0000
0000
0000
0000
0000
0000
0000
0000
0000
,
0010
0000
0000
0000
0100
0000
0000
0000
1000
0000
0000
0000
0100
0000
0000
0000
0000
0000
1000
0000
0000
0000
0000
0000
0010
0000
0000
0000
0000
0000
0100
0000
0000
0000
0010
0000
0001
0000
0000
0010
0000
0000
0100
0000
0000
1000
0000
0000
,
0010
0000
0000
0000
0100
0000
0010
0000
0000
0001
0000
0000
0100
0000
0000
0010
0000
0000
1000
0000
0000
0100
0000
0000
0010
0000
0001
0000
0000
0000
0000
0000
0010
0000
0000
0000
0000
0000
0000
0001
0000
0000
0100
0000
0000
0000
0000
0000
,
1000
0000
0000
0000
0000
0000
0100
0000
0000
0000
0000
0000
0010
0000
0000
0000
0000
0000
0002
0000
0000
0000
0000
0000
0000
0000
0000
0000
0000
0000
0000
0000
0000
0000
0000
0000
0000
0000
0000
0000
0000
0000
0000
0000
0000
0000
0000
0000
1003
0000
0000
0000
0000
0000
0000
0000
0000
0000
0000
0000
0010
0000
0000
0000
0000
0000
0000
0000
0000
0000
0000
0000
0100
0000
0000
0000
0000
0000
0000
0000
0001
0000
0000
0000
0000
0000
0000
0000
1000
0000
0000
0000
0000
0000
0000
0000
0020
0000
0000
0000
0000
0000
0000
0000
0000
0000
0000
0000
0000
0000
0000
0000
0000
0000
0000
0000
0000
0000
0000
0000
0130
0000
0000
0000
0000
0000
0000
0000
0000
0000
0000
0000
0010
0000
0000
0000
0000
0000
0000
0000
0000
0000
0000
0000
1000
0000
0000
0000
0000
0000
0000
0000
0100
0000
0000
0000
0000
0000
0000
0000
0010
0000
0000
0000
0000
0000
0000
0000
0002
0000
0000
0000
0000
0000
0000
0000
0000
0000
0000
0000
0000
0000
0000
0000
0000
0000
0000
0000
0000
0000
0000
0000
,
0000
0000
0000
0000
0000
0000
0000
0000
0003
0000
0010
0100
2000
0000
0000
0000
,
3001
0100
0010
1000
0001
1000
0010
0100
0001
0000
0010
0000
0100
0000
1001
0000
,
0000
0100
0001
0100
0100
0001
0100
0100
,
0100
0000
0000
0100
0000
0000
0100
0000
0000
0001
0000
0000
0100
0000
0000
0010
0000
0000
1000
0000
0100
0000
0010
0000
,
0001
0010
0100
0001
0100
1000
0010
0100
1000
0010
0100
0001
,
1000
0000
0001
0000
0010
0000
0100
0000
1000
0000
0010
0000
0200
0000
0000
0000
0000
0000
0000
0000
0000
1300
0000
0000
,
0000
0010
0100
0001
1000
0010
0100
0001
,
1000
0001
0100
0010
1000
0010
0100
0002
,
0013
0000
0000
0001
0010
0100
1000
0010
1000
0100
0010
0001
,
0010
0100
1000
0001
0100
1000
0001
0010
0100
1000
0100
0010
,
0001
0000
1000
0000
0100
0000
0010
0000
0001
0000
1000
0000
0010
0000
0100
0000
0001
0000
0010
0000
0000
0100
0000
0000
1000
0000
0100
0000
0010
0000
0100
0000
,
1000
0000
0000
0000
0000
0000
0000
0000
0000
0000
0000
0000
0001
0000
0000
0000
0000
0000
0000
0000
0000
0000
0000
0000
0010
0000
0000
0000
0000
0000
0000
0000
0000
0000
0000
0000
0100
0000
0000
0000
0000
0000
0000
0000
0000
0000
0000
0000
0010
0000
0000
0000
0000
0000
0000
0000
0000
0000
0000
0000
0001
0000
0000
0000
0000
0000
0000
0000
0000
0000
0000
0000
0100
0000
0000
0000
0000
0000
0000
0000
0000
0000
0000
0000
0000
0000
0000
0000
0010
0000
0000
0000
0000
0000
0000
0000
0000
0000
0000
0000
0000
0000
0000
0000
1000
0000
0000
0000
0000
0000
0000
0000
0200
0000
0000
0000
0000
0000
0000
0000
0000
0000
0000
0000
0000
0000
0000
0000
0000
0000
0000
0000
0000
0000
0000
0000
0000
0000
0000
0000
0000
0000
0000
0000
0310
0000
0000
0000
0000
0000
0000
0000
0000
0000
0000
0000
0000
0000
0000
0000
0000
0000
0000
0000
0000
0000
0000
0000
0001
0000
0000
0000
0000
0000
0010
0000
0000
0000
0000
0000
0100
0000
0000
0000
0000
0000
0000
0000
0000
0000
0000
0000
,
1000
0000
0000
0000
0000
0000
0000
0000
0000
0000
0000
0000
0100
0000
0000
0000
0000
0000
0000
0000
0000
0000
0000
0000
0000
0000
0000
0000
0000
0000
0001
0000
0000
0000
0000
0000
0000
0000
0000
0000
0000
0000
0000
0000
0000
0000
0000
0000
0100
0000
0000
0000
0000
0000
0010
0000
0000
0000
0000
0000
1000
0000
0000
0000
0000
0000
0000
0000
0000
0000
0000
0000
0000
0000
0000
0000
0000
0000
0100
0000
0000
0000
0000
0000
0000
0000
0000
0000
0000
0000
0000
0000
0000
0000
0000
0000
1000
0000
0000
0000
0000
0000
0010
0000
0000
0000
0000
0000
0002
0000
0000
0000
0000
0000
0000
0000
0000
0000
0000
0000
0000
0000
0000
0000
0000
0000
0000
0000
0000
0000
0000
0000
0000
0000
0000
0000
0000
0000
0000
0000
0000
0000
0000
0000
0013
0000
0000
0000
0000
0000
0000
0000
0000
0000
0000
0000
0100
0000
0000
0000
0000
0000
0000
0000
0000
0000
0000
0000
1000
0000
0000
0000
0000
0000
0000
0000
0000
0000
0000
0000
0000
0000
0000
0000
0100
0000
0000
0000
0000
0000
0000
0000
,
0010
0000
0000
0001
0000
0000
0010
0000
0000
0000
0100
0000
2000
0000
0000
0000
0000
0000
0000
0000
0000
0000
0000
0000
3100
0000
0000
0000
0000
0000
0010
0000
0000
0001
0000
0000
0010
0000
0000
0100
0000
0000
0000
0000
0000
0100
0000
0000
,
0000
0000
0010
0000
0100
0000
1000
0000
0000
0001
0000
0000
0100
0000
0000
0000
0010
0000
1000
0000
0100
0000
0010
0000
0001
0000
0020
0000
0000
0000
0230
0000
,
0000
1300
0100
0010
0001
0100
0020
0000
0130
1000
0001
0010
0100
0000
0010
0000
,
1000
0100
0010
1000
0100
0010
0001
0100
0010
0001
1000
0010
,
0100
1000
0100
0001
0010
0100
0010
1000
0100
0010
0100
1000
,
0001
0000
0100
0000
0010
0000
1000
0000
0001
0000
0010
0000
1000
0100
0010
0000
0100
0000
0001
0000
0010
0000
0100
0000
,
0010
1011
1101
0000
;
