#TITLE:Mona Lisa Overdrive;
#SUBTITLE:By Nicholas Mihaila;
#ARTIST:Juno Reactor;
#TITLETRANSLIT:;
#SUBTITLETRANSLIT:;
#ARTISTTRANSLIT:;
#CREDIT:;
#BANNER:MLO - Banner.gif;
#BACKGROUND:MLO - Background.gif;
#LYRICSPATH:;
#CDTITLE:cdtitle.gif;
#MUSIC:matrix reloaded - mona lisa overdrive.mp3;
#OFFSET:0.000;
#SAMPLESTART:100.000;
#SAMPLELENGTH:12.000;
#SELECTABLE:YES;
#BPMS:0.000=75.000,5.000=75.280,20.000=75.800,24.000=76.000,33.000=76.380,51.000=76.160,66.000=76.100,70.000=75.820,78.125=74.700,82.000=75.820,96.000=75.880,108.000=76.280,143.000=76.220,177.000=136.000,193.000=136.060,201.000=136.800,209.000=136.860;
#STOPS:3.000=0.200
;
#BGCHANGES:;
// cache tags:
#FIRSTBEAT:0.500;
#LASTBEAT:261.000;
#SONGFILENAME:Songs/toune/Matrix Reloaded - MLO/matrix reloaded - mona lisa overdrive.sm;
#HASMUSIC:1;
#HASBANNER:1;
#MUSICLENGTH:609.026;
// end cache tags

//---------------dance-single - ----------------
#NOTES:
     dance-single:
     :
     Hard:
     13:
     0.215,0.279,0.130,0.204,0.309,712.000,79.000,124.000,0.000,23.000:
0000
2002
0000
0000
0000
0000
3113
0000
,
0000
0220
0000
0000
0000
0000
0000
0000
1330
0000
0000
0000
0000
0000
0000
0000
0010
0000
0000
0000
0000
0000
0000
0000
0100
0000
0000
0000
0000
0000
0000
0000
,
0001
0000
0000
0000
0000
0000
0000
0000
0010
0000
0000
0000
0000
0000
0000
0000
1000
0000
0000
0000
0010
0100
1000
0000
0001
0000
0000
0000
0000
0000
0000
0000
,
1000
0100
0010
0000
0001
1000
0001
0000
0100
0010
1000
0000
0100
0010
0100
0000
,
0001
1000
0100
0000
1000
0010
1000
0000
0010
0001
1000
0000
0010
0001
0010
0000
,
2001
0000
0000
0000
0000
0000
0000
0000
0000
0000
0000
0000
0000
0000
0000
0000
0000
0000
0001
0010
0100
0000
0000
0000
3012
0000
0000
0000
0000
0000
0000
0000
,
0100
0000
0000
0000
1000
0000
0000
0000
0100
0000
1003
0100
0012
0000
0000
0000
,
1000
0000
0013
0100
2000
0000
0000
0000
0010
0000
0000
0000
3002
0000
0000
0000
,
0100
0000
0000
0000
2203
0000
0000
3300
2020
0000
0000
3030
0202
0000
0000
0303
,
0022
0000
0000
0033
2000
0000
3100
0000
0020
0000
0031
0000
2000
0000
3100
0000
,
0001
0010
0100
1000
0001
0010
0100
1000
0002
0000
0000
0000
0103
0000
0000
0000
0020
0000
0000
0000
0031
0000
0000
0000
0002
0000
0000
0000
0103
0000
0000
0000
,
1000
0100
0010
0001
1000
0100
0010
0001
2000
0000
0000
0000
3001
0000
0000
0000
0002
0000
0000
0000
1003
0000
0000
0000
2000
0000
0000
0000
3001
0000
0000
0000
,
0100
0010
1000
0010
0001
0100
1000
0010
0002
0000
0003
0000
0000
0002
0000
0003
0000
0000
0002
0000
0003
0000
0000
0000
1000
0100
0010
0001
0010
0100
1000
0100
,
0010
0001
0010
0100
1000
0000
0000
0000
0001
0100
0010
0100
1000
0000
0000
0000
1000
0010
0100
0010
0001
0000
0000
0000
1000
0100
0010
0001
0010
0100
1000
0100
,
0010
0100
0010
1000
0001
0100
0010
1000
0100
0010
0100
0010
0001
1000
0010
0100
2000
0000
0000
0000
3100
0000
0010
0000
1001
0000
0000
0000
0000
0000
0001
0000
,
0010
0100
1000
0000
1001
0000
0000
0000
0002
0000
1003
0100
1001
0000
0000
0000
,
0010
0000
0000
0000
1000
0000
0000
0000
0200
0000
0000
0000
0000
0010
0000
1000
,
0301
0000
0000
0000
0010
0000
0100
0000
0010
0000
0000
0000
1000
0000
0000
0000
0010
0000
0000
0000
0000
0000
0000
0000
1000
0100
1000
0010
1000
0001
1000
0010
,
1000
0100
1000
0010
1000
0001
1000
0010
1000
0101
0000
0000
0000
1000
0100
1000
0100
0010
0110
0100
0010
0001
0010
1100
0000
1100
0000
0000
0000
0000
0000
0000
,
0000
0001
0010
0100
1000
0001
0010
0100
1000
0011
0000
0000
0000
0011
0000
0000
0000
0011
0000
0000
0000
0000
0000
0000
0200
0000
0000
0000
0310
0000
0000
0000
,
0020
0000
0000
0000
0130
0000
0000
0000
0200
0000
0000
0000
0310
0000
0000
0000
0001
0010
0100
1000
0001
0010
0100
1000
0002
0000
0000
0000
1003
0000
0000
0000
,
2000
0000
0000
0000
3100
0000
0000
0000
0002
0000
0000
0000
1003
0000
0000
0000
1000
0100
0010
0001
1000
0100
0010
0001
0000
0000
0000
0000
0000
0000
0010
0000
,
0100
0000
0010
0000
1000
0000
0001
0000
0010
0000
1000
0000
0010
0000
0100
0000
2001
0010
0100
0010
0001
0010
0100
0010
0101
0010
0001
0010
0100
0010
0001
0010
,
0101
0010
0100
0010
0001
0010
0100
0010
0002
0000
0000
0000
0000
0000
0000
0000
0100
0000
0010
0000
3103
0000
0000
0000
0001
0000
1000
0000
0001
0010
0100
0000
,
0010
0001
0010
0100
1000
0100
0010
0001
0010
0000
0020
0000
0030
0000
1000
0001
0100
0010
0100
1000
0010
0001
0010
1000
0100
0010
0200
0000
0000
0000
0000
0000
,
0301
0000
0000
0000
0010
0000
0000
0000
0100
0000
0000
0000
0000
0000
0000
0000
1000
0000
0000
0000
0001
0000
0000
0000
1000
0000
0000
0000
0000
0000
0000
0000
0100
0000
0000
0000
0001
0000
0000
0000
1000
0000
0000
0000
0000
0000
0000
0000
0010
0000
0000
0000
0100
0000
0000
0000
0010
0000
0000
0000
1000
0001
1000
0000
,
0000
0000
0200
0000
0000
0300
0000
0000
0020
0000
0000
0030
0000
0000
0002
0000
0000
0003
0000
0000
0000
0000
0000
0000
0000
0000
2100
0000
0000
0000
0000
0000
0000
0000
0000
0000
0000
0000
0000
0000
0000
0000
0000
0000
0000
0000
0000
0000
0001
0000
0010
0000
0100
0000
0010
0000
0001
0000
0010
0000
0100
0000
0010
0000
,
3001
0000
0000
0000
0000
0000
0000
0000
2002
0000
0000
0000
0000
0000
3003
0000
0000
0000
0000
2200
0000
0000
0000
0000
0000
3300
0000
0000
0000
0000
0000
0022
0000
0000
0000
0000
0000
0033
0000
0000
0000
0000
0000
0000
2002
0000
0000
0000
0000
0000
3003
0000
0000
0000
0000
0000
0000
0000
0220
0000
0000
0000
0000
0000
,
0330
0000
0000
0000
0000
0000
2200
0000
0000
0000
0000
0000
3300
0000
0000
0000
0000
0000
0000
0220
0000
0000
0000
0000
0000
0330
0000
0000
0000
0000
0000
0000
0022
0000
0000
0000
0000
0000
0033
0000
0000
0000
0000
0000
2020
0000
0000
0000
0000
0000
3030
0000
0000
0000
0000
0000
0022
0000
0000
0000
0000
0000
0033
0000
,
1000
0100
1000
0100
1000
0100
1000
0100
1001
0000
0010
0000
0100
0000
0000
0000
0010
0000
1000
0000
0010
0000
0000
0000
0100
0000
0001
0000
1000
0000
0010
0000
,
0100
0010
0100
0000
0001
0100
0010
0000
1000
0001
1000
0000
0100
0010
0001
1000
,
0010
0100
0010
0000
1000
0010
0001
0000
0100
0001
0100
0000
0001
1000
0010
0100
,
0001
0000
1000
0000
0001
0000
0000
0000
2001
0010
0100
0010
0001
0010
0001
0100
0010
0100
0010
0001
0100
0010
0100
0001
0010
0001
0010
0100
0010
0001
0010
0100
,
0001
0010
0100
0010
0001
0010
0001
0100
0010
0001
0010
0001
0100
0010
0100
0001
3220
0000
0000
0000
0000
0000
0000
0000
2030
0000
0000
0000
0000
0000
0000
0000
,
3301
0000
0000
0000
0010
0000
0000
0000
0100
0000
0000
0000
2200
0000
0000
0000
0000
0000
0000
0000
0000
3300
0000
0000
2020
0000
0000
0000
0000
0000
0000
0000
0000
3030
0000
0000
0202
0000
0000
0000
0000
0000
0000
0000
0000
0303
0000
0000
,
0022
0000
0000
0000
0000
0000
0033
0000
1000
0100
0010
0001
0010
0100
1000
0100
0010
0000
1000
0000
0010
0000
0001
0000
0200
0000
0000
0000
0000
0000
0000
0000
,
0000
0000
0000
0000
0000
0000
0000
0000
0000
0320
0000
0000
0000
0000
0000
0000
0000
0000
0000
0000
0000
0032
0000
0000
0000
0000
0000
0000
0000
0000
0000
0000
,
0000
2003
0000
0000
0000
0000
0000
0000
0000
0000
0000
0000
0000
3200
0000
0000
0000
0000
0000
0000
0000
0000
0000
0000
0000
0302
0000
0000
0000
0000
0000
0000
,
0000
0000
0000
0000
,
0000
0000
0000
0000
0000
0000
0013
0000
0100
0000
1000
0000
0200
0000
0310
0000
0000
2020
0000
0000
0000
0000
0000
0000
0000
0000
0000
0000
0000
0000
0000
0000
,
0000
0000
0000
0000
0000
3131
0000
0000
0000
0000
0000
0000
0000
0000
0010
0000
1000
0000
0000
0000
0000
0000
0101
0000
0000
0000
0000
0000
0100
0000
1000
0001
,
1000
0100
0010
0000
0001
0000
1100
0000
0000
0000
1010
0000
0000
0000
0110
0000
1010
0000
0000
0000
0000
0000
1010
0000
0000
0000
0000
0000
1010
0000
0000
0000
,
0000
1010
0000
0000
1010
0000
0000
2002
0000
0000
0000
0000
0000
0000
0000
0000
,
0000
0000
0000
0000
,
0000
0000
0000
0000
0000
0000
0000
0000
3103
0010
0100
0010
0100
0010
0100
0010
0100
0000
0000
0000
0110
0000
0000
0000
0001
1000
0001
1000
0001
1000
0001
1000
,
0001
0000
0000
0000
1001
0000
0000
0000
0100
0001
0100
0001
0100
0001
0100
0001
0100
0000
0000
0000
0101
0000
0000
0000
0010
1000
0010
1000
0010
1000
0010
1000
,
0010
0000
0000
0000
1010
0000
0000
0000
0100
0001
0100
0001
0100
0001
0100
0001
0100
0000
0000
0000
0101
0000
0000
0000
1000
0100
1000
0100
1000
0100
1000
0100
,
1000
1100
2002
0000
0000
0203
0000
0000
,
0000
0000
0000
0000
3322
0000
0033
0000
0000
0000
0100
1000
0010
0000
0000
0000
,
0000
0000
1000
0010
0100
0000
0000
0000
0000
0000
0001
0010
2200
0000
3300
0000
,
0220
0000
0000
0330
0000
0000
0022
0000
0000
0033
0000
0000
1000
0100
1000
0010
1000
0001
1000
0010
1000
0100
1000
0010
,
1000
0001
1000
0010
1000
0100
2002
0000
0000
3003
0000
0000
2002
0000
0000
3003
0000
0000
2002
0000
0000
3003
0000
0000
,
0010
0000
0000
0000
0010
0000
0100
0000
0001
1000
0001
1000
0001
1000
0001
1000
0001
0000
0000
0000
1001
0000
0000
0000
0010
0001
0010
0001
0010
0001
0010
0001
,
0010
0000
0000
0000
0011
0000
0000
0000
0100
1000
0100
1000
0100
1000
0100
1000
0100
0000
0000
0000
1100
0000
0000
0000
0010
0100
0010
0100
0010
0100
0010
0100
,
0010
0000
0000
0110
0000
0000
0001
0010
0001
0010
0001
0010
0100
0001
0100
0001
0100
0001
1000
0001
1000
0001
1000
0001
,
0100
0010
0100
0010
0100
0010
2002
0000
0000
0000
0000
0000
0000
0000
0000
3020
0000
0000
0000
0000
0000
0000
0000
0000
,
0000
0000
0000
0000
2233
0000
3300
0000
0000
0000
0010
0001
0100
0000
0000
0000
,
0000
0000
0001
0100
0010
0000
0000
0000
0000
0000
1000
0100
0022
0000
0033
0000
,
0220
0330
2200
0300
0000
0000
0002
0000
,
0000
0000
0023
0000
0000
0230
0000
0000
,
3020
0032
0023
0000
,
0330
1000
0010
0100
0010
0001
1000
0010
,
0100
0010
1000
0001
0010
0200
0000
0000
,
0000
0310
0100
0010
0001
0100
1000
0001
,
0010
0000
0000
0000
1000
0000
0000
0000
1100
0000
0000
0000
0001
0010
0100
1000
0001
0010
0100
1000
0001
0000
0000
0000
0011
0000
0000
0000
1000
0100
0010
0001
,
1000
0100
0010
0001
1000
0000
0000
0000
1100
0000
0000
0000
0000
0000
0000
0000
0000
0000
0000
0000
0000
0000
0000
0000
0000
0000
0000
0000
0000
0000
0000
0000
;

//---------------dance-single - Copied from----------------
#NOTES:
     dance-single:
     Copied from:
     Medium:
     12:
     0.203,0.279,0.130,0.204,0.269,664.000,79.000,124.000,0.000,23.000:
0000
2002
0000
0000
0000
0000
3113
0000
,
0000
0220
0000
0000
0000
0000
0000
0000
1330
0000
0000
0000
0000
0000
0000
0000
0010
0000
0000
0000
0000
0000
0000
0000
0100
0000
0000
0000
0000
0000
0000
0000
,
0001
0000
0000
0000
0000
0000
0000
0000
0010
0000
0000
0000
0000
0000
0000
0000
1000
0000
0000
0000
0010
0100
1000
0000
0001
0000
0000
0000
0000
0000
0000
0000
,
1000
0100
0010
0000
0001
1000
0001
0000
0100
0010
1000
0000
0100
0010
0100
0000
,
0001
1000
0100
0000
1000
0010
1000
0000
0010
0001
1000
0000
0010
0001
0010
0000
,
2001
0000
0000
0000
0000
0000
0000
0000
0000
0000
0000
0000
0000
0000
0000
0000
0000
0000
0001
0010
0100
0000
0000
0000
3012
0000
0000
0000
0000
0000
0000
0000
,
0100
0000
0000
0000
1000
0000
0000
0000
0100
0000
1003
0100
0012
0000
0000
0000
,
1000
0000
0013
0100
2000
0000
0000
0000
0010
0000
0000
0000
3002
0000
0000
0000
,
0100
0000
0000
0000
2203
0000
0000
3300
2020
0000
0000
3030
0202
0000
0000
0303
,
0022
0000
0000
0033
2000
0000
3100
0000
0020
0000
0031
0000
2000
0000
3100
0000
,
0001
0010
0100
1000
0001
0010
0100
1000
0002
0000
0000
0000
0103
0000
0000
0000
0020
0000
0000
0000
0031
0000
0000
0000
0002
0000
0000
0000
0103
0000
0000
0000
,
1000
0100
0010
0001
1000
0100
0010
0001
2000
0000
0000
0000
3001
0000
0000
0000
0002
0000
0000
0000
1003
0000
0000
0000
2000
0000
0000
0000
3001
0000
0000
0000
,
0100
0010
1000
0010
0001
0100
1000
0010
0002
0000
0003
0000
0000
0002
0000
0003
0000
0000
0002
0000
0003
0000
0000
0000
1000
0100
0010
0001
0010
0100
1000
0100
,
0010
0001
0010
0100
1000
0000
0000
0000
0001
0100
0010
0100
1000
0000
0000
0000
1000
0010
0100
0010
0001
0000
0000
0000
1000
0100
0010
0001
0010
0100
1000
0100
,
0010
0100
0010
1000
0001
0100
0010
1000
0100
0010
0100
0010
0001
1000
0010
0100
2000
0000
0000
0000
3100
0000
0010
0000
1001
0000
0000
0000
0000
0000
0001
0000
,
0010
0100
1000
0000
1001
0000
0000
0000
0002
0000
1003
0100
1001
0000
0000
0000
,
0010
0000
0000
0000
1000
0000
0000
0000
0200
0000
0000
0000
0000
0010
0000
1000
,
0301
0000
0000
0000
0010
0000
0100
0000
0010
0000
0000
0000
1000
0000
0000
0000
0010
0000
0000
0000
0000
0000
0000
0000
1000
0100
1000
0010
1000
0001
1000
0010
,
1000
0100
1000
0010
1000
0001
1000
0010
1000
0101
0000
0000
0000
1000
0100
1000
0100
0010
0110
0100
0010
0001
0010
1100
0000
1100
0000
0000
0000
0000
0000
0000
,
0000
0001
0010
0100
1000
0001
0010
0100
1000
0011
0000
0000
0000
0011
0000
0000
0000
0011
0000
0000
0000
0000
0000
0000
0200
0000
0000
0000
0310
0000
0000
0000
,
0020
0000
0000
0000
0130
0000
0000
0000
0200
0000
0000
0000
0310
0000
0000
0000
0001
0010
0100
1000
0001
0010
0100
1000
0002
0000
0000
0000
1003
0000
0000
0000
,
2000
0000
0000
0000
3100
0000
0000
0000
0002
0000
0000
0000
1003
0000
0000
0000
1000
0100
0010
0001
1000
0100
0010
0001
0000
0000
0000
0000
0000
0000
0010
0000
,
0100
0000
0010
0000
1000
0000
0001
0000
0010
0000
1000
0000
0010
0000
0100
0000
2001
0010
0100
0010
0001
0010
0100
0010
0101
0010
0001
0010
0100
0010
0001
0010
,
0101
0010
0100
0010
0001
0010
0100
0010
0002
0000
0000
0000
0000
0000
0000
0000
0100
0000
0010
0000
3103
0000
0000
0000
0001
0000
1000
0000
0001
0010
0100
0000
,
0010
0001
0010
0100
1000
0100
0010
0001
0010
0000
0020
0000
0030
0000
1000
0001
0100
0010
0100
1000
0010
0001
0010
1000
0100
0010
0200
0000
0000
0000
0000
0000
,
0301
0000
0000
0000
0010
0000
0000
0000
0100
0000
0000
0000
0000
0000
0000
0000
1000
0000
0000
0000
0001
0000
0000
0000
1000
0000
0000
0000
0000
0000
0000
0000
0100
0000
0000
0000
0001
0000
0000
0000
1000
0000
0000
0000
0000
0000
0000
0000
0010
0000
0000
0000
0100
0000
0000
0000
0010
0000
0000
0000
1000
0001
1000
0000
,
0000
0000
0200
0000
0000
0300
0000
0000
0020
0000
0000
0030
0000
0000
0002
0000
0000
0003
0000
0000
0000
0000
0000
0000
0000
0000
2100
0000
0000
0000
0000
0000
0000
0000
0000
0000
0000
0000
0000
0000
0000
0000
0000
0000
0000
0000
0000
0000
0001
0000
0010
0000
0100
0000
0010
0000
0001
0000
0010
0000
0100
0000
0010
0000
,
3001
0000
0000
0000
0000
0000
0000
0000
2002
0000
0000
0000
0000
0000
3003
0000
0000
0000
0000
2200
0000
0000
0000
0000
0000
3300
0000
0000
0000
0000
0000
0022
0000
0000
0000
0000
0000
0033
0000
0000
0000
0000
0000
0000
2002
0000
0000
0000
0000
0000
3003
0000
0000
0000
0000
0000
0000
0000
0220
0000
0000
0000
0000
0000
,
0330
0000
0000
0000
0000
0000
2200
0000
0000
0000
0000
0000
3300
0000
0000
0000
0000
0000
0000
0220
0000
0000
0000
0000
0000
0330
0000
0000
0000
0000
0000
0000
0022
0000
0000
0000
0000
0000
0033
0000
0000
0000
0000
0000
2020
0000
0000
0000
0000
0000
3030
0000
0000
0000
0000
0000
0022
0000
0000
0000
0000
0000
0033
0000
,
1000
0100
1000
0100
1000
0100
1000
0100
1001
0000
0010
0000
0100
0000
0000
0000
0010
0000
1000
0000
0010
0000
0000
0000
0100
0000
0001
0000
1000
0000
0010
0000
,
0100
0010
0100
0000
0001
0100
0010
0000
1000
0001
1000
0000
0100
0010
0001
1000
,
0010
0100
0010
0000
1000
0010
0001
0000
0100
0001
0100
0000
0001
1000
0010
0100
,
0001
0000
1000
0000
0001
0000
0000
0000
2001
0010
0100
0010
0001
0010
0001
0100
0010
0100
0010
0001
0100
0010
0100
0001
0010
0001
0010
0100
0010
0001
0010
0100
,
0001
0010
0100
0010
0001
0010
0001
0100
0010
0001
0010
0001
0100
0010
0100
0001
3220
0000
0000
0000
0000
0000
0000
0000
2030
0000
0000
0000
0000
0000
0000
0000
,
3301
0000
0000
0000
0010
0000
0000
0000
0100
0000
0000
0000
2200
0000
0000
0000
0000
0000
0000
0000
0000
3300
0000
0000
2020
0000
0000
0000
0000
0000
0000
0000
0000
3030
0000
0000
0202
0000
0000
0000
0000
0000
0000
0000
0000
0303
0000
0000
,
0022
0000
0000
0000
0000
0000
0033
0000
1000
0100
0010
0001
0010
0100
1000
0100
0010
0000
1000
0000
0010
0000
0001
0000
0200
0000
0000
0000
0000
0000
0000
0000
,
0000
0000
0000
0000
0000
0000
0000
0000
0000
0320
0000
0000
0000
0000
0000
0000
0000
0000
0000
0000
0000
0032
0000
0000
0000
0000
0000
0000
0000
0000
0000
0000
,
0000
2003
0000
0000
0000
0000
0000
0000
0000
0000
0000
0000
0000
3200
0000
0000
0000
0000
0000
0000
0000
0000
0000
0000
0000
0302
0000
0000
0000
0000
0000
0000
,
0000
0000
0000
0000
,
0000
0000
0000
0000
0000
0000
0013
0000
0100
0000
1000
0000
0200
0000
0310
0000
0000
2020
0000
0000
0000
0000
0000
0000
0000
0000
0000
0000
0000
0000
0000
0000
,
0000
0000
0000
0000
0000
3131
0000
0000
0000
0000
0000
0000
0000
0000
0010
0000
1000
0000
0000
0000
0000
0000
0101
0000
0000
0000
0000
0000
0100
0000
1000
0001
,
1000
0100
0010
0000
0001
0000
1100
0000
0000
0000
1010
0000
0000
0000
0110
0000
1010
0000
0000
0000
0000
0000
1010
0000
0000
0000
0000
0000
1010
0000
0000
0000
,
0000
1010
0000
0000
1010
0000
0000
2002
0000
0000
0000
0000
0000
0000
0000
0000
,
0000
0000
0000
0000
,
0000
0000
0000
0000
3103
0010
0100
0010
0100
0000
0110
0000
0001
1000
0001
1000
,
0001
0000
1001
0000
0100
0001
0100
0001
0100
0000
0101
0000
0010
1000
0010
1000
,
0010
0000
1010
0000
0100
0001
0100
0001
0100
0000
0101
0000
1000
0100
1000
0100
,
1000
1100
2002
0000
0000
0203
0000
0000
,
0000
0000
0000
0000
3322
0000
0033
0000
0000
0000
0100
1000
0010
0000
0000
0000
,
0000
0000
1000
0010
0100
0000
0000
0000
0000
0000
0001
0010
2200
0000
3300
0000
,
0220
0000
0000
0330
0000
0000
0022
0000
0000
0033
0000
0000
1000
0100
1000
0010
1000
0001
1000
0010
1000
0100
1000
0010
,
1000
0001
1000
0010
1000
0100
2002
0000
0000
3003
0000
0000
2002
0000
0000
3003
0000
0000
2002
0000
0000
3003
0000
0000
,
0010
0000
0010
0100
0001
1000
0001
1000
0001
0000
1001
0000
0010
0001
0010
0001
,
0010
0000
0011
0000
0100
1000
0100
1000
0100
0000
1100
0000
0010
0100
0010
0100
,
0010
0000
0000
0110
0000
0000
0001
0010
0001
0010
0001
0010
0100
0001
0100
0001
0100
0001
1000
0001
1000
0001
1000
0001
,
0100
0010
0100
0010
0100
0010
2002
0000
0000
0000
0000
0000
0000
0000
0000
3020
0000
0000
0000
0000
0000
0000
0000
0000
,
0000
0000
0000
0000
2233
0000
3300
0000
0000
0000
0010
0001
0100
0000
0000
0000
,
0000
0000
0001
0100
0010
0000
0000
0000
0000
0000
1000
0100
0022
0000
0033
0000
,
0220
0330
2200
0300
0000
0000
0002
0000
,
0000
0000
0023
0000
0000
0230
0000
0000
,
3020
0032
0023
0000
,
0330
1000
0010
0100
0010
0001
1000
0010
,
0100
0010
1000
0001
0010
0200
0000
0000
,
0000
0310
0100
0010
0001
0100
1000
0001
,
0010
0000
1000
0000
1100
0000
0001
0010
0100
1000
0001
0000
0011
0000
1000
0100
,
0010
0001
1000
0000
1100
0000
0000
0000
0000
0000
0000
0000
0000
0000
0000
0000
;
