#TITLE:The Power;
#SUBTITLE:EXoduz Violation II;
#ARTIST:40oz. to Life;
#TITLETRANSLIT:;
#SUBTITLETRANSLIT:;
#ARTISTTRANSLIT:;
#CREDIT:;
#BANNER:../Banner.png;
#BACKGROUND:../Background.png;
#LYRICSPATH:;
#CDTITLE:;
#MUSIC:40oz. to Life - The Power.ogg;
#OFFSET:0.907;
#SAMPLESTART:96.095;
#SAMPLELENGTH:12.000;
#SELECTABLE:YES;
#DISPLAYBPM:227.000;
#BPMS:0.000=227.000,388.000=454.000,516.000=227.000,644.000=230.820,646.000=232.940,648.000=237.180,650.000=245.760,652.000=255.240,654.000=263.660,656.000=270.500,658.000=283.000,660.000=295.830,662.000=296.110,664.000=318.330,666.000=340.000,668.000=342.890,670.000=344.000,672.000=343.000,674.000=341.000,676.000=343.980,680.000=348.770,682.000=354.880,684.000=363.710,686.000=370.010,688.000=372.220,690.000=384.440,692.000=391.990,696.000=414.120,700.000=433.000,704.000=454.880,708.000=463.970,710.000=465.880,712.000=467.670,720.000=469.660,722.000=471.330,724.000=474.990,730.000=510.990,732.000=520.500,734.000=525.000,736.000=542.000,738.000=550.000,740.000=596.770,742.000=598.000,744.000=600.000,754.000=627.000,770.000=799.990,772.000=227.000;
#STOPS:;
#BGCHANGES:;
// cache tags:
#FIRSTBEAT:4.000;
#LASTBEAT:788.000;
#SONGFILENAME:Songs/EXoduz Violation II/The Power - [Ov3rHell3XoduZ]/SM.sm;
#HASMUSIC:1;
#HASBANNER:1;
#MUSICLENGTH:179.221;
// end cache tags

//---------------dance-single - ----------------
#NOTES:
     dance-single:
     :
     Beginner:
     13:
     1.000,1.000,0.664,0.631,0.923,1112.000,119.000,113.000,49.000,1.000:
0000
0000
0000
0000
,
1020
0000
0030
0200
0000
0000
0302
0003
,
0022
0000
0033
2100
0000
0000
3020
0030
,
0220
0000
0330
0102
0000
0000
0023
0000
,
0230
0000
0300
2200
0000
3300
2020
3030
,
0102
0000
0000
0023
0000
0030
0220
0330
,
2200
0000
3300
0102
0000
0003
0002
0000
,
2003
0000
0000
3200
0000
0300
0220
0330
,
0022
0000
0033
0200
0000
0000
0320
0030
,
2010
0000
0000
0000
,
3100
0M00
00M0
000M
,
M000
000M
0M00
00M0
,
M000
0M00
M000
000M
,
00M0
M000
00M0
0M00
0M00
0M00
0M00
00M0
,
0000
M000
0M00
00M0
000M
0000
00M0
M000
,
0M00
00M0
000M
0M00
00M0
M000
000M
00M0
,
0M00
M000
000M
0M00
00M0
00M0
00M0
00M0
,
1000
0100
1000
0010
0100
0010
0100
0001
,
0010
0100
1000
0100
1000
0010
0100
0001
,
0010
0001
0010
0100
1000
0001
0100
0001
,
1000
0010
1000
0010
0100
0001
1000
0001
,
0010
0100
1000
0001
0100
0001
1000
0010
,
1000
0010
0100
0001
0010
0100
1000
0100
,
1000
0001
0100
0001
1000
0100
1000
0001
0010
0001
1000
0010
,
1000
0001
0100
0001
1000
0100
1000
0001
0010
0001
1000
0010
,
1000
0100
0010
0001
0010
0001
1000
0010
,
1000
0010
0100
0001
0010
0100
1000
0001
,
0100
0001
1000
0010
1000
0100
0010
0001
,
0100
0010
0100
0010
1000
0100
0010
0100
,
0010
0001
0100
0010
0100
0010
1000
0100
,
0010
0001
0100
0001
1000
0100
1000
0001
,
1000
0100
1000
0001
0010
0001
1000
0010
1000
0001
0100
0001
,
1000
0100
1000
0001
0010
0001
1000
0010
1000
0001
0100
0001
,
2000
0000
0000
3200
0000
0000
0320
0000
,
0032
0000
0000
2003
0000
0000
3020
0000
,
0230
0000
0000
0302
0000
0000
0023
0000
,
0230
0000
0000
2300
0000
0000
3020
0000
,
0230
0000
0000
0302
0000
0000
0023
0000
,
0230
0000
0000
2300
0000
0000
3002
0000
,
0103
0010
0100
0000
0000
0000
0010
1000
0010
0000
0000
0000
1000
0100
1000
0000
,
0100
0010
0100
0000
0000
0000
0010
0001
0010
0000
0000
0000
1000
0100
1000
0000
,
0001
0100
0001
0000
0000
0000
1000
0010
1000
0000
0000
0000
0001
0100
0001
0000
,
1000
0100
1000
0000
0000
0000
0001
0010
0001
0000
0000
0000
1000
0010
1000
0000
,
0010
0100
0010
0000
0000
0000
0100
0001
0100
0000
0000
0000
0010
1000
0010
0000
,
1000
0100
1000
0000
0000
0000
0100
0010
0100
0000
0000
0000
0010
0001
0010
0000
,
0001
0100
0001
0000
0000
0000
1000
0010
1000
0000
0000
0000
0001
0100
0001
0000
,
1000
0001
1000
0000
0000
0000
0010
0100
0010
0000
0000
0000
1000
0100
1000
0000
,
0001
0100
0001
0000
0000
0000
0100
0010
0100
0000
0000
0000
0010
1000
0010
0000
,
0200
0000
0000
0000
,
0301
0000
1000
0000
0100
0000
1000
0000
0001
0000
0100
0000
0001
0000
0010
0100
,
1000
0000
0001
0000
0100
0000
0001
0000
1000
0000
0010
0000
1000
0100
1000
0001
,
0100
0000
0010
0000
1000
0000
0100
0000
0010
0000
0100
0000
1000
0000
0010
0100
,
0001
0000
0010
0000
0100
0000
1000
0000
0100
0000
0010
0000
0001
1000
0010
1000
,
0100
0000
0010
0000
0100
0000
1000
0000
0001
0000
0100
0000
0001
0000
1000
0001
,
1000
0000
0100
0000
0010
0000
0001
0000
0100
0000
0001
0000
0100
0010
1000
0010
,
2000
0000
3000
0220
0000
0330
0022
0033
,
0202
0000
0303
2002
0000
3003
2002
3003
,
1001
0000
0001
0000
1000
0000
0010
0000
1000
0000
0100
0000
0010
0000
0001
1000
,
0010
0000
0100
0000
0010
0000
0100
0000
0010
0000
0100
0000
0001
0010
0100
1000
,
0001
0000
0100
0000
0001
0000
1000
0000
0100
0000
1000
0000
0010
0000
0100
0001
,
0010
0000
0100
0000
1000
0000
0001
0000
0100
0000
0001
0000
1000
0010
1000
0010
,
0100
0000
0001
0000
1000
0000
0100
0000
1000
0000
0001
0000
0010
0000
0001
1000
,
0010
0000
0100
0000
0001
0000
0010
0000
0100
0000
1000
0000
0001
1000
0100
1000
,
0001
1000
0010
0100
0001
0100
0001
1000
0100
1000
0001
0010
,
0100
1000
0001
1000
0010
0100
0001
0010
0100
1000
0100
0010
,
0002
0000
0000
2003
0000
0000
3020
0000
,
0230
0000
0000
0302
0000
0000
0023
0000
,
0230
0000
0000
2300
0000
0000
3002
0000
,
0203
0000
0000
0302
0000
0000
0023
0000
,
0230
0000
0000
2300
0000
0000
3020
0000
,
0230
0000
0000
0320
0000
0000
2030
0000
,
3200
0000
0300
0200
0000
0300
0200
0300
,
0200
0000
0000
0320
0000
0000
0130
0100
,
1100
0000
0000
1010
0110
0000
0110
0000
,
0011
0000
0000
1100
1001
0000
1100
0000
,
0011
0000
0000
0101
0101
0000
1001
0000
,
1100
0000
0000
0110
1100
0000
0011
0000
,
1100
0000
0000
0110
0101
0000
1010
0000
,
1100
0000
0000
1001
0101
0000
1001
0000
,
1100
0000
0000
0110
0000
0000
0011
0000
,
0101
0000
0000
0110
0000
0000
1001
1001
,
1001
0000
0001
0000
0100
0000
0001
0000
1000
0000
0010
0000
1000
0000
0100
0010
,
0001
0000
1000
0000
0010
0000
1000
0000
0100
0000
0010
0000
0001
1000
0010
0100
,
0001
0000
1000
0000
0100
0000
1000
0000
0010
0000
0100
0000
0001
0000
1000
0100
,
0010
0000
0001
0000
1000
0000
0010
0000
1000
0000
0100
0000
0010
0001
0100
0001
,
0010
0000
0100
0000
1000
0000
0010
0000
1000
0000
0100
0000
0010
0000
0001
0100
,
0001
0000
1000
0000
0010
0000
0100
0000
0001
0000
0100
0000
0001
1000
0100
1000
,
0001
0000
0010
0000
0100
0000
1000
0000
0001
0000
0100
0000
0001
0000
1000
0010
,
0100
0000
0001
0000
0100
0000
0010
0000
1000
0000
0100
0000
0010
0001
0010
0100
,
1000
0000
0001
0000
0100
0000
0001
0000
1000
0000
0010
0000
1000
0000
0001
1000
,
0100
0000
0010
0000
0001
0000
1000
0000
0010
0000
1000
0000
0100
0010
0100
1000
,
0001
0000
1000
0000
0010
0000
1000
0000
0010
0000
0100
0000
0001
0000
1000
0100
,
0010
0000
0100
0000
1000
0000
0001
0000
0100
0000
0001
0000
1000
0010
0100
0001
,
0010
0000
0100
0000
1000
0000
0001
0000
0100
0000
0001
0000
1000
0000
0100
1000
,
0001
0000
0010
0000
0100
0000
0010
0000
0001
0000
0100
0000
0001
1000
0010
0100
,
0001
0000
0010
0000
0100
0000
1000
0000
0100
0000
0010
0000
0001
0000
1000
0001
,
0100
0000
0010
0000
1000
0000
0100
0000
0010
0000
0100
0000
1000
0010
0100
0001
,
0010
0100
1000
0001
,
0100
0001
1000
0010
,
1000
0100
0010
0001
,
0100
0001
0010
0100
,
1000
0001
0100
0001
,
1000
0010
1000
0100
,
0010
0001
0010
0100
,
1000
0001
0100
0010
,
1000
0010
0100
0001
,
1000
0100
1000
0001
,
0010
0100
0010
0001
,
1000
0010
0100
0010
,
0100
0010
1000
0100
,
0010
0100
1000
0001
,
0100
0001
1000
0010
,
0100
0010
1000
0100
,
0010
0001
0010
0100
,
1000
0001
0100
0001
,
1000
0010
1000
0100
,
0010
0001
0100
0001
,
0010
0100
1000
0001
,
0100
0001
1000
0010
,
1000
0100
0010
0001
,
0100
0001
0010
0100
,
1000
0001
1000
0100
,
1000
0001
0010
0100
,
1000
0100
0010
0001
,
1000
0010
1000
0001
,
0100
0010
1000
0100
,
0010
0100
1000
0001
,
0010
0001
1000
0010
,
1000
0100
0010
0001
,
0200
0320
2030
3200
,
0320
0032
0203
0300
,
2020
3030
0000
0202
0303
0000
2002
3003
,
2002
0000
0000
3003
,
2222
0000
0000
0000
,
3333
0000
0000
0000
,
2200
0000
3300
0022
0000
0033
2200
3300
,
2200
3300
0011
0000
0011
0101
1010
0110
,
0000
0000
0000
0000
,
0000
0000
0000
0000
,
0000
0000
0000
0000
,
0000
0000
0000
0000
,
0000
0000
0000
0000
,
0000
0000
0000
0000
,
0000
0000
0000
0000
,
MMMM
0000
0000
0000
,
1000
0100
0010
0001
1000
0010
1000
0100
0010
0001
0100
0001
,
0010
0100
1000
0001
0100
0001
1000
0010
1000
0010
0100
0001
,
1000
0001
1000
0100
1000
0001
0010
0100
0010
0001
1000
0010
,
1000
0100
0010
0001
0010
0100
1000
0010
1000
0010
0100
0001
,
1000
0001
0010
0100
0010
0100
1000
0010
0100
0010
0100
0001
,
1000
0100
1000
0001
0010
0100
1000
0001
0100
0001
1000
0010
,
1000
0010
0100
0001
0010
0100
1000
0001
0100
0001
1000
0001
,
1000
0001
1000
0010
1000
0100
0010
0001
0100
0001
0100
0001
,
0010
0100
1000
0100
1000
0010
0100
0001
0100
0001
0010
0001
,
0010
0100
1000
0010
0100
0001
0010
0100
0010
0001
0010
0001
,
1000
0010
1000
0010
0100
0001
0010
0100
1000
0100
0010
0001
,
1000
0010
1000
0001
1000
0001
1000
0001
0100
0001
1000
0001
,
1000
0100
1000
0001
0010
0001
0010
0100
1000
0100
1000
0010
,
1000
0010
0100
0001
0010
0001
0010
0100
1000
0001
0100
0001
,
1000
0001
1000
0010
1000
0100
0010
0001
0010
0001
1000
0010
,
0100
0001
0010
0100
1000
0010
0100
0001
1000
0100
0010
0001
,
4000
3100
0010
0001
1000
0010
0400
0301
0010
0100
1000
0001
,
4000
3001
0100
0001
0010
0001
4000
3100
1000
0100
1000
0010
,
4000
0000
3100
0000
0010
0000
0001
0000
0010
0000
0001
0000
4000
0000
0000
3010
0000
0000
0100
0000
0000
0001
0000
0000
,
4000
3100
0010
0100
4000
3001
0100
0001
,
4000
3001
1000
0010
4000
3010
0100
0001
,
0040
0130
1000
0001
0400
0301
0010
0001
,
4000
3010
1000
0010
4000
3100
0010
0001
,
0040
0000
0000
0130
0000
0000
1000
0000
0000
0001
0000
0000
4000
0000
0000
0000
3010
0000
0000
0000
0100
0000
0000
0000
,
0004
0000
0013
0000
0100
0000
4000
0000
3100
0000
1000
0000
,
0040
0000
0130
0000
0001
0000
4000
0000
3001
0000
0100
0000
,
0004
0000
0013
0000
0100
0000
4000
0000
3100
0000
1000
0000
,
0400
0000
1300
0000
0010
0000
0400
0000
0301
0000
0010
0000
,
0400
0000
1300
0000
0100
0000
4000
0000
3010
0000
0100
0000
,
0004
0000
0013
0000
0100
0000
0040
0000
0031
0000
1000
0000
,
0004
0000
0103
0000
0001
0000
4000
0000
3010
0000
0100
0000
,
0004
0000
0013
0000
0100
0000
0040
0000
0031
0000
1000
0000
,
0004
0000
1003
0000
0010
0000
0400
0000
0301
0000
0100
0000
,
0004
0000
1003
0000
0001
0000
0040
0000
0130
0000
1000
0000
,
0400
0000
0310
0000
0001
0000
4000
0000
3001
0000
0100
0000
,
0004
0000
1003
0000
0100
0000
4000
0000
3010
0000
0100
0000
,
0040
0000
1030
0000
0100
0000
0040
0000
0031
0000
0010
0000
,
0004
0000
0103
0000
0001
0000
4000
0000
3100
0000
1000
0000
,
0040
0000
0130
0000
0001
0000
4000
0000
3001
0000
1000
0000
,
0004
0000
0103
0000
0001
0000
0040
0000
0130
0000
1000
0000
,
0400
1300
0040
0130
,
0004
0013
0100
1000
,
0100
0010
0001
0100
,
0001
1000
0040
0130
,
0001
0010
0100
1000
,
0001
0100
0001
0100
,
0010
1000
0100
0010
,
0001
0010
0400
1000
,
1301
0000
0000
0000
,
0000
0000
0000
0000
,
0000
0000
0000
0000
,
0000
0000
0000
0000
,
MMMM
0000
0000
0000
;

//---------------dance-single - Novice----------------
#NOTES:
     dance-single:
     Novice:
     Easy:
     14:
     1.000,1.000,0.826,1.000,1.000,1242.000,148.000,194.000,49.000,1.000:
0000
0000
0000
0000
,
0022
0000
0033
0202
0000
0003
0302
0003
,
0022
0000
0033
2200
0000
0300
0002
3003
,
0220
0000
0330
0202
0000
0300
0023
0000
,
0230
0000
0300
2200
0000
3300
2020
3030
,
0102
0000
0000
0023
0000
0030
0220
0330
,
2200
0000
3300
0102
0000
0003
2002
3000
,
2000
0000
0003
3200
0000
0300
0220
0330
,
0022
0000
0033
0202
0000
0303
0020
0030
,
2010
0000
0000
0000
,
3100
0M00
00M0
000M
,
M000
000M
0M00
00M0
,
M000
0M00
M000
000M
,
00M0
M000
00M0
0M00
0M00
0M00
0M00
00M0
,
0000
M000
0M00
00M0
000M
0000
00M0
M000
,
0M00
00M0
000M
0M00
00M0
M000
000M
00M0
,
0M00
M000
000M
0M00
00M0
00M0
00M0
00M0
,
1000
0100
1000
0010
0100
0010
0100
0001
,
0010
0100
1000
0100
1000
0010
0100
0001
,
0010
0001
0010
0100
1000
0001
0100
0001
,
1000
0010
1000
0010
0100
0001
1000
0001
,
0010
0100
1000
0001
0100
0001
1000
0010
,
1000
0010
0100
0001
0010
0100
1000
0100
,
1000
0010
0100
0001
0010
0100
1000
0001
0100
0010
1000
0100
,
0010
0001
1000
0010
0100
0001
0010
0100
0010
0001
1000
0100
,
1000
0100
0010
0001
0010
0001
1000
0010
,
1000
0010
0100
0001
0010
0100
1000
0001
,
0100
0001
1000
0010
1000
0100
0010
0001
,
0100
0010
0100
0010
1000
0100
0010
0100
,
0010
0001
0100
0010
0100
0010
1000
0100
,
0010
0001
0100
0001
1000
0100
1000
0001
,
1000
0010
0100
0001
0010
0100
1000
0001
0100
0010
1000
0100
,
0010
0001
1000
0010
0100
0001
0010
0100
1000
0001
0100
0010
,
2000
0000
3000
0220
0000
0330
0022
0033
,
0202
0000
0303
2020
0000
3030
0220
0330
,
0202
0000
0303
2002
0000
3003
2020
3030
,
0220
0000
0330
0202
0000
0303
2002
3003
,
0022
0000
0033
2200
0000
3300
2020
3030
,
2002
0000
3003
0202
0000
0303
0022
0033
,
1000
0100
0010
0000
0000
0000
0001
1000
0010
0000
0000
0000
0100
0001
0010
0000
,
0100
1000
0010
0000
0000
0000
0100
0001
1000
0000
0000
0000
0010
0100
0001
0000
,
1000
0100
0010
0000
0000
0000
0001
0010
0100
0000
0000
0000
1000
0010
0100
0000
,
0001
0010
0100
0000
0000
0000
1000
0001
0100
0000
0000
0000
0010
1000
0001
0000
,
0100
0001
1000
0000
0000
0000
0100
0010
0001
0000
0000
0000
1000
0010
0100
0000
,
0001
1000
0100
0000
0000
0000
0010
0001
1000
0000
0000
0000
0100
0010
1000
0000
,
0001
0100
0010
0000
0000
0000
1000
0010
1000
0000
0000
0000
0001
0100
0001
0000
,
1000
0001
1000
0000
0000
0000
0010
0100
0010
0000
0000
0000
1000
0100
1000
0000
,
0001
0100
0001
0000
0000
0000
0100
0010
0100
0000
0000
0000
0010
1000
0010
0000
,
0200
0000
0000
0000
,
0301
0000
1000
0000
0100
0000
1000
0000
0001
0000
0100
0000
0001
0000
0010
0100
,
1000
0000
0001
0000
0100
0000
0001
0000
1000
0000
0010
0000
1000
0100
1000
0001
,
0100
0000
0010
0000
1000
0000
0100
0000
0010
0000
0100
0000
1000
0000
0010
0100
,
0001
0000
0010
0000
0100
0000
1000
0000
0100
0000
0010
0000
0001
1000
0010
1000
,
0100
0000
0010
0000
0100
0000
1000
0000
0001
0000
0100
0000
0001
0000
1000
0001
,
1000
0000
0100
0000
0010
0000
0001
0000
0100
0000
0001
0000
0100
0010
1000
0010
,
0100
0001
0010
0100
1000
0001
0100
0001
1000
0010
1000
0010
0100
0001
0010
0100
,
1000
0100
1000
0001
0100
0001
1000
0010
0100
0001
0010
0001
0010
0100
1000
0000
,
1001
0000
0001
0000
1000
0000
0010
0000
1000
0000
0100
0000
0010
0000
0001
1000
,
0010
0000
0100
0000
0010
0000
0100
0000
0010
0000
0100
0000
0001
0010
0100
1000
,
0001
0000
0100
0000
0001
0000
1000
0000
0100
0000
1000
0000
0010
0000
0100
0001
,
0010
0000
0100
0000
1000
0000
0001
0000
0100
0000
0001
0000
1000
0010
1000
0010
,
0100
0000
0001
0000
1000
0000
0100
0000
1000
0000
0001
0000
0010
0000
0001
1000
,
0010
0000
0100
0000
0001
0000
0010
0000
0100
0000
1000
0000
0001
1000
0100
1000
,
0001
0010
0100
1000
0001
0100
0001
1000
0010
1000
0010
0100
0001
0010
0001
0010
,
0100
1000
0001
0100
0001
1000
0010
0100
0001
0010
0100
1000
0100
1000
0010
0100
,
0002
0000
0003
2020
0000
3030
0220
0330
,
0202
0000
0303
2002
0000
3003
2020
3030
,
0220
0000
0330
2002
0000
3003
2200
3300
,
0220
0000
0330
0022
0000
0033
0202
0303
,
0220
0000
0330
2020
0000
3030
2002
3003
,
0202
0000
0303
0022
0000
0033
2200
3300
,
0220
0000
0330
0022
0000
0033
0202
0303
,
2002
0000
3003
2020
0000
3030
0110
0101
,
0022
0000
0033
1010
0220
0330
0022
0033
,
0202
0000
0303
1100
2002
3003
2020
3030
,
0202
0000
0303
0011
0202
0303
2002
3003
,
2200
0000
3300
0110
0022
0033
0022
0033
,
0202
0000
0303
1010
0202
0303
2002
3003
,
2200
0000
3300
1001
0202
0303
2002
3003
,
2200
0000
3300
0220
0000
0330
0022
0033
,
0202
0000
0303
0220
0000
0330
1001
1001
,
2001
0000
3001
0000
0100
0000
0001
0000
1000
0000
0010
0000
1000
0000
0100
0010
,
0001
0000
1000
0000
0010
0000
1000
0000
0100
0000
0010
0000
0001
1000
0010
0100
,
0001
0000
1000
0000
0100
0000
1000
0000
0010
0000
0100
0000
0001
0000
1000
0100
,
0010
0000
0001
0000
1000
0000
0010
0000
1000
0000
0100
0000
0010
0001
0100
0001
,
0010
0000
0100
0000
1000
0000
0010
0000
1000
0000
0100
0000
0010
0000
0001
0100
,
0001
0000
1000
0000
0010
0000
0100
0000
0001
0000
0100
0000
0001
1000
0100
1000
,
0001
0000
0010
0000
0100
0000
1000
0000
0001
0000
0100
0000
0001
0000
1000
0010
,
0100
0000
0001
0000
0100
0000
0010
0000
1000
0000
0100
0000
0010
0001
0010
0100
,
1000
0000
0001
0000
0100
0000
0001
0000
1000
0000
0010
0000
1000
0000
0001
1000
,
0100
0000
0010
0000
0001
0000
1000
0000
0010
0000
1000
0000
0100
0010
0100
1000
,
0001
0000
1000
0000
0010
0000
1000
0000
0010
0000
0100
0000
0001
0000
1000
0100
,
0010
0000
0100
0000
1000
0000
0001
0000
0100
0000
0001
0000
1000
0010
0100
0001
,
0010
0000
0100
0000
1000
0000
0001
0000
0100
0000
0001
0000
1000
0000
0100
1000
,
0001
0000
0010
0000
0100
0000
0010
0000
0001
0000
0100
0000
0001
1000
0010
0100
,
0001
0000
0010
0000
0100
0000
1000
0000
0100
0000
0010
0000
0001
0000
1000
0001
,
0100
0000
0010
0000
1000
0000
0100
0000
0010
0000
0100
0000
1000
0010
0100
0001
,
0010
0000
0100
0000
1000
0000
0001
0000
0100
0000
0001
0000
,
1000
0000
0010
0000
0100
0000
0001
0000
1000
0000
0100
0000
,
1000
0000
0010
0000
0100
0000
0001
0000
1000
0000
0100
0000
,
1000
0000
0001
0000
1000
0000
0010
0000
1000
0000
0100
0000
,
0010
0000
0001
0000
0100
0000
0001
0000
1000
0000
0001
0000
,
0010
0000
0100
0000
1000
0000
0100
0000
0010
0000
0001
0000
,
1000
0000
0010
0000
0100
0000
0001
0000
0100
0000
0010
0000
,
1000
0000
0100
0000
0010
0000
0100
0000
1000
0000
0100
0000
,
0010
0000
0100
0000
1000
0000
0001
0000
0010
0000
0100
0000
,
0010
0000
0001
0000
0010
0000
0100
0000
0010
0000
0001
0000
,
1000
0000
0001
0000
0100
0000
0010
0000
1000
0000
0100
0000
,
0010
0000
0001
0000
1000
0000
0001
0000
0100
0000
0010
0000
,
1000
0000
0100
0000
0010
0000
0100
0000
1000
0000
0001
0000
,
0100
0000
0001
0000
0010
0000
0100
0000
1000
0000
0010
0000
,
1000
0000
0100
0000
0010
0000
0001
0000
0100
0000
0001
0000
,
1000
0000
0001
0000
0010
0000
0100
0000
1000
0000
0010
0000
,
0100
0000
0001
0000
1000
0000
0100
0000
1000
0000
0001
0000
,
0010
0000
0100
0000
1000
0000
0001
0000
0100
0000
0001
0000
,
1000
0000
0010
0000
1000
0000
0100
0000
0010
0000
0001
0000
,
0100
0000
0001
0000
1000
0000
0001
0000
0010
0000
0100
0000
,
1000
0000
0001
0000
0100
0000
0001
0000
1000
0000
0100
0000
,
1000
0000
0010
0000
0100
0000
0001
0000
1000
0000
0001
0000
,
0100
0000
0001
0000
0010
0000
0100
0000
1000
0000
0010
0000
,
1000
0000
0100
0000
0010
0000
0001
0000
0100
0000
0001
0000
,
1000
0000
0001
0000
0010
0000
0100
0000
1000
0000
0010
0000
,
1000
0000
0100
0000
0010
0000
0001
0000
0100
0000
0001
0000
,
1000
0000
0001
0000
0010
0000
0100
0000
1000
0000
0010
0000
,
0100
0000
0001
0000
1000
0000
0100
0000
1000
0000
0001
0000
,
0010
0000
0100
0000
0010
0000
0001
0000
1000
0000
0010
0000
,
0100
0000
0001
0000
1000
0000
0100
0000
1000
0000
0001
0000
,
0010
0000
0100
0000
0010
0000
0001
0000
1000
0000
0001
0000
,
0100
0000
0001
0000
1000
0000
0100
0000
0010
0000
0001
0000
,
0200
0320
2030
3200
,
0320
0032
0203
0300
,
2020
3030
0000
0202
0303
0000
2002
3003
,
2002
0000
0000
3003
,
2222
0000
0000
0000
,
3333
0000
0000
0000
,
2200
0000
3300
0022
0000
0033
2200
3300
,
2200
3300
0011
0000
0011
0101
1010
0110
,
0000
0000
0000
0000
,
0000
0000
0000
0000
,
0000
0000
0000
0000
,
0000
0000
0000
0000
,
0000
0000
0000
0000
,
0000
0000
0000
0000
,
0000
0000
0000
0000
,
MMMM
0000
0000
0000
,
1000
0100
0010
0001
1000
0010
1000
0100
0010
0001
0100
0001
,
0010
0100
1000
0001
0100
0001
1000
0010
1000
0010
0100
0001
,
1000
0001
1000
0100
1000
0001
0010
0100
0010
0001
1000
0010
,
1000
0100
0010
0001
0010
0100
1000
0010
1000
0010
0100
0001
,
1000
0001
0010
0100
0010
0100
1000
0010
0100
0010
0100
0001
,
1000
0100
1000
0001
0010
0100
1000
0001
0100
0001
1000
0010
,
1000
0010
0100
0001
0010
0100
1000
0001
0100
0001
1000
0001
,
1000
0001
1000
0010
1000
0100
0010
0001
0100
0001
0100
0001
,
0010
0100
1000
0100
1000
0010
0100
0001
0100
0001
0010
0001
,
0010
0100
1000
0010
0100
0001
0010
0100
0010
0001
0010
0001
,
1000
0010
1000
0010
0100
0001
0010
0100
1000
0100
0010
0001
,
1000
0010
1000
0001
1000
0001
1000
0001
0100
0001
1000
0001
,
1000
0100
1000
0001
0010
0001
0010
0100
1000
0100
1000
0010
,
1000
0010
0100
0001
0010
0001
0010
0100
1000
0001
0100
0001
,
1000
0001
1000
0010
1000
0100
0010
0001
0010
0001
1000
0010
,
0100
0001
0010
0100
1000
0010
0100
0001
1000
0100
0010
0001
,
4000
3010
0100
0001
1000
0100
4000
3001
0010
0100
1000
0010
,
0400
0301
0010
0100
1000
0001
0400
0301
1000
0010
0100
0001
,
0040
0130
1000
0001
0100
0001
4000
3010
0100
0001
0010
0100
,
4000
3001
0100
0001
1000
0010
0400
0301
1000
0100
1000
0001
,
0040
0130
1000
0010
0100
0001
4000
3100
1000
0010
0100
0001
,
4000
0000
3100
0000
1000
0000
0010
0000
0100
0000
0001
0000
0400
0000
0000
0301
0000
0000
0010
0000
0000
0001
0000
0000
,
4000
3010
1000
0010
4000
3100
0010
0001
,
0040
0130
1000
0001
4000
3010
0100
0001
,
4000
3100
1000
0001
0010
0100
1000
0001
,
0400
0301
1000
0001
0040
0130
1000
0001
,
4000
3010
0100
0001
0040
0130
1000
0001
,
0400
0301
0010
0100
4000
3001
1000
0010
,
0400
0000
0301
0000
0010
0000
0100
0000
1000
0000
0001
0000
,
0400
0000
0310
0000
1000
0000
0100
0000
0010
0000
0100
0000
,
4000
0000
3001
0000
0100
0000
0001
0000
1000
0000
0010
0000
,
4000
0000
3100
0000
0010
0000
0001
0000
1000
0000
0001
0000
,
0400
0000
0301
0000
0010
0000
0400
0000
1300
0000
0001
0000
,
4000
0000
3010
0000
0100
0000
0001
0000
1000
0000
0100
0000
,
1000
0000
0001
0000
0010
0000
0100
0000
1000
0000
0010
0000
,
0400
0000
0301
0000
1000
0000
0400
0000
1300
0000
0010
0000
,
0400
0000
0301
0000
0010
0000
0100
0000
1000
0000
0001
0000
,
0100
0000
0010
0000
1000
0000
0400
0000
0310
0000
0001
0000
,
4000
0000
3010
0000
0100
0000
0004
0000
1003
0000
0100
0000
,
4000
0000
3010
0000
0100
0000
0004
0000
0013
0000
0100
0000
,
4000
0000
3010
0000
0100
0000
0004
0000
1003
0000
0100
0000
,
0040
0031
1000
0010
,
0100
0001
0010
0100
,
1000
0001
0400
0301
,
1000
0010
0100
0001
,
0010
0100
1000
0001
,
0100
0001
1000
0010
,
0100
0001
4000
0010
,
3110
0000
0000
0000
,
0000
0000
0000
0000
,
0000
0000
0000
0000
,
0000
0000
0000
0000
,
MMMM
0000
0000
0000
;

//---------------dance-single - Easy----------------
#NOTES:
     dance-single:
     Easy:
     Medium:
     16:
     1.000,1.000,0.664,0.803,1.000,1463.000,119.000,144.000,49.000,2.000:
0000
0000
0000
0000
,
0022
0000
0033
0202
0000
0003
0302
0003
,
0022
0000
0033
2200
0000
0300
0002
3003
,
0220
0000
0330
0202
0000
0300
0023
0000
,
0230
0000
0300
2200
0000
3300
2020
3030
,
0102
0000
0000
0023
0000
0030
0220
0330
,
2200
0000
3300
0102
0000
0003
2002
3000
,
2000
0000
0003
3200
0000
0300
0220
0330
,
0022
0000
0033
0202
0000
0303
0020
0030
,
2020
0000
0000
0000
,
3130
0M00
00M0
000M
,
M000
000M
0M00
00M0
,
M000
0M00
M000
000M
,
00M0
M000
00M0
0M00
0M00
0M00
0M00
00M0
,
0000
M000
0M00
00M0
000M
0000
00M0
M000
,
0M00
00M0
000M
0M00
00M0
M000
000M
00M0
,
0M00
M000
000M
0M00
00M0
00M0
00M0
00M0
,
1000
0100
0010
0001
1000
0010
0100
0001
,
0010
0001
1000
0100
0010
0001
1000
0010
,
0100
0001
0010
0001
1000
0100
0010
0001
,
1000
0010
0100
0001
0010
0001
1000
0100
,
0010
0001
1000
0010
1000
0100
0010
0001
,
0100
0001
0010
0100
1000
0001
0100
0001
,
1000
0100
0010
0001
1000
0010
0100
0001
0010
0001
1000
0100
0010
0001
1000
0100
,
1000
0001
0010
0100
1000
0010
0100
0001
1000
0001
0010
0001
1000
0100
0010
0001
,
1000
0100
1000
0010
0100
0001
0010
0100
,
0010
0001
1000
0010
0100
0001
0010
0100
,
0010
0001
1000
0010
0100
0010
1000
0100
,
0010
0001
0100
0010
0100
0001
0010
0100
,
0010
0001
1000
0010
0100
0001
1000
0100
,
1000
0010
0100
0001
1000
0100
1000
0010
,
0100
0001
0010
0100
1000
0001
0100
0001
1000
0010
0100
0001
0010
0100
1000
0001
,
0100
0001
1000
0010
1000
0100
0010
0001
0100
0001
1000
0100
1000
0010
0100
0001
,
2000
0000
3000
0220
0000
0330
0022
0033
,
0202
0000
0303
2020
0000
3030
0220
0330
,
0202
0000
0303
2002
0000
3003
2020
3030
,
0220
0000
0330
0202
0000
0303
2002
3003
,
0022
0000
0033
2200
0000
3300
2020
3030
,
2002
0000
3003
0202
0000
0303
0022
0033
,
1000
0100
0010
0001
1000
0000
0010
0100
0001
1000
0100
0000
0010
0001
1000
0100
,
1000
0010
0100
0001
0010
0000
0100
1000
0010
0100
0001
0000
0010
0100
1000
0001
,
0100
0001
0010
0100
1000
0000
0001
0100
0010
1000
0100
0000
0010
0001
1000
0100
,
1000
0010
0100
0001
0010
0000
0100
1000
0001
0100
0001
0000
1000
0100
0010
0001
,
1000
0010
0100
0001
0010
0000
0100
1000
0001
0100
0001
0000
1000
0100
0010
0001
,
1000
0010
0100
0001
1000
0000
0100
1000
0010
0100
0001
0000
0010
0100
1000
0001
,
0100
0001
1000
0100
0010
0000
0001
1000
0100
1000
0010
0000
0100
0001
0010
0100
,
1000
0001
1000
0100
0010
0000
0001
1000
0100
1000
0010
0000
0100
0001
0010
0100
,
1000
0001
0100
0001
1000
0001
0100
0010
1000
0100
1000
0010
0100
0001
0010
0100
,
2000
0001
0001
0000
,
3001
0000
1000
0000
0100
0000
1000
0000
0001
0000
0100
0000
0001
0000
0010
0100
,
1000
0000
0001
0000
0100
0000
0001
0000
1000
0000
0010
0000
1000
0100
1000
0001
,
0100
0000
0010
0000
1000
0000
0100
0000
0010
0000
0100
0000
1000
0000
0010
0100
,
0001
0000
0010
0000
0100
0000
1000
0000
0100
0000
0010
0000
0001
1000
0010
1000
,
0100
0000
0010
0000
0100
0000
1000
0000
0001
0000
0100
0000
0001
0000
1000
0001
,
1000
0000
0100
0000
0010
0000
0001
0000
0100
0000
0001
0000
0100
0010
1000
0010
,
0100
0001
0010
0100
1000
0010
0100
0001
1000
0100
0010
0001
1000
0010
0100
0001
,
0010
0100
1000
0010
0100
0001
1000
0100
0010
0001
1000
0010
0100
0001
0010
0100
,
1000
0000
0001
0000
1000
0000
0010
0000
1000
0000
0100
0000
0010
0000
0001
1000
,
0010
0000
0100
0000
0010
0000
0100
0000
0010
0000
0100
0000
0001
0010
0100
1000
,
0001
0000
0100
0000
0001
0000
1000
0000
0100
0000
1000
0000
0010
0000
0100
0001
,
0010
0000
0100
0000
1000
0000
0001
0000
0100
0000
0001
0000
1000
0010
1000
0010
,
0100
0000
0001
0000
1000
0000
0100
0000
1000
0000
0001
0000
0010
0000
0001
1000
,
0010
0000
0100
0000
0001
0000
0010
0000
0100
0000
1000
0000
0001
1000
0010
0100
,
0001
1000
0100
0010
0001
1000
0010
0100
0001
0010
0100
1000
0001
0100
0010
1000
,
0100
0010
0001
1000
0100
0010
0001
1000
0010
0100
0001
0010
0100
1000
0010
0100
,
0001
1000
0100
1000
0010
0100
0001
0010
0100
1000
0001
0100
0010
1000
0100
1000
,
0010
0100
0001
0010
0100
1000
0001
0100
0001
1000
0100
1000
0010
0100
0001
0010
,
0001
1000
0001
0100
0010
1000
0100
1000
0001
1000
0010
0100
0001
0010
0100
0010
,
0001
1000
0001
0100
0010
1000
0100
1000
0010
0100
0001
0100
0010
1000
0100
0010
,
0001
1000
0100
1000
0001
0100
0010
1000
0100
0010
0001
1000
0100
1000
0001
0010
,
0100
1000
0001
0100
0001
1000
0100
0010
0001
1000
0010
1000
0001
0100
0010
1000
,
0100
0010
0001
1000
0010
0100
0001
0010
0001
1000
0100
0010
0001
1000
0100
1000
,
0010
0100
0001
0010
0100
0010
0001
1000
0100
0010
0001
1000
0100
1000
0001
0100
,
0001
1000
0010
0100
0001
0010
0100
1000
0001
0100
0001
1000
0100
0010
0001
1000
,
0220
0000
0330
1010
2002
3003
2020
3030
,
0202
0000
0303
0011
0202
0303
2002
3003
,
2200
0000
3300
0110
0022
0033
0022
0033
,
0202
0000
0303
1010
0202
0303
2002
3003
,
2200
0000
3300
1001
0202
0303
2002
3003
,
2200
0000
3300
0220
0000
0330
0022
0033
,
0202
0000
0303
0220
0000
0330
1001
1001
,
2001
0000
3001
0000
0100
0000
0001
0000
1000
0000
0010
0000
1000
0000
0100
0010
,
0001
0000
1000
0000
0010
0000
1000
0000
0100
0000
0010
0000
0001
1000
0010
0100
,
0001
0000
1000
0000
0100
0000
1000
0000
0010
0000
0100
0000
0001
0000
1000
0100
,
0010
0000
0001
0000
1000
0000
0010
0000
1000
0000
0100
0000
0010
0001
0100
0001
,
0010
0000
0100
0000
1000
0000
0010
0000
1000
0000
0100
0000
0010
0000
0001
0100
,
0001
0000
1000
0000
0010
0000
0100
0000
0001
0000
0100
0000
0001
1000
0100
1000
,
0001
0000
0010
0000
0100
0000
1000
0000
0001
0000
0100
0000
0001
0000
1000
0010
,
0100
0000
0001
0000
0100
0000
0010
0000
1000
0000
0100
0000
0010
0001
0010
0100
,
1000
0000
0001
0000
0100
0000
0001
0000
1000
0000
0010
0000
1000
0000
0001
1000
,
0100
0000
0010
0000
0001
0000
1000
0000
0010
0000
1000
0000
0100
0010
0100
1000
,
0001
0000
1000
0000
0010
0000
1000
0000
0010
0000
0100
0000
0001
0000
1000
0100
,
0010
0000
0100
0000
1000
0000
0001
0000
0100
0000
0001
0000
1000
0010
0100
0001
,
0010
0000
0100
0000
1000
0000
0001
0000
0100
0000
0001
0000
1000
0000
0100
1000
,
0001
0000
0010
0000
0100
0000
0010
0000
0001
0000
0100
0000
0001
1000
0010
0100
,
0001
0000
0010
0000
0100
0000
1000
0000
0100
0000
0010
0000
0001
0000
1000
0001
,
0100
0000
0010
0000
1000
0000
0100
0000
0010
0000
0100
0000
1000
0010
0100
0001
,
0010
0000
0100
0000
1000
0000
0001
0000
0100
0000
0001
0000
,
1000
0000
0010
0000
0100
0000
0001
0000
1000
0000
0100
0000
,
1000
0000
0010
0000
0100
0000
0001
0000
1000
0000
0100
0000
,
1000
0000
0001
0000
1000
0000
0010
0000
1000
0000
0100
0000
,
0010
0000
0001
0000
0100
0000
0001
0000
1000
0000
0001
0000
,
0010
0000
0100
0000
1000
0000
0100
0000
0010
0000
0001
0000
,
1000
0000
0010
0000
0100
0000
0001
0000
0100
0000
0010
0000
,
1000
0000
0100
0000
0010
0000
0100
0000
1000
0000
0100
0000
,
0010
0000
0100
0000
1000
0000
0001
0000
0010
0000
0100
0000
,
0010
0000
0001
0000
0010
0000
0100
0000
0010
0000
0001
0000
,
1000
0000
0001
0000
0100
0000
0010
0000
1000
0000
0100
0000
,
0010
0000
0001
0000
1000
0000
0001
0000
0100
0000
0010
0000
,
1000
0000
0100
0000
0010
0000
0100
0000
1000
0000
0001
0000
,
0100
0000
0001
0000
0010
0000
0100
0000
1000
0000
0010
0000
,
1000
0000
0100
0000
0010
0000
0001
0000
0100
0000
0001
0000
,
1000
0000
0001
0000
0010
0000
0100
0000
1000
0000
0010
0000
,
0100
0000
0001
0000
1000
0000
0100
0000
1000
0000
0001
0000
,
0010
0000
0100
0000
1000
0000
0001
0000
0100
0000
0001
0000
,
1000
0000
0010
0000
1000
0000
0100
0000
0010
0000
0001
0000
,
0100
0000
0001
0000
1000
0000
0001
0000
0010
0000
0100
0000
,
1000
0000
0001
0000
0100
0000
0001
0000
1000
0000
0100
0000
,
1000
0000
0010
0000
0100
0000
0001
0000
1000
0000
0001
0000
,
0100
0000
0001
0000
0010
0000
0100
0000
1000
0000
0010
0000
,
1000
0000
0100
0000
0010
0000
0001
0000
0100
0000
0001
0000
,
1000
0000
0001
0000
0010
0000
0100
0000
1000
0000
0010
0000
,
1000
0000
0100
0000
0010
0000
0001
0000
0100
0000
0001
0000
,
1000
0000
0001
0000
0010
0000
0100
0000
1000
0000
0010
0000
,
0100
0000
0001
0000
1000
0000
0100
0000
1000
0000
0001
0000
,
1000
0010
0100
0001
1000
0100
1000
0001
,
0010
0100
0010
0001
1000
0010
1000
0001
,
0100
0001
1000
0001
0010
0001
1000
0100
,
0010
0001
1000
0010
0100
0001
1000
0001
,
0200
0320
2030
3200
,
0320
0032
0203
0300
,
2020
3030
0000
0202
0303
0000
2002
3003
,
2002
0000
0000
3003
,
2222
0000
0000
0000
,
3333
0000
0000
0000
,
2200
0000
3300
0022
0000
0033
2200
3300
,
2200
3300
0011
0000
0011
0101
1010
0110
,
0000
0000
0000
0000
,
0000
0000
0000
0000
,
0000
0000
0000
0000
,
0000
0000
0000
0000
,
0000
0000
0000
0000
,
0000
0000
0000
0000
,
0000
0000
0000
0000
,
MMMM
0000
0000
0000
,
1000
0010
0100
0001
0010
0100
1000
0001
0100
0010
1000
0100
,
1000
0001
0010
0100
0010
0001
1000
0001
0100
0001
0010
0001
,
1000
0010
0100
0001
1000
0100
1000
0010
0100
0001
0010
0001
,
1000
0010
1000
0100
0010
0001
0100
0001
1000
0100
1000
0010
,
0100
0001
0010
0100
1000
0001
0100
0001
1000
0100
0010
0001
,
1000
0010
1000
0100
0010
0001
0100
0001
1000
0001
0010
0100
,
0010
0001
1000
0100
0010
0100
1000
0010
0100
0001
1000
0100
,
1000
0010
0100
0001
0010
0100
1000
0001
0100
0001
1000
0100
,
1000
0001
0010
0100
1000
0001
0100
0001
1000
0010
1000
0100
0010
0001
0100
0001
,
1000
0001
0010
0100
0010
0001
1000
0010
0100
0001
1000
0100
1000
0001
0010
0100
,
1000
0010
0100
0001
1000
0100
1000
0001
0100
0001
1000
0001
0100
0001
0010
0100
,
1000
0010
1000
0100
0010
0001
0100
0001
1000
0001
0010
0100
1000
0001
0100
0001
,
1000
0010
1000
0100
0010
0100
1000
0001
0100
0001
0010
0100
1000
0001
0100
0001
,
1000
0010
1000
0100
0010
0001
0100
0001
1000
0001
0010
0001
1000
0010
1000
0100
,
0010
0100
1000
0001
0100
0001
1000
0010
0100
0001
0010
0001
1000
0010
1000
0100
,
0010
0001
0100
0001
1000
0100
1000
0010
0100
0001
0010
0100
1000
0001
0100
0001
,
4000
3010
0100
0001
1000
0100
4000
3001
0010
0100
1000
0010
,
0400
0301
0010
0100
1000
0001
0400
0301
1000
0010
0100
0001
,
0040
0130
1000
0001
0100
0001
4000
3010
0100
0001
0010
0100
,
4000
3001
0100
0001
1000
0010
0400
0301
1000
0100
1000
0001
,
0040
0130
1000
0010
0100
0001
4000
3100
1000
0010
0100
0001
,
4000
0000
3100
0000
1000
0000
0010
0000
0100
0000
0001
0000
0400
0000
0000
0301
0000
0000
0010
0000
0000
0001
0000
0000
,
4000
3010
1000
0010
4000
3100
0010
0001
,
0040
0130
1000
0001
4000
3010
0100
0001
,
4000
3100
1000
0001
0010
0100
1000
0001
,
0400
0301
1000
0001
0040
0130
1000
0001
,
4000
3010
0100
0001
0040
0130
1000
0001
,
0400
0301
0010
0100
4000
3001
1000
0010
,
0400
0000
0301
0000
0010
0000
0100
0000
1000
0000
0001
0000
,
0400
0000
0310
0000
1000
0000
0100
0000
0010
0000
0100
0000
,
4000
0000
3001
0000
0100
0000
0001
0000
1000
0000
0010
0000
,
4000
0000
3100
0000
0010
0000
0001
0000
1000
0000
0001
0000
,
0400
0000
0301
0000
0010
0000
0400
0000
1300
0000
0001
0000
,
4000
0000
3010
0000
0100
0000
0001
0000
1000
0000
0100
0000
,
1000
0000
0001
0000
0010
0000
0100
0000
1000
0000
0010
0000
,
0400
0000
0301
0000
1000
0000
0400
0000
1300
0000
0010
0000
,
0400
0000
0301
0000
0010
0000
0100
0000
1000
0000
0001
0000
,
0100
0000
0010
0000
1000
0000
0400
0000
0310
0000
0001
0000
,
4000
0000
3010
0000
0100
0000
0004
0000
1003
0000
0100
0000
,
4000
0000
3010
0000
0100
0000
0004
0000
0013
0000
0100
0000
,
4000
0000
3010
0000
0100
0000
0004
0000
1003
0000
0100
0000
,
0040
0031
1000
0010
,
0100
0001
0010
0100
,
1000
0001
0400
0301
,
1000
0010
0100
0001
,
0010
0100
1000
0001
,
0100
0001
1000
0010
,
0100
0001
4000
0010
,
3110
0000
0000
0000
,
0000
0000
0000
0000
,
0000
0000
0000
0000
,
0000
0000
0000
0000
,
MMMM
0000
0000
0000
;

//---------------dance-single - Medium----------------
#NOTES:
     dance-single:
     Medium:
     Hard:
     18:
     1.000,1.000,0.430,0.430,1.000,1825.000,77.000,77.000,49.000,8.000:
0000
0000
0000
0000
,
0022
0000
0033
0202
0000
0003
0302
0003
,
0022
0000
0033
2200
0000
0300
0002
3003
,
0220
0000
0330
0202
0000
0300
0023
0000
,
0230
0000
0300
2200
0000
3300
2020
3030
,
0102
0000
0000
0023
0000
0030
0220
0330
,
2200
0000
3300
0102
0000
0003
2002
3000
,
2000
0000
0003
3200
0000
0300
0220
0330
,
0022
0000
0033
0202
0000
0303
0020
0030
,
2020
0000
0000
0000
,
3130
0M00
00M0
000M
,
M000
000M
0M00
00M0
,
M000
0M00
M000
000M
,
00M0
M000
00M0
0M00
0M00
0M00
0M00
00M0
,
0000
M000
0M00
00M0
000M
0000
00M0
M000
,
0M00
00M0
000M
0M00
00M0
M000
000M
00M0
,
0M00
M000
000M
0M00
00M0
00M0
00M0
00M0
,
1000
0100
0010
0001
1000
0010
0100
0001
,
0010
0001
1000
0100
0010
0001
1000
0010
,
0100
0001
0010
0001
1000
0100
0010
0001
,
1000
0010
0100
0001
0010
0001
1000
0100
,
0010
0001
1000
0010
1000
0100
0010
0001
,
0100
0001
0010
0100
1000
0001
0100
0001
,
1000
0100
0010
0001
1000
0010
0100
0001
0010
0001
1000
0100
0010
0001
1000
0100
,
1000
0001
0010
0100
1000
0010
0100
0001
1000
0001
0010
0001
1000
0100
0010
0001
,
1000
0100
1000
0010
0100
0001
0010
0100
,
0010
0001
1000
0010
0100
0001
0010
0100
,
0010
0001
1000
0010
0100
0010
1000
0100
,
0010
0001
0100
0010
0100
0001
0010
0100
,
0010
0001
1000
0010
0100
0001
1000
0100
,
1000
0010
0100
0001
1000
0100
1000
0010
,
0100
0001
0010
0100
1000
0001
0100
0001
1000
0010
0100
0001
0010
0100
1000
0001
,
0100
0001
1000
0010
1000
0100
0010
0001
0100
0001
1000
0100
1000
0010
0100
0001
,
1000
0100
1000
0010
0100
0001
0010
0100
1000
0001
0100
0001
1000
0100
0010
0001
,
1000
0010
0100
0001
0010
0001
1000
0100
0010
0001
1000
0010
0100
0001
0010
0001
,
1000
0100
0010
0100
1000
0010
0100
0001
1000
0100
1000
0010
0100
0001
0010
0100
,
1000
0001
0100
0001
1000
0100
0010
0001
1000
0010
0100
0001
0010
0001
1000
0100
,
0010
0001
1000
0010
0100
0010
1000
0100
1000
0001
0100
0010
1000
0100
0010
0001
,
0100
0001
0010
0100
1000
0010
0100
0001
1000
0100
1000
0010
0100
0001
0010
0100
,
1000
0100
0010
0001
1000
0000
0010
0100
0001
1000
0100
0000
0010
0001
1000
0010
,
0100
0001
0010
0100
1000
0000
0001
1000
0010
1000
0100
0000
0010
0001
1000
0010
,
0100
0001
0010
0100
1000
0000
0001
1000
0010
0100
0001
0000
0010
0100
1000
0100
,
0010
0001
1000
0010
1000
0000
0100
0010
0001
0100
0001
0000
1000
0100
1000
0010
,
0100
0001
0010
0100
1000
0000
0001
1000
0100
1000
0010
0000
0100
0001
1000
0100
,
1000
0010
0100
0001
0010
0000
0100
1000
0001
0100
0001
0000
1000
0010
0100
0001
,
0010
0100
1000
0001
0100
0000
0010
1000
0100
1000
0010
0000
0100
0001
1000
0100
,
1000
0001
0010
0100
1000
0000
0001
0100
0001
1000
0010
0000
0100
0001
0010
0100
,
1000
0001
0100
0001
1000
0000
0010
0100
0001
1000
0100
0000
0010
0001
1000
0001
,
0200
0001
0001
0000
,
0301
1000
0100
1000
0010
0100
0001
0010
0100
1000
0001
0100
0001
1000
0100
0010
,
0001
1000
0010
1000
0100
1000
0010
0100
0001
0010
0100
1000
0001
0100
0001
1000
,
0100
0010
0001
1000
0010
0100
0001
0010
0001
1000
0100
0010
0001
1000
0010
0100
,
0001
1000
0100
1000
0010
0100
0001
0010
0100
0010
0001
1000
0100
0010
0001
1000
,
0100
1000
0010
0100
0001
0010
0100
1000
0001
0100
0001
1000
0100
0010
0001
1000
,
0001
0100
0001
0010
0100
1000
0010
0100
0001
1000
0100
0010
0100
1000
0010
0100
,
0001
1000
0100
1000
0010
0100
0001
0010
0100
1000
0001
0100
0001
1000
0100
0010
,
0001
1000
0010
0100
0001
0010
0100
0010
0001
1000
0100
0010
0001
1000
0010
0100
,
0001
1000
0100
1000
0010
0100
0001
0010
0100
1000
0001
0100
0001
1000
0100
0010
,
0001
1000
0010
0100
0001
1000
0100
1000
0010
0100
0001
0010
0100
1000
0001
0100
,
0001
1000
0100
1000
0010
0100
0001
1000
0100
0010
0001
1000
0010
0100
0001
0010
,
0001
1000
0100
0010
0001
1000
0010
0100
0001
1000
0100
1000
0001
0100
0010
1000
,
0100
0010
0001
1000
0100
1000
0010
0100
0001
0010
0100
1000
0001
0100
0001
1000
,
0100
0010
0001
1000
0010
0100
0001
1000
0100
1000
0010
0100
0001
1000
0100
0010
,
0001
1000
0010
0100
0001
1000
0010
0100
0001
0010
0100
1000
0001
0100
0010
1000
,
0100
0010
0001
1000
0100
0010
0001
1000
0010
0100
0001
0010
0100
1000
0010
0100
,
0001
1000
0100
1000
0010
0100
0001
0010
0100
1000
0001
0100
0001
1000
0100
0010
,
0001
1000
0010
0100
0010
1000
0100
0010
0001
0100
0001
0010
0100
1000
0001
0100
,
0001
1000
0100
0010
0001
1000
0100
1000
0010
0100
0001
0010
0100
1000
0001
0100
,
0001
1000
0100
0010
0001
1000
0010
1000
0100
1000
0010
0100
0001
0010
0100
1000
,
0001
0100
0001
1000
0100
0010
0001
1000
0010
0100
0001
0010
0100
1000
0001
0100
,
0001
1000
0100
0010
0100
1000
0010
0100
0001
0010
0001
1000
0100
0010
0001
1000
,
0100
1000
0001
0100
0010
1000
0100
0010
0001
1000
0100
1000
0001
0100
0010
1000
,
0001
0100
0010
1000
0100
1000
0010
0100
0001
0010
0100
1000
0001
0100
0001
1000
,
0100
0010
0001
1000
0010
1000
0100
1000
0010
0100
0001
0010
0100
1000
0001
0100
,
0001
1000
0100
0010
0001
1000
0010
1000
0100
1000
0010
0100
0001
0010
0100
1000
,
0001
0100
0001
1000
0100
0010
0001
1000
0010
1000
0100
1000
0010
0100
0001
0010
,
0100
0010
0001
1000
0100
0010
0100
1000
0010
0100
0001
1000
0100
1000
0010
0100
,
0001
0010
0100
1000
0001
0100
0001
1000
0100
0010
0001
1000
0010
1000
0100
1000
,
0010
0100
0001
0010
0100
1000
0001
0100
0001
1000
0100
0010
0001
1000
0010
1000
,
0100
1000
0010
0100
0001
0010
0100
1000
0001
0100
0001
1000
0100
0010
0001
1000
,
0010
1000
0100
0010
0001
1000
0010
0100
0001
1000
0010
0000
0101
0000
1001
0000
,
2001
0000
3001
0000
0100
0000
0001
0000
1000
0000
0010
0000
1000
0000
0100
0010
,
0001
0000
1000
0000
0010
0000
1000
0000
0100
0000
0010
0000
0001
1000
0010
0100
,
0001
0000
1000
0000
0100
0000
1000
0000
0010
0000
0100
0000
0001
0000
1000
0100
,
0010
0000
0001
0000
1000
0000
0010
0000
1000
0000
0100
0000
0010
0001
0100
0001
,
0010
0000
0100
0000
1000
0000
0010
0000
1000
0000
0100
0000
0010
0000
0001
0100
,
0001
0000
1000
0000
0010
0000
0100
0000
0001
0000
0100
0000
0001
1000
0100
1000
,
0001
1000
0100
0010
0100
1000
0010
0100
0001
0010
0100
1000
0001
0100
0001
1000
,
0010
1000
0100
0010
0001
0100
0001
1000
0001
0010
0100
1000
0001
0100
0001
1000
,
0001
0000
0101
0000
0100
0000
0001
0000
1000
0000
0010
0000
1000
0000
0001
1000
,
0100
0000
0010
0000
0001
0000
1000
0000
0010
0000
1000
0000
0100
0010
0100
1000
,
0001
0000
1000
0000
0010
0000
1000
0000
0010
0000
0100
0000
0001
0000
1000
0100
,
0010
0000
0100
0000
1000
0000
0001
0000
0100
0000
0001
0000
1000
0010
0100
0001
,
0010
0000
0100
0000
1000
0000
0001
0000
0100
0000
0001
0000
1000
0000
0100
1000
,
0001
0000
0010
0000
0100
0000
0010
0000
0001
0000
0100
0000
0001
1000
0010
0100
,
0001
0010
0100
1000
0001
0100
0001
1000
0010
0100
0001
0010
0100
1000
0001
0100
,
0010
1000
0100
0010
0100
1000
0001
0010
0100
1000
0010
0100
0001
1000
0100
1000
,
0001
1000
0010
1000
0100
0010
0001
0100
,
0001
1000
0001
0010
0001
1000
0010
1000
,
0100
0010
0001
0100
0001
0010
0100
1000
,
0001
0100
0001
1000
0010
0100
0001
0010
,
0100
1000
0001
0100
0001
1000
0010
1000
,
0100
0010
0001
0100
0001
0010
0100
1000
,
0001
0100
0001
1000
0010
0100
0001
0010
,
0100
0010
0001
1000
0010
1000
0100
0010
,
0001
0100
0001
0010
0100
1000
0001
0100
,
0001
1000
0010
1000
0100
0010
0001
0100
,
0001
0010
0100
1000
0001
0100
0001
1000
,
0010
1000
0100
0010
0001
0100
0001
0010
,
0100
1000
0001
0100
0001
1000
0010
1000
,
0100
0010
0001
0100
0001
0010
0100
1000
,
0010
0100
0001
0010
0100
1000
0001
0100
,
0001
1000
0010
1000
0100
0010
0001
0100
,
0001
0010
0100
1000
0010
0100
0001
1000
,
0100
1000
0001
0100
0001
1000
0010
0100
,
0001
0010
0001
1000
0010
1000
0010
0100
,
0001
1000
0100
1000
0001
0010
0100
1000
,
0001
0100
0001
1000
0010
1000
0100
0010
,
0001
0100
0001
0010
0100
1000
0001
0100
,
0001
1000
0010
1000
0100
0010
0001
0100
,
0001
1000
0001
0010
0100
1000
0001
0100
,
0001
1000
0010
1000
0100
0010
0001
0100
,
0001
0010
0100
1000
0010
0100
0001
1000
,
0100
1000
0001
0100
0001
1000
0010
1000
,
0001
0010
0001
1000
0010
0100
0001
1000
,
0001
1000
0100
0010
0100
1000
0010
0100
,
0001
1000
0100
1000
0010
1000
0100
0010
,
0001
0100
0001
1000
0001
0010
0001
1000
,
0010
0100
0001
1000
0100
1000
0001
1000
,
0020
0230
0302
2003
,
3200
0320
0032
0003
,
2020
3030
0000
0202
0303
0000
2002
3003
,
2002
0000
0000
3003
,
2222
0000
0000
0000
,
3333
0000
0000
0000
,
2222
0000
3333
2222
0000
3333
2222
3333
,
2222
3333
1111
0000
0011
0101
1010
1101
,
0000
0000
0000
0000
,
0000
0000
0000
0000
,
0000
0000
0000
0000
,
0000
0000
0000
0000
,
0000
0000
0000
0000
,
0000
0000
0000
0000
,
0000
0000
0000
0000
,
MMMM
0000
0000
0000
,
1000
0010
0100
0001
1000
0100
1000
0001
0100
0001
0010
0100
1000
0010
0100
0001
,
0010
0001
1000
0010
0100
0001
1000
0100
1000
0010
0100
0001
0010
0001
1000
0010
,
0100
0001
1000
0100
1000
0001
0010
0001
1000
0100
0010
0001
1000
0100
0010
0001
,
1000
0010
1000
0100
0010
0001
0100
0001
0010
0100
1000
0001
0010
0100
1000
0001
,
0100
0001
1000
0010
1000
0100
0010
0001
0100
0001
0010
0100
1000
0001
0100
0001
,
1000
0010
0100
0001
1000
0100
1000
0010
0100
0001
0010
0100
1000
0001
0100
0001
,
0010
0100
1000
0001
0100
0001
1000
0010
1000
0100
0010
0001
0100
0001
1000
0001
,
0010
0100
1000
0001
0100
0001
1000
0010
0100
0001
0010
0100
1000
0001
0100
0001
,
1000
0001
0010
0100
1000
0001
0100
0001
1000
0010
1000
0100
0010
0001
0100
0001
,
1000
0001
0010
0100
0010
0001
1000
0010
0100
0001
1000
0100
1000
0001
0010
0100
,
1000
0010
0100
0001
1000
0100
1000
0001
0100
0001
1000
0001
0100
0001
0010
0100
,
1000
0010
1000
0100
0010
0001
0100
0001
1000
0001
0010
0100
1000
0001
0100
0001
,
1000
0010
1000
0100
0010
0100
1000
0001
0100
0001
0010
0100
1000
0001
0100
0001
,
1000
0010
1000
0100
0010
0001
0100
0001
1000
0001
0010
0001
1000
0010
1000
0100
,
0010
0100
1000
0001
0100
0001
1000
0010
0100
0001
0010
0001
1000
0010
1000
0100
,
0010
0001
0100
0001
1000
0100
1000
0010
0100
0001
0010
0100
1000
0001
0100
0001
,
4000
3010
0100
0001
1000
0100
1000
0001
0400
0301
0010
0100
1000
0001
0100
0001
,
4000
3010
0100
0001
1000
0100
1000
0001
4000
3100
1000
0010
0100
0001
1000
0100
,
0040
0130
1000
0001
0100
0001
4000
3010
0100
0001
0010
0100
,
4000
3001
0100
0001
1000
0010
0400
0301
1000
0100
1000
0001
,
0040
0130
1000
0010
0100
0001
4000
3100
1000
0010
0100
0001
,
4000
3100
1000
0010
0100
0001
4000
3010
0100
0001
1000
0100
,
4000
0000
3010
0000
0100
0000
0001
0000
0010
0000
0100
0000
4000
0000
3000
0100
0000
0000
0010
0000
0000
0001
0000
0000
,
0040
0130
1000
0001
4000
3010
0100
0001
,
4000
3100
1000
0001
0010
0100
1000
0001
,
0400
0301
1000
0001
0040
0130
1000
0001
,
4000
3010
0100
0001
0040
0130
1000
0001
,
0400
0301
0010
0100
4000
3001
1000
0010
,
0400
0000
0301
0000
0010
0000
0100
0000
1000
0000
0001
0000
,
0400
0000
0310
0000
1000
0000
0100
0000
0010
0000
0100
0000
,
4000
0000
3001
0000
0100
0000
0001
0000
1000
0000
0010
0000
,
4000
0000
3100
0000
0010
0000
0001
0000
1000
0000
0001
0000
,
0400
0000
0301
0000
0010
0000
0400
0000
1300
0000
0001
0000
,
4000
0000
3010
0000
0100
0000
0001
0000
1000
0000
0100
0000
,
1000
0000
0001
0000
0010
0000
0100
0000
1000
0000
0010
0000
,
0400
0000
0301
0000
1000
0000
0400
0000
1300
0000
0010
0000
,
0400
0000
0301
0000
0010
0000
0100
0000
1000
0000
0001
0000
,
0100
0000
0010
0000
1000
0000
0400
0000
0310
0000
0001
0000
,
4000
0000
3010
0000
0100
0000
0004
0000
1003
0000
0100
0000
,
4000
0000
3010
0000
0100
0000
0004
0000
0013
0000
0100
0000
,
4000
0000
3010
0000
0100
0000
0004
0000
1003
0000
0100
0000
,
0040
0031
1000
0010
,
0100
0001
0010
0100
,
1000
0001
0400
0301
,
1000
0010
0100
0001
,
0010
0100
1000
0001
,
0100
0001
1000
0010
,
0100
0001
4000
0010
,
3110
0000
0000
0000
,
0000
0000
0000
0000
,
0000
0000
0000
0000
,
0000
0000
0000
0000
,
MMMM
0000
0000
0000
;

//---------------dance-single - Hard----------------
#NOTES:
     dance-single:
     Hard:
     Challenge:
     22:
     1.000,1.000,0.190,0.424,1.000,1728.000,34.000,76.000,49.000,8.000:

0000
0000
0000
0000
,
0022
0000
0033
0202
0000
0003
0302
0003
,
0022
0000
0033
2200
0000
0300
0002
3003
,
0220
0000
0330
0202
0000
0300
0023
0000
,
0230
0000
0300
2200
0000
3300
2020
3030
,
0102
0000
0000
0023
0000
0030
0220
0330
,
2200
0000
3300
0102
0000
0003
2002
3000
,
2000
0000
0003
3200
0000
0300
0220
0330
,
0022
0000
0033
0202
0000
0303
0020
0030
,
2020
0000
0000
0000
,
3130
0M00
00M0
000M
,
M000
000M
0M00
00M0
,
M000
0M00
M000
000M
,
00M0
M000
00M0
0M00
0M00
0M00
0M00
00M0
,
0000
M000
0M00
00M0
000M
0000
00M0
M000
,
0M00
00M0
000M
0M00
00M0
M000
000M
00M0
,
0M00
M000
000M
0M00
00M0
00M0
00M0
00M0
,
1000
0100
0010
0001
1000
0010
0100
0001
,
0010
0001
1000
0100
0010
0001
1000
0010
,
0100
0001
0010
0001
1000
0100
0010
0001
,
1000
0010
0100
0001
0010
0001
1000
0100
,
0010
0001
1000
0010
1000
0100
0010
0001
,
0100
0001
0010
0100
1000
0001
0100
0001
,
1000
0100
0010
0001
1000
0010
0100
0001
0010
0001
1000
0100
0010
0001
1000
0100
,
1000
0001
0010
0100
1000
0010
0100
0001
1000
0001
0010
0001
1000
0100
0010
0001
,
1000
0100
1000
0010
0100
0001
0010
0100
,
0010
0001
1000
0010
0100
0001
0010
0100
,
0010
0001
1000
0010
0100
0010
1000
0100
,
0010
0001
0100
0010
0100
0001
0010
0100
,
0010
0001
1000
0010
0100
0001
1000
0100
,
1000
0010
0100
0001
1000
0100
1000
0010
,
0100
0001
0010
0100
1000
0001
0100
0001
1000
0010
0100
0001
0010
0100
1000
0001
,
0100
0001
1000
0010
1000
0100
0010
0001
0100
0001
1000
0100
1000
0010
0100
0001
,
1000
0100
1000
0010
0100
0001
0010
0100
1000
0001
0100
0001
1000
0100
0010
0001
,
1000
0010
0100
0010
1000
0100
0010
0001
1000
0100
1000
0001
0100
0001
0010
0100
,
1000
0001
0100
0001
1000
0010
0100
0001
0010
0100
1000
0010
0100
0001
1000
0100
,
0010
0001
1000
0010
0100
0001
0010
0001
1000
0100
0010
0001
1000
0100
1000
0010
,
0100
0001
0010
0100
0010
0001
1000
0100
0010
0001
1000
0010
0100
0010
1000
0100
,
0010
0001
0100
0001
0010
0100
1000
0001
0100
0001
1000
0100
0010
0001
1000
0010
,
0100
0001
0010
0001
1000
0100
0010
0001
0100
0001
0010
0100
1000
0001
1000
0010
,
0100
0001
1000
0100
1000
0010
1000
0100
0010
0001
0100
0001
1000
0001
0010
0100
,
1000
0001
0010
0100
1000
0010
0100
0001
1000
0100
1000
0010
0100
0001
0010
0100
,
1000
0001
0100
0001
1000
0100
0010
0001
1000
0010
0100
0010
1000
0100
0010
0001
,
1000
0001
0100
0001
0010
0100
1000
0010
0100
0001
1000
0100
1000
0001
1000
0010
,
1000
0100
0010
0001
1000
0010
0100
0001
1000
0100
1000
0010
0100
0001
0010
0100
,
1000
0100
0010
0001
1000
0100
1000
0001
0100
0001
1000
0010
0100
0001
0010
0001
,
1000
0100
0010
0001
1000
0010
0100
0010
1000
0100
0010
0001
0100
0010
1000
0100
,
1000
0010
0100
0001
0010
0100
1000
0100
0010
0001
1000
0100
1000
0010
0100
0001
,
0200
0001
0001
0000
,
0301
1000
0010
0100
0001
1000
0100
1000
0010
0100
0001
0010
0100
0010
0001
1000
,
0010
0100
0001
1000
0100
1000
0010
0100
0001
0010
0100
1000
0010
0100
0001
1000
,
0100
1000
0010
0100
0001
0010
0100
0010
0001
1000
0100
1000
0010
0100
0001
0010
,
0100
1000
0001
0100
0001
1000
0100
0010
0001
1000
0010
0100
0001
1000
0100
1000
,
0010
0100
0001
1000
0100
0010
0001
1000
0010
1000
0100
0010
0001
1000
0010
0100
,
0001
0010
0100
1000
0001
0100
0001
1000
0100
0010
0001
1000
0010
0100
0001
0010
,
0001
1000
0100
0010
0001
1000
0010
0100
0010
1000
0100
0010
0001
1000
0010
0100
,
0001
0010
0001
1000
0100
0010
0001
1000
0010
0100
0001
0010
0001
1000
0100
0010
,
0001
0100
0010
1000
0100
1000
0010
0100
0001
0010
0100
1000
0001
0100
0001
1000
,
0100
1000
0010
0100
0001
0010
0100
1000
0001
0100
0001
1000
0100
0010
0001
1000
,
0010
0100
0010
1000
0100
0010
0001
1000
0001
0100
0001
0010
0100
1000
0010
0100
,
0001
1000
0100
1000
0010
0100
0001
0010
0100
0010
0001
1000
0100
0010
0001
1000
,
0010
0100
0010
1000
0100
1000
0001
0100
0010
1000
0100
0010
0001
1000
0010
0100
,
0001
0010
0001
1000
0100
0010
0001
1000
0010
0100
0001
1000
0100
0010
0001
1000
,
0010
1000
0100
0010
0001
1000
0010
0100
0001
0010
0100
1000
0001
0100
0010
1000
,
0100
0010
0001
1000
0100
0010
0001
1000
0010
0100
0001
0010
0100
1000
0010
0100
,
0001
1000
0100
1000
0010
0100
0001
0010
0100
1000
0001
0100
0010
1000
0100
1000
,
0010
0100
0001
0010
0100
1000
0001
0100
0001
1000
0100
1000
0010
0100
0001
0010
,
0100
1000
0001
0100
0001
1000
0100
0010
0001
1000
0100
1000
0010
0100
0001
0010
,
0100
1000
0010
0100
0001
1000
0100
1000
0001
0100
0010
1000
0100
0010
0001
1000
,
0010
1000
0100
0010
0001
1000
0010
0100
0001
0010
0100
1000
0001
0100
0001
1000
,
0100
0010
0001
1000
0010
0100
0001
0010
0001
1000
0100
0010
0001
1000
0100
0010
,
0100
1000
0010
0100
0001
0010
0100
1000
0001
0100
0001
1000
0100
0010
0001
1000
,
0010
1000
0100
1000
0010
0100
0001
0010
0100
0010
0001
1000
0100
0010
0001
1000
,
0010
0100
0001
1000
0100
1000
0010
0100
0001
0010
0100
1000
0001
0100
0001
0010
,
0100
1000
0010
0100
0001
1000
0100
0010
0001
1000
0010
0100
0001
0010
0100
1000
,
0001
0100
0001
1000
0010
0100
0001
1000
0010
0100
0001
0010
0100
1000
0001
0100
,
0001
1000
0100
0010
0001
1000
0010
0100
0010
1000
0100
0010
0001
1000
0010
0100
,
0001
0010
0100
0010
0001
1000
0100
1000
0010
0100
0001
0010
0100
0010
0001
1000
,
0100
0010
0001
1000
0010
0100
0010
1000
0100
0010
0001
1000
0001
0100
0010
1000
,
0100
0010
0001
1000
0001
0100
0001
1000
0100
0010
0001
1000
0010
1000
0001
0100
,
0010
1000
0100
0010
0001
0100
0001
0010
0100
1000
0001
0000
0101
0000
1010
0000
,
0001
0100
0010
1000
0001
0100
0010
1000
0100
1000
0010
0100
0001
0010
0100
1000
,
0010
0100
0001
1000
0100
1000
0010
0100
0001
0010
0100
0010
0001
1000
0100
0010
,
0001
1000
0010
1000
0100
0010
0001
1000
0010
0100
0001
0010
0100
0010
0001
1000
,
0100
1000
0010
0100
0001
0010
0100
1000
0001
0100
0001
1000
0100
0010
0001
1000
,
0001
0100
0010
1000
0100
1000
0010
0100
0001
0010
0100
0010
0001
1000
0100
0010
,
0001
1000
0010
0100
0010
1000
0100
0010
0001
1000
0010
0100
0001
0010
0100
1000
,
0001
1000
0100
0010
0100
1000
0010
0100
0001
0010
0100
1000
0001
0100
0001
1000
,
0010
0100
0001
0010
0100
1000
0001
0100
0001
1000
0100
0010
0001
1000
0010
0100
,
0010
1000
0100
0010
0001
1000
0001
0100
0010
1000
0100
1000
0010
0100
0001
0010
,
0100
1000
0001
0100
0001
1000
0100
0010
0001
1000
0010
0100
0001
0010
0001
1000
,
0100
0010
0001
1000
0100
1000
0010
0100
0001
0010
0100
1000
0001
0100
0001
1000
,
0100
0010
0001
1000
0010
0100
0001
0010
0001
1000
0010
0100
0001
1000
0100
0010
,
0001
1000
0010
0100
0001
1000
0100
1000
0010
0100
0001
0010
0100
1000
0001
0100
,
0001
1000
0100
0010
0001
1000
0010
0100
0001
0010
0001
1000
0100
1000
0010
0100
,
0001
0010
0100
1000
0001
0100
0001
1000
0010
0100
0001
0010
0100
1000
0001
0100
,
0010
1000
0100
0010
0100
1000
0001
0010
0100
1000
0010
0100
0001
1000
0100
1000
,
0001
1000
0010
1000
0100
0010
0001
0100
,
0001
1000
0001
0010
0001
1000
0010
1000
,
0100
0010
0001
0100
0001
0010
0100
1000
,
0001
0100
0001
1000
0010
0100
0001
0010
,
0100
1000
0001
0100
0001
1000
0010
1000
,
0100
0010
0001
0100
0001
0010
0100
1000
,
0001
0100
0001
1000
0010
0100
0001
0010
,
0100
0010
0001
1000
0010
1000
0100
0010
,
0001
0100
0001
0010
0100
1000
0001
0100
,
0001
1000
0010
1000
0100
0010
0001
0100
,
0001
0010
0100
1000
0001
0100
0001
1000
,
0010
1000
0100
0010
0001
0100
0001
0010
,
0100
1000
0001
0100
0001
1000
0010
1000
,
0100
0010
0001
0100
0001
0010
0100
1000
,
0010
0100
0001
0010
0100
1000
0001
0100
,
0001
1000
0010
1000
0100
0010
0001
0100
,
0001
0010
0100
1000
0010
0100
0001
1000
,
0100
1000
0001
0100
0001
1000
0010
0100
,
0001
0010
0001
1000
0100
1000
0010
0100
,
0001
1000
0100
1000
0001
0010
0100
1000
,
0001
0100
0001
1000
0010
1000
0100
0010
,
0001
0100
0001
0010
0100
1000
0001
0100
,
0001
1000
0010
1000
0100
0010
0001
0100
,
0001
1000
0001
0010
0100
1000
0001
0100
,
0001
1000
0010
1000
0100
0010
0001
0100
,
0001
0010
0100
1000
0010
0100
0001
1000
,
0100
1000
0001
0100
0001
1000
0010
1000
,
0001
0010
0001
1000
0010
0100
0001
1000
,
0010
1000
0100
0010
0100
1000
0010
0100
,
0001
1000
0100
1000
0010
1000
0100
0010
,
0001
0100
0001
1000
0001
0010
0001
1000
,
0010
0100
0001
1000
0100
1000
0001
1000
,
0020
0230
0302
2003
,
3200
0320
0032
0003
,
2020
3030
0000
0202
0303
0000
2002
3003
,
2002
0000
0000
3003
,
2222
0000
0000
0000
,
3333
0000
0000
0000
,
2222
0000
3333
2222
0000
3333
2222
3333
,
2222
3333
1111
0000
0011
0101
1010
1101
,
0000
0000
0000
0000
,
0000
0000
0000
0000
,
0000
0000
0000
0000
,
0000
0000
0000
0000
,
0000
0000
0000
0000
,
0000
0000
0000
0000
,
0000
0000
0000
0000
,
MMMM
0000
0000
0000
,
1000
0010
0100
0001
1000
0100
1000
0001
0100
0001
0010
0100
1000
0010
0100
0001
,
0010
0001
1000
0010
0100
0001
1000
0100
1000
0010
0100
0001
0010
0001
1000
0010
,
0100
0001
1000
0100
1000
0001
0010
0001
1000
0100
0010
0001
1000
0100
0010
0001
,
1000
0010
1000
0100
0010
0001
0100
0001
0010
0100
1000
0001
0010
0100
1000
0001
,
0100
0001
1000
0010
1000
0100
0010
0001
0100
0001
0010
0100
1000
0001
0100
0001
,
1000
0010
0100
0001
1000
0100
1000
0010
0100
0001
0010
0100
1000
0001
0100
0001
,
0010
0100
1000
0001
0100
0001
1000
0010
1000
0100
0010
0001
0100
0001
1000
0001
,
0010
0100
1000
0001
0100
0001
1000
0010
0100
0001
0010
0100
1000
0001
0100
0001
,
1000
0001
0010
0100
1000
0001
0100
0001
1000
0010
1000
0100
0010
0001
0100
0001
,
1000
0001
0010
0100
0010
0001
1000
0010
0100
0001
1000
0100
1000
0001
0010
0100
,
1000
0010
0100
0001
1000
0100
1000
0001
0100
0001
1000
0001
0100
0001
0010
0100
,
1000
0010
1000
0100
0010
0001
0100
0001
1000
0001
0010
0100
1000
0001
0100
0001
,
1000
0010
1000
0100
0010
0100
1000
0001
0100
0001
0010
0100
1000
0001
0100
0001
,
1000
0010
1000
0100
0010
0001
0100
0001
1000
0001
0010
0001
1000
0010
1000
0100
,
0010
0100
1000
0001
0100
0001
1000
0010
0100
0001
0010
0001
1000
0010
1000
0100
,
0010
0001
0100
0001
1000
0100
1000
0010
0100
0001
0010
0100
1000
0001
0100
0001
,
4000
3040
0430
0304
4003
3400
4300
3004
0403
0304
0043
0430
4300
3004
0403
0304
,
4003
3040
0430
0304
4003
3400
4300
3004
4003
3400
4300
3040
0430
0304
4003
3400
,
4300
3040
0430
0304
4003
3400
4300
3004
0403
0304
0043
0430
4300
3040
4030
3004
,
4003
3400
4300
3004
0403
0304
0043
0034
4003
3004
0403
0304
4003
3040
0430
0304
,
4003
3400
4300
3004
0043
0034
4003
3004
0403
0304
4003
3040
4030
3004
4003
3400
,
4300
3400
4300
3040
0430
0304
4003
3040
0430
0304
4003
3400
,
4300
3040
0430
0304
0043
0430
4300
3004
0403
0304
4003
3040
,
4030
3400
0340
0034
0403
0304
0043
0430
4300
3004
0403
0304
,
0043
0430
4300
3004
0403
0304
4003
3040
4030
3400
0340
0034
,
0043
0430
4300
3004
0403
0304
4003
3040
4030
3004
0403
0304
,
4003
3040
0430
0304
0043
0430
4300
3004
0403
0304
4003
3040
,
4030
3400
0340
0034
0403
0304
0043
0430
4300
3004
0403
0340
,
4030
3400
4300
3040
0430
0304
0043
0034
4003
3400
0340
0034
,
4003
3004
0403
0304
4003
3040
4030
3400
,
0340
0034
0403
0304
0043
0430
4300
3004
,
0403
0304
4003
3040
4030
3400
0340
0034
,
0403
0304
4003
3004
0043
0034
4003
3040
,
0430
0304
4003
3400
4300
3004
0043
0430
,
4300
3004
0403
0304
4003
3040
4030
3004
,
0403
0304
4003
3004
0043
0034
4003
3004
,
0403
0304
4003
3040
4030
3004
4003
3400
,
4300
3040
0430
0304
0043
0034
4003
3004
,
0403
0304
4003
3040
4030
3400
0340
0034
,
0403
0304
4003
3004
0043
0034
4003
3040
,
0430
0304
4003
3400
0340
0034
4003
3040
,
0430
0000
0000
0000
0000
4000
0300
0000
0000
0000
3004
0000
0000
0000
0000
0043
0000
0000
0000
0000
0430
0000
0000
0000
0000
4300
0000
0000
0000
0000
3040
0000
,
0000
0000
0000
0430
0000
0000
0000
0000
0304
0000
0000
0000
0000
0043
0000
0000
0000
0000
0430
0000
0000
0000
0000
4300
0000
0000
0000
0000
3004
0000
0000
0000
,
0000
0403
0000
0000
0000
0000
0340
0000
0000
0000
0000
4030
0000
0000
0000
0000
3004
0000
0000
0000
0000
0403
0000
0000
0000
0000
0340
0000
0000
0000
0000
4030
,
0000
0000
0000
0000
3400
0000
0000
0000
0000
4300
0000
0000
0000
0000
3040
0000
0000
0000
0000
0430
0000
0000
0000
0000
0304
0000
0000
0000
0000
0043
0000
0000
,
0000
0000
0430
0000
0000
0000
0000
4300
0000
0000
0000
0000
3004
0000
0000
0000
0000
0403
0000
0000
0000
0000
0340
0000
0000
0000
0000
4030
0000
0000
0000
0000
,
3400
0000
0000
0000
0000
4300
0000
0000
0000
0000
3040
0000
0000
0000
0000
0430
0000
0000
0000
0000
0304
0000
0000
0000
0000
0043
0000
0000
0000
0000
0430
0000
,
0000
0000
0000
4300
0000
0000
0000
0000
3004
0000
0000
0000
0000
0403
0000
0000
0000
0000
0340
0000
0000
0000
0000
0000
4030
0000
0000
0000
0000
0000
0000
0000
,
3100
0000
0000
0000
,
0000
0000
0000
0000
,
0000
0000
0000
0000
,
0000
0000
0000
0000
,
MMMM
0000
0000
0000
;
