#TITLE:Melons;
#SUBTITLE:;
#ARTIST:hypercore;
#TITLETRANSLIT:;
#SUBTITLETRANSLIT:;
#ARTISTTRANSLIT:;
#CREDIT:;
#BANNER:../fthescorept1bn.png;
#BACKGROUND:../fthescorept1bg.png;
#LYRICSPATH:;
#CDTITLE:;
#MUSIC:Melons.ogg;
#OFFSET:-0.031;
#SAMPLESTART:6.180;
#SAMPLELENGTH:11.300;
#SELECTABLE:YES;
#BPMS:0.000=274.000;
#STOPS:;
#BGCHANGES:;
// cache tags:
#FIRSTBEAT:0.000;
#LASTBEAT:95.000;
#SONGFILENAME:Songs/Fuck The Score Part I/Melons [Dossar]/Melons.sm;
#HASMUSIC:1;
#HASBANNER:1;
#MUSICLENGTH:21.080;
// end cache tags

//---------------dance-single - ----------------
#NOTES:
     dance-single:
     :
     Challenge:
     20:
     1.000,1.000,0.000,0.380,1.000,306.000,0.000,8.000,0.000,0.000:
1000
0000
0010
0000
0100
0000
0001
0000
1000
0100
0010
0001
2000
0000
0000
0000
,
3001
0000
0100
0000
0010
0000
1000
0000
0001
0010
0100
1000
0002
0000
0000
0000
,
1003
0000
0010
0000
0100
0000
0001
0000
1000
0100
0010
0001
2000
0000
0000
0000
,
3001
0000
0100
0000
0010
0000
1000
0000
0001
0010
0100
1000
0002
0000
0000
0000
,
1003
0000
0010
0000
0100
0000
0001
0000
1000
0100
0010
0001
2000
0000
0000
0000
,
3001
0000
0100
0000
0010
0000
1000
0000
0001
0010
0100
1000
0002
0000
0000
0000
,
1003
0000
0010
0000
0100
0000
0001
0000
1000
0100
0010
0001
2000
0000
0000
0000
,
3001
0100
0010
1000
0001
0100
0001
1000
0001
1000
0010
0100
0001
1000
0010
0100
,
0001
1000
0001
1000
0010
0100
0001
0100
0010
1000
0001
0100
0001
0100
0010
1000
,
0001
1000
0100
1000
0001
0010
0001
1000
0100
0010
0001
0010
0100
1000
0100
1000
,
0001
1000
0001
1000
0010
0100
0001
0100
0010
1000
0001
0100
0001
0100
0010
1000
,
0001
1000
0100
1000
0001
0010
0001
1000
0100
0010
0001
0010
0100
1000
0100
1000
,
0001
1000
0001
1000
0010
0100
0001
0100
0010
1000
0001
0100
0001
0100
0010
1000
,
0001
1000
0100
1000
0001
0010
0001
1000
0100
0010
0001
0010
0100
1000
0100
1000
,
0001
1000
0001
1000
0010
0100
0001
0100
0010
1000
0001
0100
0001
0100
0010
1000
,
0001
1000
0100
1000
0001
0010
0001
1000
0100
0010
0001
0010
0100
1000
0100
1000
,
0001
1000
0001
1000
0010
0100
0001
0100
0010
1000
0001
0100
0001
0100
0010
1000
,
0001
1000
0100
1000
0001
0010
0001
1000
0100
0010
0001
0010
0100
1000
0100
1000
,
0001
1000
0001
1000
0010
0100
0001
0100
0010
1000
0001
0100
0001
0100
0010
1000
,
0001
1000
0100
1000
0001
0010
0001
1000
0100
0010
0001
0010
0100
1000
0100
1000
,
0001
0100
0002
0000
,
1003
0000
0100
0000
0010
0001
0010
0100
,
1000
0000
0000
0000
0001
0100
0010
1000
0001
0100
0001
1000
0010
0100
0001
1000
,
0010
1000
0001
0100
0010
1000
0001
0100
0010
1000
0010
0100
0001
0000
0000
0000
;
