#TITLE:Human Theme 01;
#SUBTITLE:Warcraft II;
#ARTIST:Glenn Stafford;
#TITLETRANSLIT:;
#SUBTITLETRANSLIT:;
#ARTISTTRANSLIT:;
#CREDIT:;
#BANNER:Human Theme 01.png;
#BACKGROUND:Human Theme 01-bg.png;
#LYRICSPATH:;
#CDTITLE:!gloveTitle.png;
#MUSIC:Human Theme 01.mp3;
#OFFSET:2.211;
#SAMPLESTART:100.000;
#SAMPLELENGTH:12.000;
#SELECTABLE:YES;
#BPMS:0.000=99.980;
#STOPS:;
#BGCHANGES:;
// cache tags:
#FIRSTBEAT:4.000;
#LASTBEAT:249.000;
#SONGFILENAME:Songs/VGMP 2/Human Theme 01 (GLoVE)/Human Theme 01.sm;
#HASMUSIC:1;
#HASBANNER:1;
#MUSICLENGTH:149.292;
// end cache tags

//---------------dance-single - ----------------
#NOTES:
     dance-single:
     :
     Hard:
     11:
     1.000,1.000,1.000,0.449,1.000,882.000,161.000,67.000,0.000,1.000:
0000
0000
0000
0000
,
1000
0100
0010
0100
0010
0001
1000
0010
0100
0001
1000
0100
0010
1000
0010
0100
0010
0001
1000
0100
0010
0100
0010
0001
,
1000
0010
0100
0001
0010
0001
1000
0100
0010
0100
0010
0001
1000
0100
1000
0001
0100
0010
1000
0100
1000
0001
0100
0010
,
1000
0100
1000
0001
0100
0010
1000
0100
1000
0001
0100
0010
1000
0100
1000
0001
0100
0010
1000
0100
1000
0001
0100
0010
,
1000
0000
0100
0000
1000
0000
0001
0000
0100
0000
0010
0000
1000
0000
0100
0000
1000
0000
0001
0000
0100
0000
0010
0000
1200
0000
0000
0000
0000
0000
0000
0000
0000
0300
0000
0000
1100
0000
0000
0000
0000
0000
1010
0000
0000
0000
0000
0000
,
0101
0000
0000
0000
0000
0000
0100
0000
0010
0000
1000
0000
0001
0000
0000
0000
0000
0000
0010
0000
0000
0010
0000
0000
0110
0000
0000
0000
0000
0000
0010
0000
0001
0000
0100
0000
1001
0000
0000
0000
0000
0000
0010
0000
0000
0000
0000
0000
,
1001
0000
0000
0000
0000
0000
0100
0000
0010
0000
1000
0000
0011
0000
0000
0000
0000
0000
0010
0000
0000
0010
0000
0000
0110
0000
0000
0000
0000
0000
0010
0000
0001
0000
0100
0000
1010
0000
0000
0000
0000
0000
0101
0000
0010
0000
1000
0000
,
0011
0000
0000
0000
0000
0000
0100
0000
0010
0000
1000
0000
0011
0000
0000
0000
0000
0000
0010
0000
0000
0010
0000
0000
0110
0000
0000
0000
0000
0000
0010
0000
0001
0000
0100
0000
1001
0000
0000
0000
0000
0000
0010
0000
0000
0000
0000
0000
,
1010
0000
0000
0000
0000
0000
0100
0000
0010
0000
1000
0000
0011
0000
0000
0000
0000
0000
0010
0000
0000
0010
0000
0000
0110
0000
0000
0000
0000
0000
0001
0000
0010
0000
0100
0000
1010
0000
0100
0000
0010
0000
1001
0000
0010
0000
0100
0000
,
0011
0000
0000
0000
0000
0000
0100
0000
0010
0000
1000
0000
0001
0000
0000
0000
0000
0000
0010
0000
0000
0010
0000
0000
0110
0000
0000
0000
0000
0000
0100
0000
0010
0000
1000
0000
0101
0000
0000
0000
0000
0000
0011
0000
0000
0000
0000
0000
,
0110
0000
0000
0000
0000
0000
0100
0000
0010
0000
1000
0000
0011
0000
0000
0000
0000
0000
0010
0000
0000
0010
0000
0000
0110
0000
0000
0000
0000
0000
0010
0000
0001
0000
0100
0000
1010
0000
0000
0000
0000
0000
0101
0000
0010
0000
1000
0000
,
0011
0000
0000
0000
0000
0000
0010
0000
0001
0000
0100
0000
0011
0000
0000
0000
0000
0000
0010
0000
0000
0010
0000
0000
0110
0000
0000
0000
0000
0000
0010
0000
0001
0000
0100
0000
1001
0000
0000
0000
0000
0000
0001
0000
0000
0000
0000
0000
,
0011
0000
0000
0000
0000
0000
0100
0000
0010
0000
1000
0000
0101
0000
0000
0000
0000
0000
0001
0000
0000
0001
0000
0000
1001
0000
0000
0000
0000
0000
0010
0000
0001
0000
0100
0000
1001
0000
0010
0000
1000
0000
0101
0000
0010
0000
1000
0000
,
0011
0000
0001
1001
0101
0000
0110
0100
0101
0000
1000
1000
1100
0000
0100
0000
,
1010
0000
0001
0101
0011
0000
0011
0010
0110
0000
0100
0100
1100
0000
0110
0000
,
0011
0000
0010
0110
0011
0000
0101
0100
0110
0000
1000
1000
1100
0000
0100
0000
,
1010
0000
0001
0101
0011
0000
0110
0010
1010
0000
0100
0100
1100
0000
0110
0000
,
0011
0000
0001
1001
0101
0000
0011
0010
0110
0000
0100
0100
1100
0000
0100
0000
,
0011
0000
0001
0101
0011
0000
0011
0010
0110
0000
0100
0100
1100
0000
0110
0000
,
0011
0000
0001
1001
0101
0000
0101
0100
0110
0000
1000
1000
1100
0000
0100
0000
,
0011
0000
0001
1001
0101
0000
0011
0010
1010
0000
0100
0100
2100
3000
0210
0300
,
0021
0000
0001
0031
2001
3000
0210
0310
0012
0000
1000
1000
1000
0000
0100
0003
,
0210
0000
1000
1300
1020
0030
0102
0103
2100
0000
0001
0001
0001
3000
2010
3000
,
0201
0000
0001
0001
0321
0000
0100
0130
0102
0000
1000
1000
1000
0000
0100
0003
,
0210
0000
0001
0001
0001
0000
0010
0310
2010
0000
0100
0100
0100
0000
0010
3000
,
0012
0000
0010
0013
2010
3000
0120
0130
0102
0000
1000
1003
1020
0000
0100
0030
,
0012
0000
0010
0013
2010
3000
0120
0130
0102
0000
1000
1003
1200
0000
0010
0300
,
0021
0000
0001
0031
0201
0300
1020
1030
1002
0000
0100
0103
2100
0000
0010
3000
,
0201
0000
0001
0301
0021
0000
0100
0130
0102
0000
1000
1000
1000
0000
0100
0003
,
0120
0000
0100
0100
0000
0000
0100
0030
0200
0000
0010
0300
2000
0000
0010
3000
,
0200
0000
0010
0310
0002
0000
0010
0003
0200
0000
1000
0300
2000
3000
1200
0300
,
0020
0000
1000
1030
0002
0000
0100
0003
0020
0000
0100
0030
0200
0000
0001
0300
,
2000
0000
0001
3001
0020
0000
0001
0030
0200
0000
0001
0300
2000
3000
1200
0300
,
1002
0000
1000
1000
0000
0000
1000
0003
0020
0000
1000
0030
0200
0000
0001
0300
,
2001
0000
0001
3001
0020
0000
0001
0030
0200
0000
0010
0300
2000
3000
0210
0300
,
0120
0000
0100
0130
0002
0000
1000
0003
1020
0000
1000
0030
2000
0000
0010
3000
,
1200
0000
1000
1300
0020
0000
1000
0030
1002
0000
0000
0000
0000
0000
0000
0003
,
1000
0100
0001
0100
0010
0001
1000
0100
0010
1000
0010
0001
0100
0010
0001
1000
0100
0010
0001
0010
0100
1000
0010
0100
,
1000
0001
0010
1000
0010
0100
1000
0001
0010
0100
0001
0100
1000
0100
0001
0100
0010
0001
1000
0100
0010
1000
0010
0001
,
0100
0010
0001
1000
0100
0010
0001
0010
0100
1000
0010
0100
1000
0001
0010
1000
0010
0100
1000
0001
0010
0100
0001
0100
,
1000
0010
1000
0100
0010
0001
1000
0100
0010
0100
0010
0001
0100
0010
0001
1000
0100
0010
0001
0100
0001
0010
0100
1000
,
0001
0010
0100
0010
0100
1000
0001
0010
0100
0001
0010
0100
1000
0010
1000
0100
0010
0001
1000
0100
0010
0100
0010
0001
,
0100
0010
0001
1000
0100
0010
0001
0100
0001
0010
0100
1000
0001
0010
0100
0010
0100
1000
0001
0010
0100
0001
0010
0100
,
1000
0100
0010
0100
0010
0001
1000
0100
0010
0001
0010
0001
0100
0010
0001
1000
0100
0010
0001
0100
0001
0010
0100
1000
,
0001
0100
0010
1000
0100
1000
0001
0010
0100
0001
0010
0100
1000
0100
0010
0001
0010
0001
1000
0100
0010
0001
0100
0001
,
0100
0010
0001
1000
0100
0010
0001
0010
0100
1000
0100
1000
0001
0010
0100
1000
0010
1000
0001
0010
0100
0001
0100
0010
,
1000
0000
0001
0000
0010
0000
0100
0000
1000
0000
0000
0000
0110
0000
0000
0000
0000
0000
0100
0000
0000
1100
0000
0000
0101
0000
0000
0000
0000
0000
0010
0000
0000
0000
0000
0000
0100
0000
0000
0000
0000
0000
1100
0000
0000
1000
0000
0000
,
1010
0000
0100
0001
0110
0000
0100
0100
0100
0000
0100
0000
0010
0000
0100
0100
,
0100
0000
0100
0100
0011
0000
0010
1010
0011
0000
0100
0000
0001
0000
0110
0100
,
0101
0000
0010
0001
0110
0000
0100
0100
0100
0000
0010
0000
0100
0000
0100
0100
,
0100
0000
0100
0100
0101
0000
1000
1010
1001
0000
0100
0000
0010
0000
1100
0100
,
0101
0000
0011
0100
1010
0000
0010
0010
0010
0000
0011
0000
0110
0000
0100
0100
,
1100
0000
0010
0000
1100
0000
0010
1010
0011
0000
1000
0000
0010
0000
1100
0100
,
0101
0000
0101
0010
1001
0000
0010
0010
0010
0000
0100
0000
0010
0000
0100
0100
,
0100
0000
0100
0000
1000
0100
0010
0001
1000
0010
0100
0001
1000
0100
0010
0001
,
1000
0010
0100
0001
1000
0100
0010
0001
1000
0010
0100
0010
0001
0010
0100
1000
,
0001
0100
0010
0100
1000
0100
0010
0001
1000
0010
0100
0001
1000
0100
0010
0001
,
1000
0010
0100
0001
1000
0100
0010
0001
1000
0010
0100
0010
0001
0010
0100
1000
,
0001
0100
0010
0100
1000
0100
0010
0001
1000
0010
0100
0001
1000
0100
0010
0001
,
1000
0010
0100
0001
1000
0100
0010
0001
1000
0010
0100
0001
1000
0100
0010
0001
,
1000
0010
0100
0001
1000
0100
0001
0010
0001
0100
0010
0001
1000
0100
0001
0100
,
0010
0001
1000
0010
0001
0010
0100
1000
0001
0100
0010
1000
0001
0010
1000
0010
,
0100
1000
0010
0100
1000
0000
0000
0000
0000
0000
0000
0000
0000
0000
0000
0000
;

//---------------dance-single - Copied from----------------
#NOTES:
     dance-single:
     Copied from:
     Challenge:
     13:
     1.000,1.000,1.000,0.476,1.000,883.000,354.000,71.000,0.000,121.000:
0000
0000
0000
0000
,
1000
0100
0010
0100
0010
0001
1000
0010
0100
0010
0001
1000
0010
0100
0001
0100
0010
0001
1000
0100
0010
0100
0010
0001
,
1000
0010
0100
0001
0010
0001
1000
0100
0010
0100
0010
0001
1000
0100
1000
0001
0100
0010
1000
0100
1000
0001
0100
0010
,
1000
0100
1000
0001
0100
0010
1000
0100
1000
0001
0100
0010
1000
0100
1000
0001
0100
0010
1000
0100
1000
0001
0100
0010
,
1000
0000
0100
0000
1000
0000
0001
0000
0100
0000
0010
0000
1000
0000
0100
0000
1000
0000
0001
0000
0100
0000
0010
0000
1201
0000
0000
0000
0000
0000
0000
0000
0000
0300
0000
0000
1110
0000
0000
0000
0000
0000
1011
0000
0000
0000
0000
0000
,
0111
0000
0000
0000
0000
0000
0100
0000
0010
0000
1000
0000
0001
0000
0000
0000
0000
0000
0010
0000
0000
0010
0000
0000
0110
0000
0000
0000
0000
0000
1010
0000
0101
0000
0110
0000
1011
0000
0000
0000
0000
0000
0110
0000
0000
0000
0000
0000
,
1101
0000
0000
0000
0000
0000
0100
0000
0010
0000
1000
0000
0011
0000
0000
0000
0000
0000
0010
0000
0000
0010
0000
0000
0110
0000
0000
0000
0000
0000
0110
0000
0011
0000
1100
0000
1011
0000
0000
0000
0000
0000
1101
0000
0010
0000
1000
0000
,
0111
0000
0000
0000
0000
0000
0100
0000
0010
0000
1000
0000
0011
0000
0000
0000
0000
0000
0010
0000
0000
0010
0000
0000
0110
0000
0000
0000
0000
0000
1010
0000
0101
0000
0110
0000
1011
0000
0000
0000
0000
0000
0110
0000
0000
0000
0000
0000
,
1011
0000
0000
0000
0000
0000
0100
0000
0010
0000
1000
0000
0011
0000
0000
0000
0000
0000
0010
0000
0000
0010
0000
0000
0110
0000
0000
0000
0000
0000
0101
0000
0011
0000
1100
0000
1010
0000
0100
0000
0010
0000
1101
0000
0010
0000
0100
0000
,
1011
0000
0000
0000
0000
0000
0100
0000
0010
0000
1000
0000
0001
0000
0000
0000
0000
0000
0010
0000
0000
0010
0000
0000
0110
0000
0000
0000
0000
0000
0110
0000
0101
0000
1010
0000
0111
0000
0000
0000
0000
0000
0011
0000
0000
0000
0000
0000
,
1110
0000
0000
0000
0000
0000
0100
0000
0010
0000
1000
0000
0011
0000
0000
0000
0000
0000
0010
0000
0000
0010
0000
0000
0110
0000
0000
0000
0000
0000
0110
0000
1001
0000
0101
0000
1110
0000
0000
0000
0000
0000
1101
0000
0010
0000
1000
0000
,
0111
0000
0000
0000
0000
0000
0010
0000
0001
0000
0100
0000
0011
0000
0000
0000
0000
0000
0010
0000
0000
0010
0000
0000
0110
0000
0000
0000
0000
0000
0110
0000
0101
0000
1010
0000
0111
0000
0000
0000
0000
0000
0101
0000
0000
0000
0000
0000
,
0111
0000
0000
0000
0000
0000
0100
0000
0010
0000
1000
0000
0101
0000
0000
0000
0000
0000
0001
0000
0000
0001
0000
0000
1001
0000
0000
0000
0000
0000
0100
0000
0001
0000
0100
0000
1011
0000
0100
0000
0010
0000
1101
0000
0010
0000
0100
0000
,
1011
0000
0010
1010
0110
0000
0110
0100
0101
0000
1000
1000
1010
0000
0010
0000
,
0011
0000
0001
0101
0011
0000
0011
0010
0110
0000
0100
0100
1100
0000
0110
0000
,
0011
0000
0010
0110
0011
0000
0101
0100
0110
0000
1000
1000
1100
0000
0100
0000
,
0011
0000
0001
0101
0011
0000
0110
0010
1010
0000
0100
0100
1100
0000
0110
0000
,
0011
0000
0010
1010
0110
0000
0011
0010
0110
0000
0100
0100
1100
0000
0100
0000
,
0011
0000
0001
0101
0011
0000
0011
0010
0110
0000
0100
0100
1100
0000
0110
0000
,
0011
0000
0010
1010
0110
0000
0101
0100
0110
0000
1000
1000
1100
0000
0100
0000
,
0011
0000
0010
1010
0110
0000
0101
0100
1100
0000
0001
0001
2101
3000
0211
0300
,
0121
0000
0001
0031
2001
3000
0210
0310
0112
0000
1000
1000
1100
0000
0100
0003
,
1210
0000
1000
1300
1021
0030
0102
0103
2110
0000
0001
0001
0101
3000
2110
3000
,
0211
0000
0001
0001
1321
0000
0100
0130
1102
0000
1000
1000
1100
0000
0100
0003
,
0211
0000
0001
0001
0011
0000
0010
0310
2110
0000
0100
0100
0110
0000
0110
3000
,
0112
0000
0010
0013
2010
3000
0120
0130
0112
0000
1000
1003
1020
0000
0100
0030
,
0012
0000
0010
0013
2110
3000
0120
0130
0112
0000
1000
1003
1210
0000
1001
0300
,
0121
0000
0001
0031
0211
0300
1020
1030
1012
0000
0100
0103
2110
0000
0010
3000
,
0211
0000
0001
0301
0121
0000
0100
0130
1102
0000
1100
1100
1100
0000
0110
1003
,
1122
0003
0000
0000
1100
0000
1100
0000
0000
0000
0000
0000
1100
0000
0030
0000
0210
0000
0000
0000
0011
0000
0300
0000
2100
0000
0000
0000
0110
0000
3000
0000
,
0210
0000
1010
1310
0102
0000
1010
0003
1200
0000
1010
0300
2100
3000
1211
0300
,
0021
0000
1100
1130
0012
0000
1100
0003
0120
0000
1100
0030
1200
0000
0011
0300
,
2100
0000
0101
3101
0021
0000
0101
0030
0210
0000
0011
0300
2100
3000
1211
0300
,
1212
0300
0000
0000
1010
0000
1010
0000
0000
0000
0000
0000
1010
0000
0003
0000
0120
0000
0000
0000
1001
0000
0030
0000
1200
0000
0000
0000
1001
0000
0300
0000
,
2111
0000
0101
3101
0021
0000
0101
0030
0210
0000
0011
0300
2100
3000
0210
0300
,
0221
0300
0000
0000
1100
0000
1130
0000
0012
0000
0000
0000
1010
0000
0003
0000
1121
0000
0000
0000
1101
0000
0030
0000
2001
0000
0000
0000
0101
0000
3000
0000
,
1211
0000
0000
0000
1001
0000
1301
0000
0120
0000
0000
0000
1100
0000
0030
0000
2112
3000
0000
0000
0000
0000
0000
0000
0000
0000
0000
0000
0000
0000
0003
0000
,
1001
0100
0001
1100
0010
0001
1010
0100
0010
1001
0010
0001
1010
0100
0010
1001
0100
0010
0101
0010
0100
1001
0010
0100
,
1010
0001
0010
1100
0010
0100
1010
0001
0010
1100
0001
0100
1010
0100
0001
1100
0010
0001
1010
0100
0010
1001
0010
0001
,
1010
0100
0010
1001
0100
0010
0101
0010
0100
1001
0010
0100
1010
0001
0010
1100
0010
0100
1010
0001
0010
1100
0001
0100
,
1001
0010
1000
0101
0010
0001
1010
0100
0010
1100
0010
0001
1010
0100
0010
1001
0100
0010
1001
0100
0001
1010
0100
1000
,
0101
0010
0100
0011
0100
1000
0101
0010
0100
1001
0010
0100
1001
0010
1000
0101
0010
0001
1010
0100
0010
1100
0010
0001
,
1010
0100
0010
1001
0100
0010
1001
0100
0001
1010
0100
1000
0101
0010
0100
0011
0100
1000
0101
0010
0100
1001
0010
0100
,
1001
0100
0010
0101
0010
0001
1010
0100
0010
1001
0010
0001
1010
0100
0010
1001
0100
0010
1001
0100
0001
1010
0100
1000
,
0011
0100
0010
1001
0100
1000
0101
0010
0100
1001
0010
0100
1010
0100
0010
1001
0010
0001
1010
0100
0010
1001
0100
0001
,
1010
0100
0010
1001
0100
0010
1001
0010
0100
1001
0100
1000
0101
0010
0100
1001
0010
1000
0101
0010
0100
1000
0100
0010
,
1000
0000
0001
0000
0010
0000
0100
0000
1000
0000
0000
0000
1110
0000
0000
0000
0000
0000
0100
0000
0000
1100
0000
0000
0111
0000
0000
0000
0000
0000
0010
0000
0000
0000
0000
0000
0110
0000
0000
0000
0000
0000
1100
0000
0000
1000
0000
0000
,
1110
0000
0100
0001
1110
0000
0100
0100
0110
0000
0100
0000
0110
0000
0100
0100
,
0110
0000
0100
0100
1110
0000
0010
1010
0111
0000
0100
0000
0101
0000
1010
0100
,
0111
0000
0010
0001
1110
0000
0100
0100
0101
0000
0010
0000
0110
0000
0100
0100
,
1100
0000
0100
0100
1110
0000
1000
1100
1110
0000
0100
0000
0011
0000
1001
0100
,
1110
0000
0011
0100
1011
0000
0010
0010
0110
0000
0011
0000
1110
0000
0100
0100
,
1101
0000
0010
0000
1101
0000
0010
1010
0111
0000
1000
0000
0011
0000
1100
0100
,
0111
0000
0101
0010
1101
0000
0010
0010
0011
0000
0100
0000
1010
0000
0100
0100
,
0110
0000
0100
0000
1001
0100
0010
0001
1000
0010
0100
0001
1010
0100
0010
0001
,
1000
0010
1100
0010
0101
1000
0010
0001
1000
0010
0100
0010
0101
0010
0100
1000
,
0011
0100
0010
0100
1001
0100
0010
0001
1000
0010
0100
0001
1010
0100
0010
0001
,
1000
0010
1100
0001
1010
0100
0010
0001
1000
0010
0100
0010
0101
0010
0100
1000
,
0001
0100
0010
0100
1010
0100
0010
0001
1000
0010
0100
0001
1010
0100
0010
0001
,
1000
0010
0100
0001
1010
0100
0010
0001
1000
0010
0100
0001
1010
0100
0010
0001
,
1000
0010
0100
0001
1010
0100
0001
0010
0001
0100
0010
0001
1000
0100
0001
0100
,
0010
0001
1000
0010
0001
0010
0100
1000
0001
0100
0010
1000
0001
0010
1000
0010
,
0100
1000
0010
0100
1000
0000
0000
0000
0000
0000
0000
0000
0000
0000
0000
0000
;
