#TITLE:Exostream Speed;
#SUBTITLE:;
#ARTIST:moro;
#TITLETRANSLIT:;
#SUBTITLETRANSLIT:;
#ARTISTTRANSLIT:;
#CREDIT:;
#BANNER:exostream bn.png;
#BACKGROUND:exostream bg.png;
#LYRICSPATH:;
#CDTITLE:;
#MUSIC:Exostream Speed.ogg;
#OFFSET:0.009;
#SAMPLESTART:57.936;
#SAMPLELENGTH:12.000;
#SELECTABLE:YES;
#DISPLAYBPM:250.000;
#BPMS:0.000=175.000,337.000=124.875,377.000=249.750,457.000=242.000,458.000=240.000,459.000=230.000,460.000=226.000,461.000=219.000,462.000=212.500,463.000=207.000,464.000=201.500,465.000=195.000,466.000=187.500,467.000=181.500,468.000=177.000,469.000=170.500,470.000=165.000,471.000=157.000,472.000=151.500,472.500=150.500,473.000=147.000,473.500=143.500,474.000=140.500,474.500=138.000,475.000=134.000,476.000=127.000,476.500=126.000,477.000=120.500,478.000=116.000,478.500=113.000,479.000=110.000,479.500=107.000,480.000=104.000,480.500=100.500,481.000=97.750,481.500=94.750,482.000=91.250,482.500=88.500,483.000=85.500,483.500=82.200,484.000=79.250,484.500=76.250,485.000=73.000,485.500=70.000,486.000=67.000,486.500=63.750,487.000=60.750,487.500=58.000,488.000=52.750,489.000=100.500,490.000=100.000;
#STOPS:;
#BGCHANGES:;
// cache tags:
#FIRSTBEAT:9.000;
#LASTBEAT:520.500;
#SONGFILENAME:Songs/SPEEEDCOOOORE 4/Exostream Speed - [Rynker]/Exostream Speed.sm;
#HASMUSIC:1;
#HASBANNER:1;
#MUSICLENGTH:190.000;
// end cache tags

//---------------dance-single - Rynker----------------
#NOTES:
     dance-single:
     Rynker:
     Challenge:
     17:
     1.000,1.000,0.005,0.316,1.000,1705.000,1.000,60.000,0.000,0.000:
0000
0000
0000
0000
,
0000
0000
0000
0000
,
0000
0000
0000
0000
1000
0001
0100
0010
0100
0001
1000
0100
0010
0001
1000
0001
,
0100
0001
0010
0001
0100
0010
1000
0010
0100
0001
1000
0100
0010
0100
1000
0010
,
1000
0100
1000
0010
0100
0001
0100
0010
1000
0001
0010
0100
1000
0001
0010
0001
,
0100
0010
1000
0100
0010
0100
1000
0010
0100
0001
0010
0001
0100
0010
1000
0001
,
1000
0100
1000
0010
0100
0001
1000
0100
0010
0001
1000
0100
0010
0100
1000
0001
,
0100
0001
0010
0001
0100
0010
1000
0001
0010
0100
0010
0001
1000
0001
0100
0010
,
1000
0100
1000
0010
1000
0100
0010
0001
0010
0100
1000
0001
0100
0010
1000
0100
,
1000
0001
0010
0001
0100
0010
1000
0100
0010
0001
0100
0010
1000
0001
0100
0000
,
0001
0000
0010
0000
0100
0000
1000
0001
0100
0010
1000
0010
0100
0001
0010
0100
,
1000
0100
0010
0001
1000
0001
1000
0010
0100
0001
1000
0100
0010
0100
1000
0010
,
0100
0001
0100
0010
1000
0001
0010
0100
1000
0001
0100
0010
0100
0001
1000
0100
,
0010
0001
1000
0010
1000
0001
0100
0001
0010
0100
1000
0010
0100
0001
0100
0010
,
1000
0000
0000
0000
0001
0010
0100
1000
0100
0010
0001
0100
0010
1000
0010
0100
,
0001
0100
0010
1000
0100
0010
0001
1000
0001
0100
0010
0100
0001
1000
0100
0010
,
0001
1000
0001
0100
0010
1000
0010
0100
0001
0010
0100
1000
0100
0010
0001
1000
,
0001
1000
0010
0100
0001
0010
0100
1000
0100
0010
0001
0000
1000
0001
1000
0001
,
1000
0000
0001
0000
1000
0100
0010
0001
1000
0010
0100
0010
1000
0001
1000
0001
,
1000
0100
0010
0001
0010
0100
1000
0010
0100
0001
0100
0010
1000
0001
1000
0001
,
1000
0100
0010
0001
1000
0010
0100
0001
1000
0001
0010
0100
1000
0001
1000
0001
,
1000
0100
0010
0001
0100
0010
1000
0010
0100
0001
1000
0000
0001
1000
0001
1000
,
0001
0000
1000
0000
0001
0100
0010
0100
0001
1000
0100
0010
0001
1000
0001
1000
,
0001
0100
0010
0100
0001
0010
0100
1000
0010
1000
0100
0010
0001
1000
0001
1000
,
0001
0100
0010
0100
0001
1000
0100
0010
0001
1000
0010
0100
0001
1000
0001
1000
,
0001
0010
0100
1000
0100
1000
0001
0100
0001
0100
0010
0100
0001
1000
0100
1000
,
0100
0010
0001
0010
0001
0000
1000
0100
0010
0000
0001
1000
0000
0010
0100
0001
,
0100
0000
0010
0000
1000
0000
0100
0010
0001
0000
1000
0000
0001
1000
0001
0010
,
0100
1000
0001
1000
0010
0000
0100
0001
0100
0000
0010
1000
0000
0001
1000
0100
,
0010
0000
0001
0000
1000
0100
1000
0001
1000
0000
0010
0100
0000
0001
1000
0001
,
0010
0000
0100
0000
1000
0010
1000
0001
0100
0000
0001
1000
0000
0001
0010
0100
,
1000
0000
0001
0000
0100
0010
1000
0010
0100
0000
0001
0010
0000
0100
1000
0000
,
0002
0000
0003
0000
1000
0001
1000
0100
0010
0000
0001
1000
0000
0001
0100
0000
,
0001
0000
0010
0000
0001
0010
0001
1000
0100
1000
0100
0010
0001
1000
0001
1000
,
0001
0000
1000
0000
0001
0100
0010
1000
0010
0100
0001
1000
0001
1000
0100
0010
,
0100
1000
0001
0100
0010
0100
0001
1000
0100
0010
0001
0010
0100
1000
0001
0010
,
0100
1000
0001
0100
0010
1000
0001
1000
0010
0100
0001
0100
0010
1000
0001
1000
,
0100
0010
0001
0010
0100
1000
0001
0010
0100
1000
0001
0100
0010
0100
0001
1000
,
0100
0010
0100
1000
0001
0100
0000
0001
1000
0000
0100
0010
0000
0001
0010
0100
,
1000
0000
0100
0000
1000
0001
0000
0100
0010
0000
0100
0001
0000
1000
0100
1000
,
0001
0000
1000
0000
0100
1000
0000
0001
0010
0000
0100
1000
0000
0001
0100
0010
,
1000
0000
0001
0000
1000
0100
0010
0001
0010
0100
1000
0001
0100
0010
1000
0001
,
0100
0010
1000
0010
2000
0000
0000
3000
0001
0010
0100
0010
0001
0010
0100
1000
,
0002
0000
0000
0003
1000
0010
0100
0001
0100
0010
1000
0001
1000
0100
0010
0100
,
2000
0000
0000
3000
0002
0000
0000
0003
0100
0010
1000
0010
0100
0001
1000
0100
,
0020
0000
0000
0030
0001
1000
0100
1000
0001
0100
0001
1000
0010
1000
0001
0000
,
2000
0000
3100
0000
0020
0000
0000
0030
0001
1000
0100
1000
0001
0100
0010
1000
,
0002
0000
0000
0003
1000
0100
0010
0001
1000
0100
0010
0001
0100
0010
1000
0001
,
2000
0000
0000
3000
0002
0000
0000
0003
1000
0010
0100
0001
1000
0100
0010
0001
,
2000
0000
0000
3000
0001
0100
0010
0000
1000
0100
0010
0000
0001
0010
0100
0000
,
2000
0000
0000
3000
0002
0000
0103
0000
0010
1000
0100
0010
0100
1000
0001
0100
,
0020
0000
1030
0000
0001
1000
0100
1000
0010
0100
0001
0010
0001
1000
0001
0100
,
0020
0000
1030
0000
0002
0000
1003
0000
0100
0010
0001
0010
0100
1000
0001
0100
,
0020
0000
1030
0000
0001
1000
0100
1000
0010
0100
0001
0010
0100
1000
0001
0000
,
0200
0000
0301
0000
2000
0000
3100
0000
0010
0001
1000
0001
0100
0010
1000
0010
,
0200
0000
0301
0000
1000
0100
0010
0001
0010
0100
1000
0010
0100
0001
1000
0001
,
0200
0000
0310
0000
2000
0000
3001
0000
1000
0100
0010
0001
0010
0100
1000
0010
,
0200
0000
0301
0000
1000
0100
0010
0000
0001
0100
0010
0000
2000
0000
0000
0000
,
0000
0000
3000
0000
0001
0100
0010
1000
0100
0010
0001
0100
0010
0100
0001
0010
,
0100
1000
0010
0100
0001
0100
0010
1000
0100
0010
0001
0100
0010
0100
0001
0010
,
0100
1000
0010
0100
0001
0100
0010
1000
0100
0010
0001
0100
0010
0100
0001
0010
,
0100
1000
0010
0100
0001
0100
0010
1000
0100
0010
0001
0100
0001
0100
0010
1000
,
0001
1000
0001
1000
0001
0100
0010
1000
0100
0010
0001
0100
0010
0100
0001
0010
,
0100
1000
0010
0100
0001
0100
0010
1000
0100
0010
0001
0100
0010
0100
0001
0010
,
0100
1000
0010
0100
0001
0100
0010
1000
0100
0010
0001
0100
0010
0100
0001
0010
,
0100
1000
0010
0100
0001
0100
0010
1000
0100
0010
0001
0100
0010
0100
0001
0000
,
1000
0000
0100
0000
1000
0100
0010
0001
0100
0010
1000
0100
0010
0100
1000
0010
,
0100
0001
0010
0100
1000
0100
0010
0001
0100
0010
1000
0100
0010
0100
1000
0010
,
0100
0001
0010
0100
1000
0100
0010
0001
0100
0010
1000
0100
0010
0100
1000
0010
,
0100
0001
0010
0100
1000
0100
0010
0001
0100
0010
1000
0100
1000
0001
0100
0001
,
1000
0010
1000
0001
0100
0000
0001
1000
0000
0100
0010
0000
0100
1000
0000
0100
,
0010
0001
0100
0010
1000
0000
0001
0100
0000
0010
0100
0000
0001
1000
0000
0100
,
0010
0100
1000
0001
0100
0000
0010
1000
0000
0001
1000
0000
0100
0010
0000
0100
,
1000
0001
0100
0010
1000
0000
0001
1000
0000
0100
0010
0000
0001
1000
0000
0100
,
0010
0100
1000
0001
0100
0001
1000
0100
1000
0000
0001
1000
0000
0001
0100
0001
,
1000
0100
1000
0001
0010
0001
1000
0010
1000
0000
0001
0100
0000
0001
1000
0100
,
1000
0100
0010
0000
0001
1000
0001
0010
0000
0100
0000
1000
0000
0001
0100
0000
,
0001
1000
0001
0000
1000
0100
1000
0001
0000
0100
0000
0001
0000
0010
0100
0000
,
1000
0010
1000
0000
0001
0100
0001
0010
0000
0100
0000
1000
0000
0001
0100
0000
,
0001
1000
0001
0000
0010
0000
0100
1000
0000
0001
0000
0100
0000
0010
0100
0000
,
0001
1000
0001
0000
1000
0100
0010
0001
0000
1000
0000
0010
0000
0100
0001
0000
,
1000
0100
0010
0000
0001
1000
0001
0010
0000
0100
0000
1000
0000
0010
0100
0000
,
0001
1000
0001
0000
0010
0100
1000
0001
0000
0100
0000
0010
0000
0100
0001
0000
,
0010
0100
1000
0000
0001
0100
0001
1000
0000
0010
0000
0100
0000
0001
1000
0000
,
1100
0000
0100
0000
0010
0000
0001
0000
1000
0010
0000
0100
0000
0001
0000
1000
,
0010
0000
0100
0000
0001
0000
1000
0000
0100
0010
0000
0100
0000
1000
0000
0001
,
0100
0000
0010
0000
1000
0000
0010
0000
0100
0001
0000
1000
0000
0100
0000
0010
,
0100
0000
1000
0000
0001
0000
0100
0000
0010
1000
0000
0010
0000
0100
0000
0001
,
1000
0000
0100
0000
0010
0000
0100
0000
1000
0001
0000
0100
0000
0010
0000
1000
,
0010
0000
0100
0000
0001
0000
1000
0000
0100
0010
0000
0100
0000
1000
0000
0001
,
0100
0000
0001
0000
1000
0000
0010
0000
0100
0001
0000
1000
0000
0100
0000
0010
,
0100
0000
1000
0000
0001
0000
0100
0000
0010
1000
0000
0010
0000
0100
0000
0001
,
1000
0000
0000
0000
0100
0000
0000
0000
0010
0000
0000
0000
0001
0000
1000
0001
0100
0000
0010
0000
1000
0000
0000
0000
0000
0000
0001
1000
0100
0000
0010
0000
,
0000
0000
0001
0000
1000
0000
0001
0000
0010
0000
0000
0000
0100
0000
1000
0001
0100
0000
0010
0000
1000
0000
0000
0000
0000
0000
0001
1000
0100
0000
0010
0000
,
0000
0100
1000
0010
0100
0000
0001
1000
0001
0010
0100
0000
1000
0000
0001
1000
,
0010
0100
0010
0000
1000
0000
0001
0010
0100
1000
0100
0000
0010
0000
0001
1000
,
0001
1000
0010
0000
0100
0000
0001
0100
0010
1000
0001
0000
0010
0000
0100
1000
,
0100
0010
0001
0000
1000
0000
0010
0100
0001
0100
0010
0000
1000
0000
0001
0000
,
0010
0000
0000
0000
0001
0000
1000
0010
0100
0010
1000
0001
0010
0001
1000
0100
,
0010
0001
1000
0000
0010
0000
1000
0010
0100
0010
1000
0001
0010
0001
1000
0010
,
0100
0001
1000
0000
0001
0000
0010
0100
0010
0001
1000
0010
0100
0010
1000
0001
,
0010
0001
1000
0000
0010
0000
0100
0001
1000
0010
0100
0001
1000
0001
0010
0000
,
0100
0000
0010
0000
0001
0000
1000
0010
0100
0010
1000
0001
0010
0001
1000
0100
,
0010
0001
1000
0000
0010
0000
1000
0100
0010
0001
1000
0010
1000
0001
0100
0010
,
1000
0001
0010
0000
0001
0000
0010
0100
0010
0001
1000
0010
0100
0010
1000
0001
,
0010
0001
1000
0000
0010
0000
0100
0001
1000
0010
1000
0001
0010
0001
1000
0000
,
0100
0000
0010
0000
0001
1000
0001
0010
0100
0010
0001
1000
0010
1000
0001
0100
,
0010
1000
0001
0010
0100
1000
0001
0100
0010
1000
0001
1000
0010
0100
0001
0010
,
0100
1000
0001
1000
0010
0100
0001
0100
0010
1000
0001
0010
0100
1000
0001
0100
,
0010
1000
0001
0010
0100
1000
0001
0010
0100
1000
0001
1000
0010
0100
0001
1000
,
0001
0100
0010
1000
0001
0010
0001
1000
0100
0010
0001
1000
0010
1000
0001
0010
,
0100
1000
0001
0010
0001
1000
0010
1000
0001
0010
0100
1000
0100
0010
0001
1000
,
0010
0100
0001
1000
0001
1000
0010
0100
0001
1000
0001
0100
0010
1000
0001
1000
,
0100
0010
0001
1000
0100
0010
0001
1000
0001
0010
0100
1000
0001
0100
0010
1000
,
0001
0010
0100
1000
0001
1000
0010
0100
0001
1000
0100
1000
0001
0100
0010
1000
,
0001
0010
0100
1000
0001
1000
0010
0100
0001
0100
0010
1000
0001
0010
0100
1000
,
0100
0010
0001
1000
0010
0100
0001
1000
0001
1000
0010
0100
0001
1000
0001
0010
,
0100
0010
0001
1000
0010
1000
0001
0010
0100
0010
0001
1000
0010
0100
0001
1000
,
0001
0010
0100
1000
0100
0010
0001
0100
0010
1000
0001
1000
0100
0010
0100
1000
,
0001
0000
0100
0000
0010
0000
0100
0000
0002
0000
0000
0003
1000
0100
1000
0001
0100
0010
1000
0001
2000
0000
0000
3000
0100
0010
0001
1000
0001
0100
0010
1000
,
0010
0000
0100
0000
0002
0000
0000
0000
2003
0000
0000
3000
0100
0010
0001
1000
0001
0100
0010
0100
0002
0000
0000
0003
1000
0100
0010
0100
1000
0010
0100
0001
,
0100
0000
0010
0000
2000
0000
0000
0000
3002
0000
0000
0003
0010
0100
1000
0001
0100
0010
0100
0001
2000
0000
0000
3000
0010
0100
0001
0000
0010
0100
1000
0000
,
0002
0000
0000
0000
2003
0000
0000
3000
0200
0000
0320
0000
0031
1000
0010
0100
,
0002
0000
0000
0003
1000
0001
0010
0100
1000
0010
1000
0100
0020
0000
0032
0000
,
2003
0000
3000
0000
0002
0000
0000
0000
0023
0000
0230
0000
1300
0001
0010
0001
,
2000
0000
0000
3000
0010
0100
0001
1000
0001
0010
0100
1000
0002
0000
0023
0000
,
0032
0000
0000
0000
2003
0000
0000
0000
3020
0000
0230
0000
0310
1000
0100
0010
,
0002
0000
0000
0000
1003
0001
0010
0100
1000
0010
0100
0001
0020
0000
0230
0000
,
0320
0000
0000
0030
0002
0000
0000
0000
2003
0000
3020
0000
0130
0001
1000
0100
,
0020
0000
0000
0030
0001
0010
0100
0000
1000
0010
0100
0000
0002
0000
0000
0000
,
0000
0003
0000
0000
0000
0000
0000
0000
;

//---------------dance-single - Rynker & Aoreo----------------
#NOTES:
     dance-single:
     Rynker & Aoreo:
     Hard:
     16:
     1.000,1.000,0.005,0.311,1.000,1627.000,1.000,59.000,0.000,0.000:
0000
0000
0000
0000
,
0000
0000
0000
0000
,
0000
0000
0000
0000
1000
0001
0100
0010
0100
0001
1000
0100
0010
0001
1000
0001
,
0100
0001
0010
0001
0100
0010
1000
0010
0100
0001
1000
0100
0010
0100
1000
0010
,
1000
0100
1000
0010
0100
0001
0100
0010
1000
0001
0010
0100
1000
0001
0010
0001
,
0100
0010
1000
0100
0010
0100
1000
0010
0100
0001
0010
0001
0100
0010
1000
0001
,
1000
0100
1000
0010
0100
0001
1000
0100
0010
0001
1000
0100
0010
0100
1000
0001
,
0100
0001
0010
0001
0100
0010
1000
0001
0010
0100
0010
0001
1000
0001
0100
0010
,
1000
0100
1000
0010
1000
0100
0010
0001
0010
0100
1000
0001
0100
0010
1000
0100
,
1000
0001
0010
0001
0100
0010
1000
0100
0010
0001
0100
0010
1000
0001
0100
0000
,
0001
0000
0010
0000
0100
0000
1000
0001
0100
0010
1000
0010
0100
0001
0010
0100
,
1000
0100
0010
0001
1000
0001
1000
0010
0100
0001
1000
0100
0010
0100
1000
0010
,
0100
0001
0100
0010
1000
0001
0010
0100
1000
0001
0100
0010
0100
0001
1000
0100
,
0010
0001
1000
0010
1000
0001
0100
0001
0010
0100
1000
0010
0100
0001
0100
0010
,
1000
0000
0000
0000
0001
0010
0100
1000
0100
0010
0001
0100
0010
1000
0010
0100
,
0001
0100
0010
1000
0100
0010
0001
1000
0001
0100
0010
0100
0001
1000
0100
0010
,
0001
1000
0001
0100
0010
1000
0010
0100
0001
0010
0100
1000
0100
0010
0001
1000
,
0001
1000
0010
0100
0001
0010
0100
1000
0100
0010
0001
0000
1000
0001
1000
0001
,
1000
0000
0001
0000
1000
0100
0010
0001
1000
0010
0100
0010
1000
0001
1000
0001
,
1000
0100
0010
0001
0010
0100
1000
0010
0100
0001
0100
0010
1000
0001
1000
0001
,
1000
0100
0010
0001
1000
0010
0100
0001
1000
0001
0010
0100
1000
0001
1000
0001
,
1000
0100
0010
0001
0100
0010
1000
0010
0100
0001
1000
0000
0001
1000
0001
1000
,
0001
0000
1000
0000
0001
0100
0010
0100
0001
1000
0100
0010
0001
1000
0001
1000
,
0001
0100
0010
0100
0001
0010
0100
1000
0010
1000
0100
0010
0001
1000
0001
1000
,
0001
0100
0010
0100
0001
1000
0100
0010
0001
1000
0010
0100
0001
1000
0001
1000
,
0001
0010
0100
1000
0100
1000
0001
0100
0001
0100
0010
0100
0001
1000
0100
1000
,
0100
0010
0001
0010
0001
0000
1000
0100
0010
0000
0001
1000
0000
0010
0100
0001
,
0100
0000
0010
0000
1000
0000
0100
0010
0001
0000
1000
0000
0001
1000
0001
0010
,
0100
1000
0001
1000
0010
0000
0100
0001
0100
0000
0010
1000
0000
0001
1000
0100
,
0010
0000
0001
0000
1000
0100
1000
0001
1000
0000
0010
0100
0000
0001
1000
0001
,
0010
0000
0100
0000
1000
0010
1000
0001
0100
0000
0001
1000
0000
0001
0010
0100
,
1000
0000
0001
0000
0100
0010
1000
0010
0100
0000
0001
0010
0000
0100
1000
0000
,
0002
0000
0003
0000
1000
0001
1000
0100
0010
0000
0001
1000
0000
0001
0100
0000
,
0001
0000
0010
0000
0001
0010
0001
1000
0100
1000
0100
0010
0001
1000
0001
1000
,
0001
0000
1000
0000
0001
0100
0010
1000
0010
0100
0001
1000
0001
1000
0100
0010
,
0100
1000
0001
0100
0010
0100
0001
1000
0100
0010
0001
0010
0100
1000
0001
0010
,
0100
1000
0001
0100
0010
1000
0001
1000
0010
0100
0001
0100
0010
1000
0001
1000
,
0100
0010
0001
0010
0100
1000
0001
0010
0100
1000
0001
0100
0010
0100
0001
1000
,
0100
0010
0100
1000
0001
0100
0000
0001
1000
0000
0100
0010
0000
0001
0010
0100
,
1000
0000
0100
0000
1000
0001
0000
0100
0010
0000
0100
0001
0000
1000
0100
1000
,
0001
0000
1000
0000
0100
1000
0000
0001
0010
0000
0100
1000
0000
0001
0100
0010
,
1000
0000
0001
0000
1000
0100
0010
0001
0010
0100
1000
0001
0100
0010
1000
0001
,
0100
0010
1000
0010
2000
0000
0000
3000
0001
0010
0100
0010
0001
0010
0100
1000
,
0002
0000
0000
0003
1000
0010
0100
0000
0001
0010
0100
0000
1000
0001
1000
0010
,
0200
0000
0000
0000
0302
0000
0000
0003
0100
0010
1000
0010
0100
0001
1000
0100
,
0020
0000
0000
0030
0001
1000
0100
0000
1000
0100
0010
0000
0001
1000
0001
0000
,
2000
0000
3100
0000
0020
0000
0000
0030
0001
1000
0100
1000
0001
0100
0010
1000
,
0002
0000
0000
0003
1000
0100
0010
0000
0001
0100
0010
0000
0100
0010
1000
0001
,
2000
0000
0000
3000
0002
0000
0000
0003
1000
0010
0100
0001
1000
0100
0010
0001
,
2000
0000
0000
3000
0001
0100
0010
0000
1000
0100
0010
0000
0001
0010
0100
0000
,
2000
0000
0000
3000
0002
0000
0103
0000
0010
1000
0100
0010
0100
1000
0001
0100
,
0020
0000
1030
0000
0001
1000
0100
0000
1000
0010
1000
0000
0001
0010
0001
0100
,
0020
0000
1030
0000
0002
0000
1003
0000
0100
0010
0001
0010
0100
1000
0001
0100
,
0020
0000
1030
0000
0001
1000
0100
0000
1000
0001
1000
0000
0001
0010
0001
0000
,
0200
0000
0301
0000
2000
0000
3100
0000
0010
0001
1000
0001
0100
0010
1000
0010
,
0200
0000
0301
0000
1000
0100
0010
0000
0001
0100
0010
0000
1000
0001
1000
0010
,
0200
0000
0310
0000
2000
0000
3001
0000
1000
0100
0010
0001
0010
0100
1000
0010
,
0200
0000
0301
0000
1000
0100
0010
0000
0001
0100
0010
0000
2000
0000
0000
0000
,
0000
0000
3000
0000
0001
0100
0010
1000
0100
0010
0001
0100
0010
0100
0001
0010
,
0100
1000
0010
0100
0001
0100
0010
1000
0100
0010
0001
0100
0010
0100
0001
0010
,
0100
1000
0010
0100
0001
0100
0010
1000
0100
0010
0001
0100
0010
0100
0001
0010
,
0100
1000
0010
0100
0001
0100
0010
1000
0100
0010
0001
0100
0001
0000
0010
0000
,
0100
0000
1000
0000
0001
0100
0010
1000
0100
0010
0001
0100
0010
0100
0001
0010
,
0100
1000
0010
0100
0001
0100
0010
1000
0100
0010
0001
0100
0010
0100
0001
0010
,
0100
1000
0010
0100
0001
0100
0010
1000
0100
0010
0001
0100
0010
0100
0001
0010
,
0100
1000
0010
0100
0001
0100
0010
1000
0100
0010
0001
0100
0010
0100
0001
0000
,
1000
0000
0100
0000
1000
0100
0010
0001
0100
0010
1000
0100
0010
0100
1000
0010
,
0100
0001
0010
0100
1000
0100
0010
0001
0100
0010
1000
0100
0010
0100
1000
0010
,
0100
0001
0010
0100
1000
0100
0010
0001
0100
0010
1000
0100
0010
0100
1000
0010
,
0100
0001
0010
0100
1000
0100
0010
0001
0100
0010
1000
0100
1000
0000
0001
0000
,
0010
0000
0100
0000
1000
0000
0001
1000
0000
0100
0010
0000
0100
1000
0000
0100
,
0010
0001
0100
0010
1000
0000
0001
0100
0000
0010
0100
0000
0001
1000
0000
0100
,
0010
0100
1000
0001
0100
0000
0010
1000
0000
0001
1000
0000
0100
0010
0000
0100
,
1000
0001
0100
0010
1000
0000
0001
1000
0000
0100
0010
0000
0001
1000
0000
0100
,
0010
0100
1000
0001
0100
0001
1000
0100
1000
0000
0001
1000
0000
0001
0100
0001
,
1000
0100
1000
0001
0010
0001
1000
0010
1000
0000
0001
0100
0000
0001
1000
0100
,
1000
0100
0010
0000
0001
1000
0001
0010
0000
0100
0000
1000
0000
0001
0100
0000
,
0001
1000
0001
0000
1000
0100
1000
0001
0000
0100
0000
0001
0000
0010
0100
0000
,
1000
0010
1000
0000
0001
0100
0001
0010
0000
0100
0000
1000
0000
0001
0100
0000
,
0001
1000
0001
0000
0010
0000
0100
1000
0000
0001
0000
0100
0000
0010
0100
0000
,
0001
1000
0001
0000
1000
0100
0010
0001
0000
1000
0000
0010
0000
0100
0001
0000
,
1000
0100
0010
0000
0001
1000
0001
0010
0000
0100
0000
1000
0000
0010
0100
0000
,
0001
1000
0001
0000
0010
0100
1000
0001
0000
0100
0000
0010
0000
0100
0001
0000
,
0010
0100
1000
0000
0001
0100
0001
1000
0000
0010
0000
0100
0000
0001
1000
0000
,
1100
0000
0100
0000
0010
0000
0001
0000
1000
0010
0000
0100
0000
0001
0000
1000
,
0010
0000
0100
0000
0001
0000
1000
0000
0100
0010
0000
0100
0000
1000
0000
0001
,
0100
0000
0010
0000
1000
0000
0010
0000
0100
0001
0000
1000
0000
0100
0000
0010
,
0100
0000
1000
0000
0001
0000
0100
0000
0010
1000
0000
0010
0000
0100
0000
0001
,
1000
0000
0100
0000
0010
0000
0100
0000
1000
0001
0000
0100
0000
0010
0000
1000
,
0010
0000
0100
0000
0001
0000
1000
0000
0100
0010
0000
0100
0000
1000
0000
0001
,
0100
0000
0001
0000
1000
0000
0010
0000
0100
0001
0000
1000
0000
0100
0000
0010
,
0100
0000
1000
0000
0001
0000
0100
0000
0010
1000
0000
0010
0000
0100
0000
0001
,
1000
0000
0000
0000
0100
0000
0000
0000
0010
0000
0000
0000
0001
0000
1000
0001
0100
0000
0010
0000
1000
0000
0000
0000
0000
0000
0001
1000
0100
0000
0010
0000
,
0000
0000
0001
0000
1000
0000
0001
0000
0010
0000
0000
0000
0100
0000
1000
0001
0100
0000
0010
0000
1000
0000
0000
0000
0000
0000
0001
1000
0100
0000
0010
0000
,
0000
0100
1000
0010
0100
0000
0001
1000
0001
0010
0100
0000
1000
0000
0001
1000
,
0010
0100
0010
0000
1000
0000
0001
0010
0100
1000
0100
0000
0010
0000
0001
1000
,
0001
1000
0010
0000
0100
0000
0001
0100
0010
1000
0001
0000
0010
0000
0100
1000
,
0100
0010
0001
0000
1000
0000
0010
0100
0001
0100
0010
0000
1000
0000
0001
0000
,
0010
0000
0000
0000
0001
0000
1000
0010
0100
0010
1000
0001
0010
0000
0100
0000
,
1000
0000
0000
0000
0001
0000
1000
0001
1000
0100
0010
0001
1000
0000
0010
0000
,
0100
0000
0000
0000
0001
0000
1000
0100
1000
0001
0010
0100
1000
0000
0001
0000
,
0100
0000
0000
0000
0001
0000
1000
0010
1000
0001
0100
0010
0100
0000
0001
0000
,
1000
0000
0000
0000
0001
0000
1000
0010
0100
0010
1000
0001
0010
0000
0001
0000
,
1000
0000
0000
0000
0001
0000
1000
0001
1000
0100
0010
0001
1000
0000
0010
0000
,
0100
0000
0000
0000
0001
0000
0010
0100
0010
0001
1000
0010
0100
0000
0001
0000
,
0010
0000
0000
0000
0001
0000
1000
0001
1000
0010
0100
0001
1000
0000
0010
0000
,
0100
0000
0000
0000
0001
1000
0001
0010
0100
0010
0001
1000
0010
1000
0001
0100
,
0010
1000
0001
0010
0100
1000
0001
0100
0010
1000
0001
1000
0010
0100
0001
0010
,
0100
1000
0001
1000
0010
0100
0001
0100
0010
1000
0001
0010
0100
1000
0001
0100
,
0010
1000
0001
0010
0100
1000
0001
0010
0100
1000
0001
1000
0010
0100
0001
1000
,
0001
0100
0010
1000
0001
0010
0001
1000
0100
0010
0001
1000
0010
1000
0001
0010
,
0100
1000
0001
0010
0001
1000
0010
1000
0001
0010
0100
1000
0100
0010
0001
1000
,
0010
0100
0001
1000
0001
1000
0010
0100
0001
1000
0001
0100
0010
1000
0001
1000
,
0100
0010
0001
1000
0100
0010
0001
1000
0001
0010
0100
1000
0001
0100
0010
1000
,
0001
0010
0100
1000
0001
0000
1000
0001
1000
0100
0010
0000
0001
0000
1000
0010
,
1000
0001
0010
0000
0100
0000
1000
0001
1000
0010
0100
0000
0001
0000
0010
0100
,
1000
0001
1000
0000
0001
0000
1000
0010
1000
0001
0100
0000
0001
0000
0010
0100
,
1000
0001
1000
0000
0010
0000
0100
0001
1000
0100
1000
0000
0010
0000
0100
0000
,
0001
0000
0010
0000
0100
0000
1000
0001
1000
0010
0100
0000
0001
0000
0010
0100
,
1000
0000
0001
0000
1000
0000
0000
0000
0001
0000
0000
0000
1000
0000
0010
0000
0100
0000
0010
0000
2000
0000
0000
3000
0100
0000
0010
0000
0001
0000
1000
0000
,
0010
0000
0100
0000
0002
0000
0000
0000
2003
0000
0000
3000
0100
0010
0001
1000
0001
0100
0010
0100
0002
0000
0000
0003
1000
0100
0010
0100
1000
0010
0100
0001
,
0100
0000
0010
0000
2000
0000
0000
0000
3002
0000
0000
0003
0010
0100
1000
0001
0100
0010
0100
0001
2000
0000
0000
3000
0010
0100
0001
0000
0010
0100
1000
0000
,
0002
0000
0000
0000
2003
0000
0000
3000
0200
0000
0320
0000
0031
1000
0010
0100
,
0002
0000
0000
0003
1000
0001
0010
0100
1000
0010
1000
0100
0020
0000
0032
0000
,
2003
0000
3000
0000
0002
0000
0000
0000
0023
0000
0230
0000
1300
0001
0010
0001
,
2000
0000
0000
3000
0010
0100
0001
1000
0001
0010
0100
1000
0002
0000
0023
0000
,
0032
0000
0000
0000
2003
0000
0000
0000
3020
0000
0230
0000
0310
1000
0100
0010
,
0002
0000
0000
0000
1003
0001
0010
0100
1000
0010
0100
0001
0020
0000
0230
0000
,
0320
0000
0000
0030
0002
0000
0000
0000
2003
0000
3020
0000
0130
0001
1000
0100
,
0020
0000
0000
0030
0001
0010
0100
0000
1000
0010
0100
0000
0002
0000
0000
0000
,
0000
0003
0000
0000
0000
0000
0000
0000
;

//---------------dance-single - Rynker & Aoreo----------------
#NOTES:
     dance-single:
     Rynker & Aoreo:
     Medium:
     14:
     1.000,1.000,0.005,0.295,1.000,1547.000,1.000,56.000,0.000,0.000:
0000
0000
0000
0000
,
0000
0000
0000
0000
,
0000
0000
0000
0000
1000
0001
0100
0010
0100
0001
1000
0100
0010
0001
1000
0001
,
0100
0001
0010
0001
0100
0010
1000
0010
0100
0001
1000
0100
0010
0100
1000
0010
,
1000
0100
1000
0010
0100
0001
0100
0010
1000
0001
0010
0100
1000
0001
0010
0001
,
0100
0010
1000
0100
0010
0100
1000
0010
0100
0001
0010
0001
0100
0010
1000
0001
,
1000
0100
1000
0010
0100
0001
1000
0100
0010
0001
1000
0100
0010
0100
1000
0001
,
0100
0001
0010
0001
0100
0010
1000
0001
0010
0100
0010
0001
1000
0001
0100
0010
,
1000
0100
1000
0010
1000
0100
0010
0001
0010
0100
1000
0001
0100
0010
1000
0100
,
1000
0001
0010
0001
0100
0010
1000
0100
0010
0001
0100
0010
1000
0001
0100
0000
,
0001
0000
0010
0000
0100
0000
1000
0001
0100
0010
1000
0010
0100
0001
0010
0100
,
1000
0100
0010
0001
1000
0001
1000
0010
0100
0001
1000
0100
0010
0100
1000
0010
,
0100
0001
0100
0010
1000
0001
0010
0100
1000
0001
0100
0010
0100
0001
1000
0100
,
0010
0001
1000
0010
1000
0001
0100
0001
0010
0100
1000
0010
0100
0001
0100
0010
,
1000
0000
0000
0000
0001
0010
0100
1000
0100
0010
0001
0100
0010
1000
0010
0100
,
0001
0100
0010
1000
0100
0010
0001
1000
0001
0100
0010
0100
0001
1000
0100
0010
,
0001
1000
0001
0100
0010
1000
0010
0100
0001
0010
0100
1000
0100
0010
0001
1000
,
0001
1000
0010
0100
0001
0010
0100
1000
0100
0010
0001
0000
1000
0001
1000
0001
,
1000
0000
0001
0000
1000
0100
0010
0001
1000
0010
0100
0010
1000
0001
1000
0001
,
1000
0100
0010
0001
0010
0100
1000
0010
0100
0001
0100
0010
1000
0001
1000
0001
,
1000
0100
0010
0001
1000
0010
0100
0001
1000
0001
0010
0100
1000
0001
1000
0001
,
1000
0100
0010
0001
0100
0010
1000
0010
0100
0001
1000
0000
0001
1000
0001
1000
,
0001
0000
1000
0000
0001
0100
0010
0100
0001
1000
0100
0010
0001
1000
0001
1000
,
0001
0100
0010
0100
0001
0010
0100
1000
0010
1000
0100
0010
0001
1000
0001
1000
,
0001
0100
0010
0100
0001
1000
0100
0010
0001
1000
0010
0100
0001
1000
0001
1000
,
0001
0010
0100
1000
0100
1000
0001
0100
0001
0100
0010
0100
0001
1000
0100
1000
,
0100
0010
0001
0010
0001
0000
1000
0100
0010
0000
0001
1000
0000
0010
0100
0001
,
0100
0000
0010
0000
1000
0000
0100
0010
0001
0000
1000
0000
0001
1000
0001
0010
,
0100
1000
0001
1000
0010
0000
0100
0001
0100
0000
0010
1000
0000
0001
1000
0100
,
0010
0000
0001
0000
1000
0100
1000
0001
1000
0000
0010
0100
0000
0001
1000
0001
,
0010
0000
0100
0000
1000
0010
1000
0001
0100
0000
0001
1000
0000
0001
0010
0100
,
1000
0000
0001
0000
0100
0010
1000
0010
0100
0000
0001
0010
0000
0100
1000
0000
,
0002
0000
0003
0000
1000
0001
1000
0100
0010
0000
0001
1000
0000
0001
0100
0000
,
0001
0000
0010
0000
0001
0010
0001
1000
0100
1000
0100
0010
0001
1000
0001
1000
,
0001
0000
1000
0000
0001
0100
0010
1000
0010
0100
0001
1000
0001
1000
0100
0010
,
0100
1000
0001
0100
0010
0100
0001
1000
0100
0010
0001
0010
0100
1000
0001
0010
,
0100
1000
0001
0100
0010
1000
0001
1000
0010
0100
0001
0100
0010
1000
0001
1000
,
0100
0010
0001
0010
0100
1000
0001
0010
0100
1000
0001
0100
0010
0100
0001
1000
,
0100
0010
0100
1000
0001
0100
0000
0001
1000
0000
0100
0010
0000
0001
0010
0100
,
1000
0000
0100
0000
1000
0001
0000
0100
0010
0000
0100
0001
0000
1000
0100
1000
,
0001
0000
1000
0000
0100
1000
0000
0001
0010
0000
0100
1000
0000
0001
0100
0010
,
1000
0000
0001
0000
1000
0100
0010
0001
0010
0100
1000
0001
0100
0010
1000
0001
,
0100
0010
1000
0010
2000
0000
0000
3000
0001
0010
0100
0010
0001
0010
0100
1000
,
0002
0000
0000
0003
1000
0010
0100
0000
0001
0010
0100
0000
1000
0001
1000
0010
,
0200
0000
0000
0000
0302
0000
0000
0003
0100
0010
1000
0010
0100
0001
1000
0100
,
0020
0000
0000
0030
0001
1000
0100
0000
1000
0100
0010
0000
0001
1000
0001
0000
,
2000
0000
3100
0000
0020
0000
0000
0030
0001
1000
0100
1000
0001
0100
0010
1000
,
0002
0000
0000
0003
1000
0100
0010
0000
0001
0100
0010
0000
0100
0010
1000
0001
,
2000
0000
0000
3000
0002
0000
0000
0003
1000
0010
0100
0001
1000
0100
0010
0001
,
2000
0000
0000
3000
0001
0100
0010
0000
1000
0100
0010
0000
0001
0010
0100
0000
,
2000
0000
0000
3000
0002
0000
0103
0000
0010
1000
0100
0010
0100
1000
0001
0100
,
0020
0000
1030
0000
0001
1000
0100
0000
1000
0010
1000
0000
0001
0010
0001
0100
,
0020
0000
1030
0000
0002
0000
1003
0000
0100
0010
0001
0010
0100
1000
0001
0100
,
0020
0000
1030
0000
0001
1000
0100
0000
1000
0001
1000
0000
0001
0010
0001
0000
,
0200
0000
0301
0000
2000
0000
3100
0000
0010
0001
1000
0001
0100
0010
1000
0010
,
0200
0000
0301
0000
1000
0100
0010
0000
0001
0100
0010
0000
1000
0001
1000
0010
,
0200
0000
0310
0000
2000
0000
3001
0000
1000
0100
0010
0001
0010
0100
1000
0010
,
0200
0000
0301
0000
1000
0100
0010
0000
0001
0100
0010
0000
2000
0000
0000
0000
,
0000
0000
3000
0000
0001
0100
0010
1000
0100
0010
0001
0100
0010
0100
0001
0010
,
0100
1000
0010
0100
0001
0100
0010
1000
0100
0010
0001
0100
0010
0100
0001
0010
,
0100
1000
0010
0100
0001
0100
0010
1000
0100
0010
0001
0100
0010
0100
0001
0010
,
0100
1000
0010
0100
0001
0100
0010
1000
0100
0010
0001
0100
0001
0000
0010
0000
,
0100
0000
1000
0000
0001
0100
0010
1000
0100
0010
0001
0100
0010
0100
0001
0010
,
0100
1000
0010
0100
0001
0100
0010
1000
0100
0010
0001
0100
0010
0100
0001
0010
,
0100
1000
0010
0100
0001
0100
0010
1000
0100
0010
0001
0100
0010
0100
0001
0010
,
0100
1000
0010
0100
0001
0100
0010
1000
0100
0010
0001
0100
0010
0100
0001
0000
,
1000
0000
0100
0000
1000
0100
0010
0001
0100
0010
1000
0100
0010
0100
1000
0010
,
0100
0001
0010
0100
1000
0100
0010
0001
0100
0010
1000
0100
0010
0100
1000
0010
,
0100
0001
0010
0100
1000
0100
0010
0001
0100
0010
1000
0100
0010
0100
1000
0010
,
0100
0001
0010
0100
1000
0100
0010
0001
0100
0010
1000
0100
1000
0000
0001
0000
,
0010
0000
0100
0000
1000
0000
0001
1000
0000
0100
0010
0000
0100
1000
0000
0100
,
0010
0001
0100
0010
1000
0000
0001
0100
0000
0010
0100
0000
0001
1000
0000
0100
,
0010
0100
1000
0001
0100
0000
0010
1000
0000
0001
1000
0000
0100
0010
0000
0100
,
1000
0001
0100
0010
1000
0000
0001
1000
0000
0100
0010
0000
0001
1000
0000
0100
,
0010
0100
1000
0001
0100
0001
1000
0100
1000
0000
0001
1000
0000
0001
0100
0001
,
1000
0100
1000
0001
0010
0001
1000
0010
1000
0000
0001
0100
0000
0001
1000
0100
,
1000
0100
0010
0000
0001
1000
0001
0010
0000
0100
0000
1000
0000
0001
0100
0000
,
0001
1000
0001
0000
1000
0100
1000
0001
0000
0100
0000
0001
0000
0010
0100
0000
,
1000
0010
1000
0000
0001
0100
0001
0010
0000
0100
0000
1000
0000
0001
0100
0000
,
0001
1000
0001
0000
0010
0000
0100
1000
0000
0001
0000
0100
0000
0010
0100
0000
,
0001
1000
0001
0000
1000
0100
0010
0001
0000
1000
0000
0010
0000
0100
0001
0000
,
1000
0100
0010
0000
0001
1000
0001
0010
0000
0100
0000
1000
0000
0010
0100
0000
,
0001
1000
0001
0000
0010
0100
1000
0001
0000
0100
0000
0010
0000
0100
0001
0000
,
0010
0100
1000
0000
0001
0100
0001
1000
0000
0010
0000
0100
0000
0001
1000
0000
,
1100
0000
0100
0000
0010
0000
0001
0000
1000
0010
0000
0100
0000
0001
0000
1000
,
0010
0000
0100
0000
0001
0000
1000
0000
0100
0010
0000
0100
0000
1000
0000
0001
,
0100
0000
0010
0000
1000
0000
0010
0000
0100
0001
0000
1000
0000
0100
0000
0010
,
0100
0000
1000
0000
0001
0000
0100
0000
0010
1000
0000
0010
0000
0100
0000
0001
,
1000
0000
0100
0000
0010
0000
0100
0000
1000
0001
0000
0100
0000
0010
0000
1000
,
0010
0000
0100
0000
0001
0000
1000
0000
0100
0010
0000
0100
0000
1000
0000
0001
,
0100
0000
0001
0000
1000
0000
0010
0000
0100
0001
0000
1000
0000
0100
0000
0010
,
0100
0000
1000
0000
0001
0000
0100
0000
0010
1000
0000
0010
0000
0100
0000
0001
,
1000
0000
0000
0000
0100
0000
0000
0000
0010
0000
0000
0000
0001
0000
1000
0001
0100
0000
0010
0000
1000
0000
0000
0000
0000
0000
0001
1000
0100
0000
0010
0000
,
0000
0000
0001
0000
1000
0000
0001
0000
0010
0000
0000
0000
0100
0000
1000
0001
0100
0000
0010
0000
1000
0000
0000
0000
0000
0000
0001
1000
0100
0000
0010
0000
,
0000
0100
1000
0010
0100
0000
0001
1000
0001
0010
0100
0000
1000
0000
0001
1000
,
0010
0100
0010
0000
1000
0000
0001
0010
0100
1000
0100
0000
0010
0000
0001
1000
,
0001
1000
0010
0000
0100
0000
0001
0100
0010
1000
0001
0000
0010
0000
0100
1000
,
0100
0010
0001
0000
1000
0000
0010
0100
0001
0100
0010
0000
1000
0000
0001
0000
,
0010
0000
0001
4000
0000
3000
0001
0100
,
0010
0000
1000
0004
0000
0003
1000
0001
,
0010
0100
1000
0000
0001
0000
0400
0000
0000
0000
0300
0000
0001
0000
1000
0000
,
0010
0000
1000
0004
0000
0003
1000
0100
,
0010
0100
1000
0040
0000
0030
0100
0001
,
1000
0000
0001
0400
0000
0300
0001
0010
,
0100
1000
0001
0000
1000
0000
0040
0000
0000
0000
0030
0000
1000
0000
0100
0000
,
0010
0000
0001
0400
0000
0300
0001
0010
,
0100
0000
0000
0000
1000
0000
0001
1000
0001
0010
0100
0000
1000
0000
0001
0100
,
0001
0010
0100
0000
1000
0000
0001
0100
0001
1000
0100
0000
0010
0000
0001
1000
,
0001
0100
0010
0000
1000
0000
0010
1000
0001
1000
0100
0000
0010
0000
0001
1000
,
0001
0010
0100
0000
1000
0000
0001
0100
0001
1000
0010
0000
1000
0000
0100
0000
,
0010
0000
0001
0000
0100
0000
0001
1000
0001
0010
0100
0000
1000
0000
0001
1000
,
0010
0100
0010
0000
1000
0000
0100
0010
0100
1000
0001
0000
0100
0000
0001
1000
,
0001
0010
0100
0000
1000
0000
0010
1000
0010
0100
0001
0000
1000
0000
0001
0100
,
0001
0010
0100
0000
1000
0000
0001
0100
0001
1000
0100
0000
0010
0000
0001
0000
,
0100
0000
0000
0000
0001
0000
1000
0100
1000
0010
0100
0000
0001
0000
0010
0100
,
1000
0001
1000
0000
0010
0000
1000
0001
1000
0100
0010
0000
0100
0000
1000
0001
,
0100
0001
0010
0000
0100
0000
1000
0001
1000
0010
0100
0000
0010
0000
1000
0001
,
1000
0100
0010
0000
0001
0000
1000
0010
1000
0100
0010
0000
0001
0000
0100
0000
,
0001
0000
0010
0000
0100
0000
1000
0001
1000
0010
0100
0000
0001
0000
1000
0100
,
0010
0100
1000
0000
0001
0000
1000
0100
1000
0001
0100
0000
0001
1000
0001
0010
,
0100
0000
1000
0000
0001
0000
0000
0000
1000
0000
0000
0000
0001
0010
0001
1000
0001
0100
0010
0100
0002
0000
0000
0003
1000
0100
0010
0100
1000
0010
0100
0001
,
0100
0000
0010
0000
2000
0000
0000
0000
3002
0000
0000
0003
0010
0100
1000
0001
0100
0010
0100
0001
2000
0000
0000
3000
0010
0100
0001
0000
0010
0100
1000
0000
,
0002
0000
0000
0000
2003
0000
0000
3000
0200
0000
0320
0000
0031
1000
0010
0100
,
0002
0000
0000
0003
1000
0001
0010
0100
1000
0010
1000
0100
0020
0000
0032
0000
,
2003
0000
3000
0000
0002
0000
0000
0000
0023
0000
0230
0000
1300
0001
0010
0001
,
2000
0000
0000
3000
0010
0100
0001
1000
0001
0010
0100
1000
0002
0000
0023
0000
,
0032
0000
0000
0000
2003
0000
0000
0000
3020
0000
0230
0000
0310
1000
0100
0010
,
0002
0000
0000
0000
1003
0001
0010
0100
1000
0010
0100
0001
0020
0000
0230
0000
,
0320
0000
0000
0030
0002
0000
0000
0000
2003
0000
3020
0000
0130
0001
1000
0100
,
0020
0000
0000
0030
0001
0010
0100
0000
1000
0010
0100
0000
0002
0000
0000
0000
,
0000
0003
0000
0000
0000
0000
0000
0000
;
